osu file format v14

[General]
AudioFilename: audio.mp3
AudioLeadIn: 0
PreviewTime: -1
Countdown: 1
SampleSet: None
StackLeniency: 0.7
Mode: 0
LetterboxInBreaks: 0
WidescreenStoryboard: 0

[Editor]
DistanceSpacing: 1
BeatDivisor: 4
GridSize: 32
TimelineZoom: 1

[Metadata]
Title:Sunny
TitleUnicode:Sunny
Artist:Papa Ya
ArtistUnicode:Papa Ya
Creator:Mintarragon
Version:
Source:
Tags:
BeatmapID:1359685
BeatmapSetID:641173

[Difficulty]
HPDrainRate:4
CircleSize:4
OverallDifficulty:2.4
ApproachRate:6
SliderMultiplier:2.19999990463257
SliderTickRate:4

[Events]
//Background and Video events
//Break Periods
2,159139,163017
//Storyboard Layer 0 (Background)
//Storyboard Layer 1 (Fail)
//Storyboard Layer 2 (Pass)
//Storyboard Layer 3 (Foreground)
//Storyboard Sound Samples

[TimingPoints]
10011,612.244897959184,4,1,0,100,1,0

[HitObjects]
256,192,10011,5,0,0:0:0:0:
192,64,10470,2,0,L|192:320,1,219.999990463257
416,192,12613,1,0,0:0:0:0:
320,192,12919,1,0,0:0:0:0:
224,192,13225,1,0,0:0:0:0:
128,192,13531,2,0,L|64:192,3,54.9999976158142
128,96,15062,5,0,0:0:0:0:
224,160,15368,1,0,0:0:0:0:
320,256,15980,1,0,0:0:0:0:
448,64,17511,6,0,L|32:352,1,439.999980926514
96,224,19041,1,0,0:0:0:0:
352,64,19959,1,0,0:0:0:0:
288,96,20419,1,0,0:0:0:0:
224,96,20878,2,0,L|224:352,1,219.999990463257
160,128,22408,5,0,0:0:0:0:
288,128,22715,1,0,0:0:0:0:
288,256,23021,1,0,0:0:0:0:
224,256,23327,2,0,L|32:256,1,164.999992847443
64,64,24857,6,0,L|160:160,1,109.999995231628
224,192,25776,1,0,0:0:0:0:
416,96,27306,6,0,L|160:96,1,219.999990463257
320,192,28225,2,0,L|128:192,1,164.999992847443
96,224,29143,1,0,0:0:0:0:
96,96,29449,6,0,L|352:96,1,219.999990463257
416,96,30674,1,0,0:0:0:0:
416,192,30980,1,0,0:0:0:0:
320,192,31286,1,0,0:0:0:0:
320,96,32128,6,0,L|96:224,1,219.999990463257
224,256,33123,1,0,0:0:0:0:
352,256,33582,1,0,0:0:0:0:
448,96,34194,2,0,L|384:96,6,54.9999976158142
416,160,35572,5,0,0:0:0:0:
416,224,35878,2,0,L|192:224,1,219.999990463257
96,224,36796,1,0,0:0:0:0:
96,128,37102,1,0,0:0:0:0:
192,128,37408,1,0,0:0:0:0:
288,128,37715,2,0,L|480:128,1,164.999992847443
256,192,38633,5,0,0:0:0:0:
416,96,39245,6,0,P|416:320|288:64,1,769.999966621399
96,64,41694,2,0,B|384:64|416:352|64:96,1,549.999976158142
256,64,43531,5,0,0:0:0:0:
352,128,43837,1,0,0:0:0:0:
416,64,44449,2,0,L|416:128,4,54.9999976158142
416,192,45368,2,0,L|224:192,2,164.999992847443
96,96,47664,6,8,L|384:96,1,274.999988079071
384,192,48735,1,0,0:0:0:0:
288,192,49041,2,0,L|64:192,1,219.999990463257
96,96,49959,1,0,0:0:0:0:
96,96,50266,2,0,L|320:96,1,219.999990463257
416,96,51414,6,0,L|416:224,1,109.999995231628
320,224,52102,1,0,0:0:0:0:
256,224,52408,2,0,L|192:224,1,54.9999976158142
160,192,53021,2,8,L|160:128,4,54.9999976158142
192,128,54245,2,0,L|480:128,2,274.999988079071
128,128,57613,5,0,0:0:0:0:
128,224,57919,1,0,0:0:0:0:
192,224,58225,2,0,L|320:224,1,109.999995231628
416,224,58990,5,0,0:0:0:0:
416,160,59449,2,0,P|416:32|352:96,3,274.999988079071
256,224,62511,2,0,L|32:320,1,219.999990463257
192,160,63735,2,0,L|256:160,3,54.9999976158142
448,320,64653,2,0,L|224:96,3,274.999988079071
160,96,67255,5,0,0:0:0:0:
288,96,67715,1,0,0:0:0:0:
352,192,68174,1,0,0:0:0:0:
256,192,68633,2,0,L|64:192,3,164.999992847443
128,96,70317,1,0,0:0:0:0:
288,96,70623,1,0,0:0:0:0:
384,96,71082,5,0,0:0:0:0:
384,192,71388,2,0,L|384:320,4,109.999995231628
384,96,73072,1,0,0:0:0:0:
256,96,73378,1,0,0:0:0:0:
128,96,73684,1,0,0:0:0:0:
192,192,74143,1,0,0:0:0:0:
288,192,74755,2,0,L|480:192,3,164.999992847443
416,288,76592,5,0,0:0:0:0:
256,288,76898,1,0,0:0:0:0:
96,288,77204,1,0,0:0:0:0:
96,288,77511,2,0,B|96:64|256:256|480:64,1,439.999980926514
320,64,79041,5,0,0:0:0:0:
192,64,79347,1,0,0:0:0:0:
96,160,79653,1,0,0:0:0:0:
160,256,79959,1,0,0:0:0:0:
288,256,80266,1,0,0:0:0:0:
416,256,80572,1,0,0:0:0:0:
416,160,81184,6,0,L|224:64,1,164.999992847443
160,96,82102,1,0,0:0:0:0:
160,224,82562,1,0,0:0:0:0:
128,288,83633,2,0,L|256:288,3,109.999995231628
352,288,84857,1,0,0:0:0:0:
352,160,85164,1,0,0:0:0:0:
384,96,86082,2,0,L|160:96,1,219.999990463257
160,192,87000,2,0,L|416:192,1,219.999990463257
416,64,88531,5,0,0:0:0:0:
320,128,88837,1,0,0:0:0:0:
224,192,89143,1,0,0:0:0:0:
160,256,89449,1,0,0:0:0:0:
224,192,89755,1,0,0:0:0:0:
288,128,90062,1,0,0:0:0:0:
352,64,90368,1,0,0:0:0:0:
128,192,90674,6,0,L|224:192,4,54.9999976158142
96,160,91898,2,0,B|448:64|64:224|320:224|96:32|352:64|256:256|96:320,1,439.999980926514
256,192,93429,5,0,0:0:0:0:
320,256,93735,1,0,0:0:0:0:
256,192,94041,1,0,0:0:0:0:
320,128,94347,1,0,0:0:0:0:
256,192,94653,1,0,0:0:0:0:
160,288,94959,1,0,0:0:0:0:
160,288,95725,6,0,B|416:128|64:320|288:160|64:96|224:352|224:64,1,329.999985694885
288,192,97102,1,0,0:0:0:0:
160,128,98021,2,0,L|256:192,4,109.999995231628
256,192,99398,12,0,100164,0:0:0:0:
256,192,100470,5,0,0:0:0:0:
160,192,101082,2,0,B|160:96|320:128|352:224|64:224|96:96|224:64|288:160,1,329.999985694885
352,192,102383,1,0,0:0:0:0:
352,96,102766,2,0,L|128:224,1,219.999990463257
192,224,103837,6,0,L|288:128,4,109.999995231628
256,192,105674,5,0,0:0:0:0:
320,128,105980,1,0,0:0:0:0:
256,64,106286,1,0,0:0:0:0:
192,128,106592,1,0,0:0:0:0:
192,224,106898,1,0,0:0:0:0:
256,320,107204,2,0,B|448:160|224:320|224:128|256:128|256:160|224:160|192:160|192:128|224:96|256:96|288:128|288:160|288:192|288:224|288:256|256:256|224:256|160:256,1,494.999978542328
128,128,109041,5,0,0:0:0:0:
256,128,109347,1,0,0:0:0:0:
384,128,109653,2,0,L|384:288,1,109.999995231628
384,224,110266,5,0,0:0:0:0:
288,224,110572,1,0,0:0:0:0:
192,224,110878,1,0,0:0:0:0:
96,224,111184,1,0,0:0:0:0:
96,128,111490,1,0,0:0:0:0:
192,64,111796,1,0,0:0:0:0:
288,96,112102,1,0,0:0:0:0:
384,160,112562,6,0,L|320:192,7,54.9999976158142
256,256,113939,1,0,0:0:0:0:
160,224,114245,2,0,L|288:32,1,219.999990463257
416,64,115470,6,0,B|416:288|160:256|320:128|448:224|416:320|224:288|192:224,1,439.999980926514
128,160,117000,2,0,L|256:64,1,109.999995231628
288,96,118837,5,0,0:0:0:0:
384,96,119143,1,0,0:0:0:0:
448,160,119449,1,0,0:0:0:0:
384,224,119755,1,2,0:0:0:0:
160,288,120215,6,0,L|320:96,1,219.999990463257
416,96,121286,2,0,B|416:288|288:160|320:352|128:160|320:96|448:288|192:192,1,384.9999833107
192,128,123123,1,0,0:0:0:0:
320,224,123735,2,0,L|384:128,3,109.999995231628
256,128,125113,5,0,0:0:0:0:
160,256,125572,1,0,0:0:0:0:
256,256,126184,2,0,L|352:128,3,109.999995231628
352,96,127485,1,0,0:0:0:0:
256,96,128021,6,0,L|128:160,1,109.999995231628
128,224,128633,2,0,L|256:288,1,109.999995231628
320,288,129245,1,0,0:0:0:0:
416,256,129551,1,0,0:0:0:0:
416,160,129857,6,0,B|256:64|224:192|416:96|416:32|224:64|192:224|352:192,1,329.999985694885
320,192,131082,2,0,L|64:128,1,219.999990463257
192,96,132000,1,0,0:0:0:0:
352,96,132306,1,0,0:0:0:0:
352,224,132919,1,0,0:0:0:0:
192,224,133531,2,0,L|64:224,3,109.999995231628
160,128,134755,5,0,0:0:0:0:
320,128,135368,1,0,0:0:0:0:
320,224,135980,6,0,L|192:224,4,109.999995231628
352,160,137511,1,0,0:0:0:0:
288,64,137817,1,0,0:0:0:0:
224,160,138123,1,0,0:0:0:0:
288,256,138429,1,0,0:0:0:0:
192,288,138735,1,0,0:0:0:0:
128,192,139041,1,0,0:0:0:0:
224,128,139347,1,0,0:0:0:0:
320,128,139959,6,0,L|320:256,1,109.999995231628
224,256,140572,1,0,0:0:0:0:
128,256,140878,1,0,0:0:0:0:
128,160,141184,1,0,0:0:0:0:
224,160,141490,1,0,0:0:0:0:
320,288,142408,5,0,0:0:0:0:
320,160,142715,1,0,0:0:0:0:
448,160,143021,1,0,0:0:0:0:
448,288,143327,1,0,0:0:0:0:
320,288,143633,1,0,0:0:0:0:
224,288,143939,2,0,B|96:256|128:160|256:160|224:256|160:256|128:256,1,274.999988079071
192,160,145164,5,0,0:0:0:0:
320,160,145776,1,0,0:0:0:0:
384,256,146388,1,0,0:0:0:0:
288,256,147000,5,0,0:0:0:0:
192,256,147306,1,0,0:0:0:0:
96,256,147613,1,0,0:0:0:0:
160,160,147919,1,0,0:0:0:0:
256,160,148378,2,0,L|320:160,5,54.9999976158142
416,192,149755,5,0,0:0:0:0:
320,192,150062,1,0,0:0:0:0:
224,192,150368,1,0,0:0:0:0:
128,192,150674,1,0,0:0:0:0:
128,96,150980,2,0,B|256:96|320:192|192:224|64:192|64:32|192:32|288:96|320:160|320:224|128:192|64:128|96:32,1,549.999976158142
192,96,152817,5,0,0:0:0:0:
256,96,153123,1,0,0:0:0:0:
320,96,153429,1,0,0:0:0:0:
384,96,153735,2,0,B|384:256|288:160|448:128|416:64|320:96|288:224|416:224|480:160|480:64|256:160|352:256|416:160,1,274.999988079071
288,192,154959,5,0,0:0:0:0:
192,192,155266,1,0,0:0:0:0:
96,192,155572,2,0,L|96:64,2,109.999995231628
160,96,156796,5,0,0:0:0:0:
256,96,157102,1,0,0:0:0:0:
352,96,157408,1,0,0:0:0:0:
448,96,157715,1,0,0:0:0:0:
448,192,158021,1,0,0:0:0:0:
448,288,158327,1,0,0:0:0:0:
352,288,158633,1,0,0:0:0:0:
224,288,158939,1,0,0:0:0:0:
192,256,164067,5,0,0:0:0:0:
320,256,164679,1,0,0:0:0:0:
320,128,165291,1,0,0:0:0:0:
192,128,165903,1,0,0:0:0:0:
192,256,166516,1,0,0:0:0:0:
352,256,167128,1,0,0:0:0:0:
352,128,167817,6,0,L|224:128,3,109.999995231628
192,224,169041,1,0,0:0:0:0:
288,224,169347,2,0,L|416:32,1,219.999990463257
256,96,170266,1,0,0:0:0:0:
224,192,170572,1,0,0:0:0:0:
160,256,170878,1,0,0:0:0:0:
96,160,171337,6,0,L|448:160,1,329.999985694885
416,224,172715,1,0,0:0:0:0:
288,288,173021,1,0,0:0:0:0:
160,224,173327,1,0,0:0:0:0:
288,128,173633,1,0,0:0:0:0:
192,224,174245,6,0,L|256:224,4,54.9999976158142
384,224,175164,1,0,0:0:0:0:
384,128,175470,1,0,0:0:0:0:
288,128,175776,1,0,0:0:0:0:
224,192,176082,1,0,0:0:0:0:
192,224,177613,6,0,L|256:224,5,54.9999976158142
416,256,178837,2,0,B|416:64|224:192|96:64|96:288,2,439.999980926514
256,256,181898,1,0,0:0:0:0:
384,128,182511,5,0,0:0:0:0:
288,128,182817,1,0,0:0:0:0:
192,128,183123,1,0,0:0:0:0:
96,128,183429,1,0,0:0:0:0:
256,256,183735,1,0,0:0:0:0:
256,96,184347,5,0,0:0:0:0:
96,192,184959,2,0,L|384:224,1,274.999988079071
352,96,186184,5,0,0:0:0:0:
288,192,186490,1,0,0:0:0:0:
224,96,186796,1,0,0:0:0:0:
160,192,187102,1,0,0:0:0:0:
224,288,187408,1,0,0:0:0:0:
288,192,187715,1,0,0:0:0:0:
352,288,188021,1,0,0:0:0:0:
416,192,188327,1,0,0:0:0:0:
384,96,188633,6,0,L|128:96,3,219.999990463257
128,192,191082,2,0,L|352:192,3,219.999990463257
384,288,193531,2,0,L|160:288,3,219.999990463257
128,224,195980,5,0,0:0:0:0:
192,128,196286,1,0,0:0:0:0:
288,128,196592,1,0,0:0:0:0:
352,224,196898,1,0,0:0:0:0:
480,352,197204,1,0,0:0:0:0:
32,32,197511,1,0,0:0:0:0:
96,96,197817,1,0,0:0:0:0:
160,160,198123,1,0,0:0:0:0:
256,160,198429,6,0,L|256:256,1,54.9999976158142
352,160,198735,2,0,L|352:224,1,54.9999976158142
448,160,199041,2,0,L|448:224,1,54.9999976158142
448,320,199347,2,0,L|384:320,1,54.9999976158142
320,320,199653,2,0,L|256:320,1,54.9999976158142
192,320,199959,2,0,L|128:320,1,54.9999976158142
64,320,200266,2,0,L|64:256,1,54.9999976158142
64,192,200572,2,0,L|64:128,1,54.9999976158142
