osu file format v14

[General]
AudioFilename: audio.mp3
AudioLeadIn: 0
PreviewTime: 23188
Countdown: 0
SampleSet: Soft
StackLeniency: 0.3
Mode: 0
LetterboxInBreaks: 0
WidescreenStoryboard: 0

[Editor]
DistanceSpacing: 1
BeatDivisor: 2
GridSize: 16
TimelineZoom: 1

[Metadata]
Title:The Colors Of My Life (Nightcore Mix)
TitleUnicode:The Colors Of My Life (Nightcore Mix)
Artist:Paolo Ligorio
ArtistUnicode:Paolo Ligorio
Creator:MkGuh
Version:Stingy's Easy
Source:
Tags:english remix speed up ver speedcore tempo pitch italian anime girl stingy lumael Silvia Criscenzo italodance techno
BeatmapID:1387924
BeatmapSetID:646724

[Difficulty]
HPDrainRate:3
CircleSize:2.5
OverallDifficulty:2
ApproachRate:3
SliderMultiplier:0.9
SliderTickRate:1

[Events]
//Background and Video events
0,0,"anime-landscape-wallpaper-HD10.jpg",0,0
//Break Periods
2,46951,56607
//Storyboard Layer 0 (Background)
//Storyboard Layer 1 (Fail)
//Storyboard Layer 2 (Pass)
//Storyboard Layer 3 (Foreground)
//Storyboard Sound Samples

[TimingPoints]
12863,353.0034712008,4,2,1,70,1,0
24159,-100,4,2,1,70,0,1
46751,-100,4,2,1,70,0,0
58047,-100,4,2,1,70,0,0
69343,-100,4,2,1,70,0,1
91935,-100,4,2,1,70,0,0

[Colours]
Combo1 : 219,202,227
Combo2 : 255,227,132
Combo3 : 162,175,253

[HitObjects]
48,80,12862,6,0,B|176:96|176:96|208:160,1,180,4|2,0:0|0:0,0:0:0:0:
256,208,13922,1,8,0:0:0:0:
313,141,14275,2,0,B|336:96|336:96|464:80,1,180,2|2,0:0|0:0,0:0:0:0:
512,160,15334,1,8,0:0:0:0:
464,240,15687,2,0,P|416:272|288:224,2,180,2|2|2,0:0|0:0|0:0,0:0:0:0:
512,160,17452,1,8,0:0:0:0:
464,80,17805,2,0,L|368:48,1,90,2|8,0:0|0:0,0:0:0:0:
288,16,18511,6,0,B|256:64|256:64|176:48|112:112,1,180,2|2,0:0|0:0,0:0:0:0:
80,160,19570,1,8,0:0:0:0:
128,240,19923,2,0,B|164:280|244:264|244:264|276:312,1,180,2|2,0:0|0:0,0:0:0:0:
352,352,20982,1,8,0:0:0:0:
432,304,21335,2,0,B|448:256|433:214|433:214|451:154|416:96,2,180,2|2|2,0:0|0:0|0:0,0:0:0:0:
76,362,24159,6,0,L|69:264,1,90,4|8,1:0|0:0,0:0:0:0:
150,233,24865,2,0,L|157:135,1,90,0|8,1:0|0:0,0:0:0:0:
129,57,25571,2,0,P|166:94|272:25,2,180,0|0|0,1:0|1:0|1:0,0:0:0:0:
47,19,27336,1,8,0:0:0:0:
0,96,27689,2,0,P|2:163|16:197,1,90,0|8,1:0|0:0,0:0:0:0:
55,261,28395,2,0,P|53:328|39:362,2,90,0|8|0,1:0|0:0|1:0,0:0:0:0:
9,184,29454,1,8,0:0:0:0:
68,116,29807,6,0,B|103:79|103:79|236:70,1,180,0|0,1:0|1:0,0:0:0:0:
278,147,30866,1,8,0:0:0:0:
317,228,31219,2,0,B|352:265|352:265|485:274,1,180,0|0,1:0|1:0,0:0:0:0:
508,188,32278,1,8,0:0:0:0:
473,104,32631,2,0,P|475:37|489:3,2,90,0|8|0,1:0|0:0|1:0,0:0:0:0:
508,188,33690,1,8,0:0:0:0:
453,259,34043,2,0,B|418:296|418:296|285:305,1,180,0|0,1:0|1:0,0:0:0:0:
113,345,35455,6,0,P|106:295|118:250,1,90,4|8,1:0|0:0,0:0:0:0:
198,223,36161,2,0,P|208:186|197:124,1,90,0|8,1:0|0:0,0:0:0:0:
114,111,36867,2,0,P|151:62|280:93,2,180,0|0|0,1:0|1:0|1:0,0:0:0:0:
95,199,38632,1,8,0:0:0:0:
140,276,38985,2,0,L|248:295,1,90,0|8,1:0|0:0,0:0:0:0:
318,283,39691,2,0,L|426:241,2,90,0|8|0,1:0|0:0|1:0,0:0:0:0:
228,291,40750,1,8,0:0:0:0:
148,248,41103,6,0,P|119:182|149:62,1,180,0|0,1:0|1:0,0:0:0:0:
212,28,42162,1,8,0:0:0:0:
289,74,42515,2,0,P|318:140|288:260,1,180,0|0,1:0|1:0,0:0:0:0:
241,313,43574,1,8,0:0:0:0:
318,359,43927,2,0,B|429:370,2,90,0|8|0,1:0|0:0|1:0,0:0:0:0:
241,313,44986,1,8,0:0:0:0:
164,265,45339,2,0,B|133:175|204:177|148:68,2,180,0|2|4,1:0|2:0|2:0,1:0:0:0:
88,65,58047,6,0,B|209:16|216:115|347:53|347:53|415:129|448:301|448:301|358:279|358:279|300:306|244:289,2,720,4|2|4,0:0|0:0|1:0,0:0:0:0:
88,65,65107,5,4,1:0:0:0:
88,65,66519,6,0,P|78:120|84:166,1,90,4|8,1:0|0:0,0:0:0:0:
121,234,67225,2,0,P|131:289|125:335,1,90,4|8,1:0|0:0,0:0:0:0:
48,365,67931,1,4,1:0:0:0:
8,284,68284,1,2,0:0:0:0:
17,194,68637,1,2,0:0:0:0:
137,60,69343,6,0,B|182:50|182:50|248:66,1,90,4|8,1:0|0:0,0:0:0:0:
311,85,70049,2,0,B|353:95|353:95|398:85,1,90,0|8,1:0|0:0,0:0:0:0:
458,152,70755,2,0,P|460:212|439:262,1,90,0|8,1:0|0:0,0:0:0:0:
387,303,71461,1,0,1:0:0:0:
308,258,71814,1,8,0:0:0:0:
230,303,72167,2,0,B|183:324|144:322|144:322|118:278|65:257,1,180,0|0,1:0|1:0,0:0:0:0:
20,192,73226,1,8,0:0:0:0:
77,122,73579,2,0,B|117:106|143:62|143:62|182:60|229:81,1,180,0|0,1:0|1:0,0:0:0:0:
307,125,74638,1,8,0:0:0:0:
383,77,74991,6,0,P|399:119|384:176,1,90,0|8,1:0|0:0,0:0:0:0:
320,217,75697,2,0,P|274:212|221:161,1,90,0|8,1:0|0:0,0:0:0:0:
194,109,76403,2,0,L|205:14,2,90,0|8|0,1:0|0:0|1:0,0:0:0:0:
238,188,77462,1,8,0:0:0:0:
300,252,77815,2,0,P|384:265|487:205,1,180,0|0,1:0|1:0,0:0:0:0:
501,142,78874,1,8,0:0:0:0:
465,59,79227,1,4,0:2:0:0:
209,313,80639,6,0,P|104:324|60:249,1,180,4|0,1:0|1:0,0:0:0:0:
41,185,81698,1,8,0:0:0:0:
55,96,82051,2,0,L|68:4,2,90,0|8|0,1:0|0:0|1:0,0:0:0:0:
41,185,83110,1,8,0:0:0:0:
63,272,83463,2,0,P|108:293|174:283,1,90,0|8,1:0|0:0,0:0:0:0:
229,254,84169,2,0,P|274:233|340:243,1,90,0|8,1:0|0:0,0:0:0:0:
398,263,84875,2,0,L|411:355,2,90,0|8|0,1:0|0:0|1:0,0:0:0:0:
313,233,85934,1,8,0:0:0:0:
227,205,86287,6,0,B|169:185|169:185|149:61,1,180,0|0,1:0|1:0,0:0:0:0:
216,6,87346,1,8,0:0:0:0:
299,38,87699,2,0,P|393:50|487:21,1,180,0|0,1:0|1:0,0:0:0:0:
508,110,88758,1,8,0:0:0:0:
476,194,89111,2,0,L|431:299,2,90,0|8|0,1:0|0:0|1:0,0:0:0:0:
508,110,90170,1,8,0:0:0:0:
256,192,90523,12,4,91935,0:0:0:0:
