osu file format v14

[General]
AudioFilename: audio.mp3
AudioLeadIn: 0
PreviewTime: 23188
Countdown: 0
SampleSet: Soft
StackLeniency: 0.3
Mode: 0
LetterboxInBreaks: 0
WidescreenStoryboard: 0

[Editor]
DistanceSpacing: 1
BeatDivisor: 4
GridSize: 32
TimelineZoom: 1

[Metadata]
Title:The Colors Of My Life (Nightcore Mix)
TitleUnicode:The Colors Of My Life (Nightcore Mix)
Artist:Paolo Ligorio
ArtistUnicode:Paolo Ligorio
Creator:MkGuh
Version:Normal
Source:
Tags:english remix speed up ver speedcore tempo pitch italian anime girl stingy lumael Silvia Criscenzo italodance techno
BeatmapID:1386124
BeatmapSetID:646724

[Difficulty]
HPDrainRate:4
CircleSize:3.5
OverallDifficulty:4
ApproachRate:5.5
SliderMultiplier:1.15
SliderTickRate:1

[Events]
//Background and Video events
0,0,"anime-landscape-wallpaper-HD10.jpg",0,0
//Break Periods
2,46951,55510
//Storyboard Layer 0 (Background)
//Storyboard Layer 1 (Fail)
//Storyboard Layer 2 (Pass)
//Storyboard Layer 3 (Foreground)
//Storyboard Sound Samples

[TimingPoints]
12863,353.0034712008,4,2,1,70,1,0
12863,-133.333333333333,4,2,1,70,0,0
24159,-100,4,2,1,100,0,1
46751,-133.3333,4,2,1,70,0,0
59812,-133.3333,4,2,1,40,0,0
60165,-133.3333,4,2,1,55,0,0
60518,-133.3333,4,2,1,65,0,0
60871,-133.3333,4,2,1,70,0,0
63695,-100,4,2,1,80,0,0
69343,-100,4,2,1,100,0,1
90523,-100,4,2,1,70,0,0

[Colours]
Combo1 : 219,202,227
Combo2 : 255,227,132
Combo3 : 162,175,253

[HitObjects]
57,70,12863,6,0,P|169:107|185:163,1,172.500006580353,4|2,0:0|0:0,0:0:0:0:
256,185,13922,1,8,0:0:0:0:
327,149,14275,2,0,P|372:78|455:70,1,172.500006580353,2|2,0:0|0:0,0:0:0:0:
502,141,15334,1,8,0:0:0:0:
475,223,15687,6,0,B|387:237,1,86.2500032901765,2|8,0:0|0:0,0:0:0:0:
313,195,16393,2,0,B|269:176|269:176|136:197,1,172.500006580353,2|2,0:0|0:0,0:0:0:0:
77,248,17452,1,8,0:0:0:0:
128,314,17805,6,0,L|226:300,1,86.2500032901765,2|8,0:0|0:0,0:0:0:0:
298,301,18511,2,0,L|384:314,1,86.2500032901765,2|8,0:0|0:0,0:0:0:0:
425,239,19217,1,2,0:0:0:0:
383,163,19570,1,8,0:0:0:0:
296,157,19923,2,0,P|253:173|217:207,1,86.2500032901765,2|8,0:0|0:0,0:0:0:0:
154,252,20629,5,2,0:0:0:0:
77,217,20982,2,0,P|56:167|72:121,1,86.2500032901765,8|2,0:0|0:0,0:0:0:0:
107,63,21688,1,8,0:0:0:0:
187,32,22041,1,2,0:0:0:0:
274,39,22394,1,8,0:0:0:0:
345,87,22747,2,0,P|423:121|503:82,1,172.500006580353,2|0,0:0|0:0,0:0:0:0:
310,213,24159,6,0,P|332:253|314:326,1,115,4|8,1:0|0:0,0:0:0:0:
262,321,24688,1,0,0:0:0:0:
207,301,24865,2,0,L|132:308,2,57.5,0|0|8,1:0|0:0|0:0,0:0:0:0:
159,196,25571,2,0,B|114:200|114:200|92:193|92:193|42:198,1,115,0|8,1:0|0:0,0:0:0:0:
27,143,26100,1,0,0:0:0:0:
69,104,26277,2,0,P|70:60|62:34,2,57.5,0|0|8,1:0|0:0|0:0,0:0:0:0:
124,119,26806,1,0,0:0:0:0:
161,75,26983,6,0,P|254:72|291:79,1,115,0|8,1:0|0:0,0:0:0:0:
212,172,27689,2,0,P|278:194|321:220,1,115,0|8,1:0|0:0,0:0:0:0:
220,280,28395,2,0,P|250:329|264:384,1,115,0|8,1:0|0:0,0:0:0:0:
155,347,29101,2,0,L|86:342,1,57.5,0|0,1:0|0:0,0:0:0:0:
71,291,29454,2,0,L|10:273,1,57.5,8|0,0:0|0:0,0:0:0:0:
46,225,29807,6,0,P|54:157|33:113,1,115,0|8,1:0|0:0,0:0:0:0:
46,59,30336,1,0,0:0:0:0:
103,55,30513,2,0,L|182:47,2,57.5,0|0|8,1:0|0:0|0:0,0:0:0:0:
169,148,31219,2,0,B|225:140|225:140|276:102,1,115,0|8,1:0|0:0,0:0:0:0:
304,58,31748,1,0,0:0:0:0:
361,50,31925,2,0,P|381:78|392:121,1,57.5,0|0,1:0|0:0,0:0:0:0:
376,155,32278,2,0,P|370:207|373:239,1,57.5,8|0,0:0|0:0,0:0:0:0:
396,263,32631,6,0,P|336:300|309:356,1,115,0|8,1:0|0:0,0:0:0:0:
197,337,33337,2,0,P|166:289|116:263,1,115,0|8,1:0|0:0,0:0:0:0:
34,181,34043,2,0,B|76:142|137:149|137:149|187:118|254:136,1,230,0|0,1:0|1:0,0:0:0:0:
329,219,35102,1,8,0:0:0:0:
214,226,35455,6,0,P|198:177|280:71,1,172.5,4|0,1:0|0:0,0:0:0:0:
311,71,36161,2,0,L|387:77,1,57.5,0|0,1:0|0:0,0:0:0:0:
414,109,36514,2,0,L|490:98,1,57.5,8|0,0:0|0:0,0:0:0:0:
486,45,36867,2,0,L|477:217,1,172.5,0|0,1:0|0:0,0:0:0:0:
471,274,37573,1,0,1:0:0:0:
363,232,37926,1,8,0:0:0:0:
307,244,38102,1,0,0:0:0:0:
249,248,38279,6,0,P|177:212|150:178,1,115,0|8,1:0|0:0,0:0:0:0:
262,147,38985,2,0,P|237:99|226:19,1,115,0|8,1:0|0:0,0:0:0:0:
336,70,39691,2,0,P|367:119|382:231,1,172.5,0|0,1:0|0:0,0:0:0:0:
325,256,40397,2,0,L|261:255,1,57.5,0|0,1:0|0:0,0:0:0:0:
210,244,40750,2,0,L|147:248,1,57.5,8|0,0:0|0:0,0:0:0:0:
95,244,41103,6,0,B|67:206|67:206|95:185|113:127|75:85,1,172.5,0|0,1:0|0:0,0:0:0:0:
56,40,41809,2,0,L|136:36,1,57.5,0|0,1:0|0:0,0:0:0:0:
171,37,42162,2,0,L|189:105,1,57.5,8|0,0:0|0:0,0:0:0:0:
225,134,42515,6,0,P|285:163|388:128,1,172.5,0|0,1:0|0:0,0:0:0:0:
413,85,43221,1,0,1:0:0:0:
484,174,43574,2,0,L|477:255,1,57.5,8|0,0:0|0:0,0:0:0:0:
465,287,43927,6,0,B|340:274,1,115,0|8,1:0|0:0,0:0:0:0:
241,310,44633,2,0,P|232:284|231:196,1,115,0|8,1:0|0:0,0:0:0:0:
259,85,45339,2,0,B|192:55|154:105|150:102|145:99|101:152|38:111,1,230,2|0,0:0|1:0,0:0:0:0:
9,224,46398,2,0,L|21:300,2,57.5,8|0|4,0:0|0:0|0:0,0:0:0:0:
256,192,56635,12,4,58047,0:0:0:0:
108,229,59812,5,0,0:0:0:0:
181,273,60165,2,0,B|240:263|240:263|288:274|288:274|354:263,1,172.500046062482,0|2,0:0|0:0,0:0:0:0:
384,184,61224,5,0,0:0:0:0:
344,166,61400,2,0,P|338:117|356:34,1,129.375034546861,2|2,0:0|0:0,0:0:0:0:
439,31,62283,2,0,P|485:114|490:156,1,129.375034546861,2|2,0:0|0:0,0:0:0:0:
430,210,63165,1,0,0:0:0:0:
390,226,63342,2,0,L|335:220,1,43.1250115156204,2|0,0:0|0:0,0:0:0:0:
292,203,63695,6,0,L|169:215,1,115,4|2,1:0|0:0,0:0:0:0:
119,211,64225,2,0,P|105:168|121:81,1,115,2|0,0:0|0:0,0:0:0:0:
126,43,64754,1,2,0:0:0:0:
224,105,65107,2,0,P|275:116|344:94,1,115,4|8,1:0|0:0,0:0:0:0:
389,80,65637,1,2,0:0:0:0:
453,175,65990,2,0,L|459:238,1,57.5,2|8,0:0|0:0,0:0:0:0:
445,288,66343,1,0,0:0:0:0:
415,337,66519,6,0,P|305:372|197:344,1,230,4|4,1:0|1:0,0:0:0:0:
95,292,67578,1,8,0:0:0:0:
195,234,67931,2,0,L|187:166,1,57.5,4|2,1:0|0:0,0:0:0:0:
239,149,68284,2,0,L|244:76,1,57.5,2|2,0:0|0:0,0:0:0:0:
246,34,68637,1,2,0:0:0:0:
419,185,69343,6,0,P|456:189|483:180,2,57.5,4|0|8,1:0|0:0|0:0,0:0:0:0:
367,159,69873,2,0,P|319:150|253:182,1,115,2|0,0:0|0:0,0:0:0:0:
211,206,70402,1,8,0:0:0:0:
114,143,70755,2,0,L|124:72,2,57.5,0|0|8,1:0|0:0|0:0,0:0:0:0:
65,174,71285,2,0,L|82:311,1,115,2|0,0:0|0:0,0:0:0:0:
91,344,71814,1,8,0:0:0:0:
192,290,72167,6,0,L|264:281,1,57.5,0|0,1:0|0:0,0:0:0:0:
305,269,72520,1,8,0:0:0:0:
362,263,72697,2,0,P|352:194|376:134,1,115,2|0,0:0|0:0,0:0:0:0:
397,104,73226,1,8,0:0:0:0:
287,68,73579,2,0,L|222:76,1,57.5,0|0,1:0|0:0,0:0:0:0:
173,84,73932,1,8,0:0:0:0:
115,91,74109,2,0,B|144:147|108:203,1,115,2|0,0:0|0:0,0:0:0:0:
93,255,74638,1,8,0:0:0:0:
207,245,74991,6,0,L|273:231,2,57.5,0|0|8,1:0|0:0|0:0,0:0:0:0:
150,257,75521,2,0,P|157:314|202:381,1,115,2|0,0:0|0:0,0:0:0:0:
242,363,76050,1,8,0:0:0:0:
357,339,76403,2,0,P|391:333|421:333,2,57.5,0|0|8,1:0|0:0|0:0,0:0:0:0:
321,293,76933,2,0,P|312:208|329:156,1,115,2|0,0:0|0:0,0:0:0:0:
345,129,77462,1,8,0:0:0:0:
237,88,77815,6,0,L|176:98,1,57.5,0|0,1:0|0:0,0:0:0:0:
123,104,78168,1,8,0:0:0:0:
66,115,78345,2,0,P|77:178|51:237,1,115,2|0,0:0|0:0,0:0:0:0:
24,269,78874,1,8,0:0:0:0:
256,192,79227,12,4,80639,1:0:0:0:
235,113,81522,5,0,0:0:0:0:
235,113,81698,1,8,0:0:0:0:
148,188,82051,2,0,L|147:252,2,57.5,0|0|8,1:0|0:0|0:0,0:0:0:0:
114,141,82581,2,0,P|77:120|2:146,1,115,2|0,0:0|0:0,0:0:0:0:
6,194,83110,1,8,0:0:0:0:
64,292,83463,6,0,P|94:333|110:337,1,57.5,0|0,1:0|0:0,0:0:0:0:
155,334,83816,1,8,0:0:0:0:
199,296,83993,2,0,P|257:282|312:302,1,115,2|0,0:0|0:0,0:0:0:0:
362,318,84522,1,8,0:0:0:0:
382,204,84875,6,0,L|373:140,1,57.5,0|0,1:0|0:0,0:0:0:0:
364,90,85228,1,8,0:0:0:0:
314,59,85405,2,0,P|252:79|194:50,1,115,2|0,0:0|0:0,0:0:0:0:
157,34,85934,1,8,0:0:0:0:
58,93,86287,6,0,L|38:27,2,57.5,0|0|8,1:0|0:0|0:0,0:0:0:0:
86,143,86817,2,0,L|73:267,1,115,2|0,0:0|0:0,0:0:0:0:
108,303,87346,1,8,0:0:0:0:
222,304,87699,2,0,P|231:354|229:378,2,57.5,0|0|8,1:0|0:0|0:0,0:0:0:0:
199,250,88229,2,0,P|187:190|208:124,1,115,2|0,0:0|0:0,0:0:0:0:
238,96,88758,1,8,0:0:0:0:
329,165,89111,6,0,L|394:164,1,57.5,0|0,1:0|0:0,0:0:0:0:
444,165,89464,1,8,0:0:0:0:
495,191,89641,2,0,B|498:150|498:150|492:112|492:112|494:54,1,115,2|0,0:0|0:0,0:0:0:0:
460,29,90170,1,8,0:0:0:0:
348,58,90523,6,0,L|156:76,2,172.5,4|2|0,0:0|0:0|0:0,0:0:0:0:
334,170,91935,1,4,0:0:0:0:
