osu file format v14

[General]
AudioFilename: audio.mp3
AudioLeadIn: 0
PreviewTime: 23188
Countdown: 0
SampleSet: Soft
StackLeniency: 0.7
Mode: 0
LetterboxInBreaks: 0
WidescreenStoryboard: 0

[Editor]
DistanceSpacing: 1
BeatDivisor: 4
GridSize: 8
TimelineZoom: 1

[Metadata]
Title:The Colors Of My Life (Nightcore Mix)
TitleUnicode:The Colors Of My Life (Nightcore Mix)
Artist:Paolo Ligorio
ArtistUnicode:Paolo Ligorio
Creator:MkGuh
Version:Insane
Source:
Tags:english remix speed up ver speedcore tempo pitch italian anime girl stingy lumael Silvia Criscenzo italodance techno
BeatmapID:1370207
BeatmapSetID:646724

[Difficulty]
HPDrainRate:6
CircleSize:5
OverallDifficulty:8
ApproachRate:9
SliderMultiplier:2.2
SliderTickRate:2

[Events]
//Background and Video events
0,0,"anime-landscape-wallpaper-HD10.jpg",0,0
//Break Periods
//Storyboard Layer 0 (Background)
//Storyboard Layer 1 (Fail)
//Storyboard Layer 2 (Pass)
//Storyboard Layer 3 (Foreground)
//Storyboard Sound Samples

[TimingPoints]
12863,353.0034712008,4,2,1,70,1,0
12863,-133.3333,4,2,1,70,0,0
23276,-100,4,2,1,70,0,0
24159,-100,4,2,1,100,0,1
46751,-133.3333,4,2,1,70,0,0
63695,-100,4,2,1,80,0,0
69343,-100,4,2,1,100,0,1
90523,-100,4,2,1,70,0,0

[Colours]
Combo1 : 219,202,227
Combo2 : 255,227,132
Combo3 : 162,175,253

[HitObjects]
120,96,12863,5,4,0:0:0:0:
176,160,13039,1,0,0:0:0:0:
256,128,13216,1,8,0:0:0:0:
336,160,13392,2,0,L|384:160,2,41.2500110149413,0|0|2,0:0|0:0|0:0,0:0:0:0:
378,82,13745,2,0,L|330:82,2,41.2500110149413,0|0|8,0:0|0:0|0:0,0:0:0:0:
453,121,14098,2,0,B|493:193|493:193|437:273,1,165.000044059765,2|0,0:0|0:0,0:0:0:0:
396,334,14628,1,8,0:0:0:0:
339,264,14804,6,0,L|275:264,2,41.2500110149413,0|0|2,0:0|0:0|0:0,0:0:0:0:
384,192,15157,2,0,L|448:192,2,41.2500110149413,0|0|8,0:0|0:0|0:0,0:0:0:0:
328,136,15510,1,0,0:0:0:0:
328,136,15687,6,0,B|304:88|344:40,1,82.5000220298826,2|0,0:0|0:0,0:0:0:0:
256,24,16040,1,8,0:0:0:0:
180,57,16216,2,0,B|208:96|184:144,1,82.5000220298826,2|0,0:0|0:0,0:0:0:0:
176,216,16569,1,0,0:0:0:0:
256,240,16746,1,8,0:0:0:0:
336,216,16922,2,0,B|392:296|336:368,1,165.000044059765,2|0,0:0|0:0,0:0:0:0:
256,336,17452,1,8,0:0:0:0:
176,368,17628,6,0,L|104:368,2,41.2500110149413,0|0|2,0:0|0:0|0:0,0:0:0:0:
160,288,17981,2,0,L|201:288,2,41.2500110149413,0|0|8,0:0|0:0|0:0,0:0:0:0:
81,247,18334,1,0,0:0:0:0:
121,171,18511,6,0,L|169:75,1,82.5000220298826,2|0,0:0|0:0,0:0:0:0:
213,30,18864,1,8,0:0:0:0:
299,30,19040,2,0,L|340:30,2,41.2500110149413,0|0|2,0:0|0:0|0:0,0:0:0:0:
277,108,19393,2,0,L|236:108,2,41.2500110149413,0|0|8,0:0|0:0|0:0,0:0:0:0:
328,176,19746,2,0,B|304:264|368:256|328:336,1,165.000044059765,2|0,0:0|0:0,0:0:0:0:
256,296,20276,1,8,0:0:0:0:
128,192,20629,5,2,0:0:0:0:
88,120,20805,2,0,B|184:112|224:0,1,165.000044059765,2|0,0:0|0:0,0:0:0:0:
424,120,21335,2,0,B|328:112|288:0,1,165.000044059765,2|8,0:0|0:0,0:0:0:0:
256,96,21864,1,0,0:0:0:0:
256,96,21952,1,0,0:0:0:0:
256,96,22041,2,0,L|256:280,1,165.000044059765,2|8,0:0|0:0,0:0:0:0:
256,344,22570,1,0,0:0:0:0:
256,344,22747,1,2,0:0:0:0:
112,72,23276,5,0,0:0:0:0:
128,168,23453,2,0,B|184:184|184:184|208:232,1,110
384,168,23806,2,0,B|328:184|328:184|304:232,1,110
256,344,24159,1,4,1:0:0:0:
136,128,24512,5,8,0:0:0:0:
256,166,24688,1,0,0:0:0:0:
376,128,24865,2,0,B|412:77|375:22,1,110,0|0,1:0|0:0,0:0:0:0:
256,56,25218,2,0,L|256:168,1,110,8|0,0:0|0:0,0:0:0:0:
136,128,25571,2,0,B|100:77|134:26,1,110,0|0,1:0|0:0,0:0:0:0:
256,56,25924,5,8,0:0:0:0:
256,166,26100,1,0,0:0:0:0:
128,232,26277,2,0,L|184:360,1,110,0|0,1:0|0:0,0:0:0:0:
384,232,26630,2,0,L|328:360,1,110,8|0,0:0|0:0,0:0:0:0:
172,72,26983,6,0,B|256:144|256:144|343:68,1,220,0|8,1:0|0:0,0:0:0:0:
455,170,27512,1,0,0:0:0:0:
455,170,27689,2,0,L|288:336,1,220,0|8,1:0|0:0,0:0:0:0:
56,168,28395,2,0,L|212:323,1,220,0|8,1:0|0:0,0:0:0:0:
328,136,28924,5,0,0:0:0:0:
328,136,29101,2,0,B|368:80|320:32,1,110,0|0,1:0|0:0,0:0:0:0:
184,136,29454,2,0,B|144:80|192:32,1,110,8|0,0:0|0:0,0:0:0:0:
192,280,29807,6,0,B|152:336|88:328,1,110,0|0,1:0|0:0,0:0:0:0:
256,208,30160,2,0,L|256:64,1,110,8|0,0:0|0:0,0:0:0:0:
320,280,30513,2,0,B|360:336|424:328,1,110,0|0,1:0|0:0,0:0:0:0:
496,256,30866,1,8,0:0:0:0:
496,128,31042,1,0,0:0:0:0:
320,104,31219,6,0,B|360:48|424:56,1,110,0|0,1:0|0:0,0:0:0:0:
256,168,31572,2,0,L|256:288,1,110,8|0,0:0|0:0,0:0:0:0:
192,104,31925,2,0,B|152:48|88:56,1,110,0|0,1:0|0:0,0:0:0:0:
16,128,32278,1,8,0:0:0:0:
16,256,32454,1,0,0:0:0:0:
144,192,32631,6,0,L|368:192,1,220,0|8,1:0|0:0,0:0:0:0:
416,96,33160,1,0,0:0:0:0:
416,96,33337,2,0,B|368:80|368:80|320:16,1,110,0|0,1:0|0:0,0:0:0:0:
96,96,33690,2,0,B|144:80|144:80|192:16,1,110,8|0,0:0|0:0,0:0:0:0:
256,112,34043,2,0,L|256:336,1,220,0|8,1:0|0:0,0:0:0:0:
152,296,34572,5,0,0:0:0:0:
56,248,34749,2,0,L|96:120,1,110,0|0,1:0|0:0,0:0:0:0:
192,104,35102,1,8,0:0:0:0:
320,104,35278,1,0,0:0:0:0:
456,248,35455,2,0,L|416:120,1,110,4|0,1:0|0:0,0:0:0:0:
376,16,35808,5,8,0:0:0:0:
320,104,35984,1,0,0:0:0:0:
136,16,36161,1,0,1:0:0:0:
192,104,36337,1,0,0:0:0:0:
256,192,36514,2,0,L|256:344,1,110,8|0,0:0|0:0,0:0:0:0:
117,326,36867,5,0,1:0:0:0:
53,228,37043,1,0,0:0:0:0:
86,349,37220,1,8,0:0:0:0:
17,248,37396,1,0,0:0:0:0:
136,152,37573,2,0,B|200:128|200:40,1,110,0|0,1:0|0:0,0:0:0:0:
376,152,37926,2,0,B|312:128|312:40,1,110,8|0,0:0|0:0,0:0:0:0:
256,256,38279,6,0,L|256:384,1,110,0|0,1:0|0:0,0:0:0:0:
256,128,38632,2,0,L|256:0,1,110,8|0,0:0|0:0,0:0:0:0:
160,192,38985,2,0,L|50:192,1,110,0|0,1:0|0:0,0:0:0:0:
352,192,39338,2,0,L|462:192,1,110,8|0,0:0|0:0,0:0:0:0:
344,301,39691,2,0,B|309:362|255:373|195:361|164:295,1,220,0|8,1:0|0:0,0:0:0:0:
160,200,40220,5,0,0:0:0:0:
254,278,40397,1,0,1:0:0:0:
352,200,40573,1,0,0:0:0:0:
256,126,40750,2,0,L|256:16,1,110,8|0,0:0|0:0,0:0:0:0:
254,278,41103,5,0,1:0:0:0:
254,278,41279,1,0,0:0:0:0:
76,194,41456,2,0,B|124:164|125:101,1,110,8|0,0:0|0:0,0:0:0:0:
194,22,41809,1,0,1:0:0:0:
318,22,41985,1,0,0:0:0:0:
387,101,42162,2,0,B|388:164|436:194,1,110,8|0,0:0|0:0,0:0:0:0:
256,286,42515,6,0,L|256:176,1,110,0|0,1:0|0:0,0:0:0:0:
256,44,42868,1,8,0:0:0:0:
151,238,43044,1,0,0:0:0:0:
374,117,43221,1,0,1:0:0:0:
138,117,43397,1,0,0:0:0:0:
361,238,43574,1,8,0:0:0:0:
256,44,43750,1,0,0:0:0:0:
200,264,43927,6,0,L|358:264,1,110,0|0,1:0|0:0,0:0:0:0:
312,120,44280,2,0,L|154:120,1,110,8|0,0:0|0:0,0:0:0:0:
200,296,44633,6,0,L|358:296,1,110,0|0,1:0|0:0,0:0:0:0:
310,88,44986,2,0,L|200:88,1,110,8|0,0:0|0:0,0:0:0:0:
256,192,45339,12,4,46751,0:0:0:0:
174,324,47104,5,0,0:0:0:0:
126,244,47280,2,0,B|174:238|200:187,1,82.5000220298826,2|2,0:0|0:0,0:0:0:0:
256,126,47633,1,0,0:0:0:0:
386,244,47810,2,0,B|338:238|312:187,1,82.5000220298826,2|0,0:0|0:0,0:0:0:0:
397,156,48163,1,2,0:0:0:0:
257,59,48692,5,0,0:0:0:0:
172,120,48869,2,0,L|195:206,1,82.5000220298826,2|0,0:0|0:0,0:0:0:0:
340,120,49222,2,0,L|317:206,1,82.5000220298826
256,288,49575,5,2,0:0:0:0:
160,136,49928,1,0,0:0:0:0:
352,136,50281,1,2,0:0:0:0:
160,288,50634,1,0,0:0:0:0:
352,288,50987,1,2,0:0:0:0:
152,48,51516,5,2,0:0:0:0:
168,136,51693,2,0,B|200:168|200:168|216:224,1,82.5000220298826,2|0,0:0|0:0,0:0:0:0:
301,203,52046,2,0,B|312:168|312:168|344:136,1,82.5000220298826,2|0,0:0|0:0,0:0:0:0:
360,48,52399,1,2,0:0:0:0:
168,136,52752,5,0,0:0:0:0:
192,216,52928,2,0,L|136:320,2,82.5000220298826,2|2|0,0:0|0:0|0:0,0:0:0:0:
256,160,53458,1,2,0:0:0:0:
256,160,53634,1,0,0:0:0:0:
320,216,53811,2,0,L|376:320,2,82.5000220298826,2|0|0,0:0|0:0|0:0,0:0:0:0:
356,141,54340,5,0,0:0:0:0:
304,72,54517,1,2,0:0:0:0:
208,72,54693,1,0,0:0:0:0:
160,144,54870,1,0,0:0:0:0:
256,160,55046,1,0,0:0:0:0:
160,144,55223,6,0,L|160:312,1,165.000044059765,2|0,0:0|0:0,0:0:0:0:
352,309,55929,2,0,L|352:144,1,165.000044059765,2|0,0:0|0:0,0:0:0:0:
256,192,56635,12,4,58047,0:0:0:0:
208,96,58223,6,0,B|184:136|128:136,1,82.5000220298826,2|0,0:0|0:0,0:0:0:0:
56,136,58576,1,2,0:0:0:0:
160,264,58929,1,0,0:0:0:0:
214,325,59106,1,2,0:0:0:0:
298,324,59282,1,0,0:0:0:0:
353,262,59459,1,2,0:0:0:0:
296,208,59635,1,0,0:0:0:0:
368,64,59812,6,0,L|312:144,1,82.5000220298826
144,64,60165,2,0,L|200:144,1,82.5000220298826
256,320,60518,2,0,L|256:224,1,82.5000220298826
256,144,60871,5,2,0:0:0:0:
192,88,61047,1,0,0:0:0:0:
256,32,61224,1,0,0:0:0:0:
320,88,61400,1,2,0:0:0:0:
192,192,61753,5,2,0:0:0:0:
208,272,61930,2,0,B|192:320|144:336,1,82.5000220298826,2|0,0:0|0:0,0:0:0:0:
304,272,62283,2,0,B|320:320|368:336,1,82.5000220298826,2|0,0:0|0:0,0:0:0:0:
320,192,62636,1,0,0:0:0:0:
320,192,62812,2,0,B|256:139|256:139|188:196,1,165.000044059765,2|0,0:0|0:0,0:0:0:0:
152,119,63342,1,2,0:0:0:0:
209,55,63518,1,0,0:0:0:0:
360,119,63695,5,4,1:0:0:0:
303,55,63872,1,0,0:0:0:0:
255,146,64048,1,2,0:0:0:0:
255,146,64225,2,0,L|255:372,1,220,2|0,0:0|0:0,0:0:0:0:
376,368,64754,1,2,0:0:0:0:
448,272,64931,1,0,0:0:0:0:
368,112,65107,6,0,B|320:80|320:16,1,110,4|0,1:0|0:0,0:0:0:0:
191,18,65460,2,0,B|192:80|144:112,1,110,8|0,0:0|0:0,0:0:0:0:
128,208,65813,1,0,1:0:0:0:
200,272,65990,1,0,0:0:0:0:
384,208,66166,1,8,0:0:0:0:
312,272,66343,1,0,0:0:0:0:
160,168,66519,5,4,1:0:0:0:
128,144,66607,1,0,0:0:0:0:
120,112,66696,1,0,0:0:0:0:
128,80,66784,1,0,0:0:0:0:
152,56,66872,1,8,0:0:0:0:
184,48,66960,1,0,0:0:0:0:
216,56,67049,1,0,0:0:0:0:
240,80,67137,1,0,0:0:0:0:
272,80,67225,5,4,1:0:0:0:
296,56,67313,1,0,0:0:0:0:
328,48,67402,1,0,0:0:0:0:
360,56,67490,1,0,0:0:0:0:
384,80,67578,1,8,0:0:0:0:
392,112,67666,1,0,0:0:0:0:
384,144,67755,1,0,0:0:0:0:
352,168,67843,1,0,0:0:0:0:
320,184,67931,5,4,1:0:0:0:
368,256,68108,2,0,L|368:320,2,55,2|2|2,0:0|0:0|0:0,0:0:0:0:
256,296,68461,2,0,L|256:360,2,55,2|2|2,0:0|0:0|0:0,0:0:0:0:
144,256,68814,2,0,L|144:320,2,55,2|0|2,0:0|0:0|0:0,0:0:0:0:
256,120,69167,1,0,0:0:0:0:
192,200,69343,6,0,B|128:176|144:96,1,110,4|0,1:0|0:0,0:0:0:0:
320,200,69696,1,8,0:0:0:0:
320,200,69873,2,0,B|389:175|423:81|354:18,1,220,2|0,0:0|0:0,0:0:0:0:
254,98,70402,1,8,0:0:0:0:
254,98,70579,1,0,0:0:0:0:
151,245,70755,5,0,1:0:0:0:
255,329,70932,1,0,0:0:0:0:
361,248,71108,1,8,0:0:0:0:
159,165,71285,2,0,B|213:104|293:104|351:168,1,220,2|0,0:0|0:0,0:0:0:0:
255,251,71814,1,8,0:0:0:0:
256,34,71991,1,0,0:0:0:0:
143,252,72167,6,0,L|175:364,1,110,0|0,1:0|0:0,0:0:0:0:
336,360,72520,1,8,0:0:0:0:
336,360,72697,2,0,L|404:131,1,220,2|0,0:0|0:0,0:0:0:0:
256,56,73226,2,0,L|256:176,1,110,8|0,0:0|0:0,0:0:0:0:
143,252,73579,5,0,1:0:0:0:
47,165,73756,1,0,0:0:0:0:
147,78,73932,1,8,0:0:0:0:
256,166,74109,2,0,B|363:120|364:231|477:168,1,220,2|0,0:0|0:0,0:0:0:0:
414,105,74638,1,8,0:0:0:0:
416,304,74815,1,0,0:0:0:0:
256,243,74991,6,0,L|142:243,1,110,0|0,1:0|0:0,0:0:0:0:
11,151,75344,1,8,0:0:0:0:
11,151,75521,2,0,B|152:144|163:1,1,220,2|0,0:0|0:0,0:0:0:0:
256,106,76050,1,8,0:0:0:0:
346,19,76227,1,0,0:0:0:0:
200,184,76403,6,0,B|254:214|315:183,1,110,0|0,1:0|0:0,0:0:0:0:
427,147,76756,1,8,0:0:0:0:
361,256,76933,2,0,B|300:289|254:295|209:289|148:253,1,220,2|0,0:0|0:0,0:0:0:0:
55,191,77462,1,8,0:0:0:0:
150,115,77639,1,0,0:0:0:0:
257,193,77815,6,8,B|312:193|312:193|360:149|360:149,1,110,0|0,1:0|0:0,0:0:0:0:
457,104,78168,1,8,0:0:0:0:
457,104,78345,2,0,B|485:158|522:192|522:192|485:229|455:289,1,220,2|0,0:0|0:0,0:0:0:0:
362,354,78874,1,8,0:0:0:0:
256,283,79051,1,0,0:0:0:0:
155,353,79227,1,4,0:2:0:0:
256,192,79315,12,4,80639,1:0:0:0:
328,40,80816,5,0,0:0:0:0:
184,40,80992,1,8,0:0:0:0:
256,136,81169,2,0,L|256:360,1,220,2|0,0:0|0:0,0:0:0:0:
128,320,81698,6,0,B|48:304|48:200,1,110,8|0,0:0|0:0,0:0:0:0:
128,64,82051,2,0,B|48:80|48:184,1,110,0|0,1:0|0:0,0:0:0:0:
144,192,82404,1,8,0:0:0:0:
144,192,82581,2,0,L|408:192,1,220,2|0,0:0|0:0,0:0:0:0:
400,88,83110,1,8,0:0:0:0:
320,16,83287,1,0,0:0:0:0:
112,88,83463,5,0,1:0:0:0:
192,16,83640,1,0,0:0:0:0:
256,104,83816,1,8,0:0:0:0:
256,104,83993,2,0,B|344:200|256:304,1,220,2|0,0:0|0:0,0:0:0:0:
152,272,84522,1,8,0:0:0:0:
48,232,84699,1,0,0:0:0:0:
136,64,84875,6,0,B|184:88|184:88|216:160,2,110,0|0|8,1:0|0:0|0:0,0:0:0:0:
376,64,85405,2,0,B|328:88|328:88|296:160,1,110,2|0,0:0|0:0,0:0:0:0:
256,240,85758,5,0,0:0:0:0:
160,192,85934,1,8,0:0:0:0:
160,80,86111,1,0,0:0:0:0:
256,32,86287,1,0,1:0:0:0:
352,80,86464,1,0,0:0:0:0:
352,192,86640,1,8,0:0:0:0:
256,240,86817,1,2,0:0:0:0:
88,96,87170,5,0,0:0:0:0:
128,200,87346,2,0,B|200:232|192:320,1,110,8|0,0:0|0:0,0:0:0:0:
384,200,87699,2,0,B|312:232|320:320,1,110,0|0,1:0|0:0,0:0:0:0:
158,117,88052,1,8,0:0:0:0:
158,117,88229,2,0,B|213:120|256:77|256:77|299:121|355:116,1,220,2|0,0:0|0:0,0:0:0:0:
464,192,88758,5,8,0:0:0:0:
408,304,88935,1,0,0:0:0:0:
312,216,89111,2,0,L|168:216,1,110,0|0,1:0|0:0,0:0:0:0:
105,298,89464,1,8,0:0:0:0:
9,217,89641,2,0,B|-12:132|70:64|153:96,1,220,2|0,0:0|0:0,0:0:0:0:
256,8,90170,1,8,0:0:0:0:
362,92,90347,1,0,0:0:0:0:
256,192,90523,1,4,0:2:0:0:
256,192,90612,12,4,91935,0:0:0:0:
