osu file format v14

[General]
AudioFilename: audio.mp3
AudioLeadIn: 0
PreviewTime: 31448
Countdown: 0
SampleSet: Soft
StackLeniency: 0.4
Mode: 0
LetterboxInBreaks: 0
WidescreenStoryboard: 1

[Editor]
DistanceSpacing: 1
BeatDivisor: 8
GridSize: 4
TimelineZoom: 1.4

[Metadata]
Title:Yaezakura
TitleUnicode:八重樱
Artist:Pao Pao
ArtistUnicode:泡泡
Creator:Hey lululu
Version:Regraz's Hard
Source:崩坏学园
Tags:崩坏3rd 崩壞3rd 八重桜 櫻 崩坏学园2 崩壞學園 Houkai Gakuen MiHoYo Guns Girl School DayZ ggz Honkai Impact Collapse of the school Double Cherry Blossoms 緋櫻篇 sakura HOYO-MiX Zoe Sya Regraz
BeatmapID:1703003
BeatmapSetID:809431

[Difficulty]
HPDrainRate:4.2
CircleSize:4.3
OverallDifficulty:5
ApproachRate:6
SliderMultiplier:1.3
SliderTickRate:1

[Events]
//Background and Video events
Video,0,"video.avi"
0,0,"BG2.jpg",0,0
//Break Periods
//Storyboard Layer 0 (Background)
//Storyboard Layer 1 (Fail)
//Storyboard Layer 2 (Pass)
//Storyboard Layer 3 (Foreground)
//Storyboard Sound Samples

[TimingPoints]
3096,584.795321637427,3,2,2,10,1,0
3680,560.747663551402,3,2,2,10,1,0
4240,645.161290322581,3,2,2,10,1,0
4562,594.059405940594,3,2,2,10,1,0
5453,594.059405940594,3,2,2,10,1,0
6938,612.244897959184,3,2,2,10,1,0
7244,588.235294117647,3,2,2,10,1,0
9008,594.059405940594,3,2,2,10,1,0
17918,600,3,2,2,20,1,0
17918,-100,3,2,2,20,0,0
18518,566.037735849057,3,2,2,20,1,0
19367,697.674418604651,3,2,2,20,1,0
19715,582.52427184466,3,2,2,20,1,0
21171,631.578947368421,3,2,2,20,1,0
21486,582.52427184466,3,2,2,20,1,0
22068,600,3,2,2,20,1,0
23268,594.059405940594,3,2,2,20,1,0
25050,594.059405940594,3,2,2,20,1,0
32178,594.059405940594,3,2,1,40,1,1
32178,-76.9230769230769,3,2,1,40,0,1
35742,-76.9230769230769,3,2,2,40,0,1
37524,-76.9230769230769,3,2,1,40,0,1
38712,-76.9230769230769,3,2,2,40,0,1
39306,-76.9230769230769,3,2,1,40,0,1
41682,-76.9230769230769,3,2,2,40,0,1
42276,-76.9230769230769,3,2,1,40,0,1
45841,-76.9230769230769,3,2,1,40,0,0
46435,603.015075376884,3,2,1,40,1,1
46435,-76.9230769230769,3,2,1,40,0,1
47641,600,3,2,1,40,1,1
47641,-76.9230769230769,3,2,1,40,0,1
48241,594.059405940594,3,2,1,40,1,1
48241,-76.9230769230769,3,2,1,40,0,1
53587,594.059405940594,3,2,1,40,1,1
53587,-76.9230769230769,3,2,1,40,0,1
58933,582.52427184466,3,2,1,40,1,1
58933,-76.9230769230769,3,2,1,40,0,1
60098,612.244897959184,3,2,1,40,1,1
60710,594.059405940594,3,2,1,20,1,0
60710,-100,3,2,1,20,0,0
64274,-100,3,2,2,20,0,0
65462,-100,3,2,2,5,0,0
65536,-100,3,2,2,20,0,0
68432,576.923076923077,4,2,1,10,1,0
69008,731.707317073171,4,2,1,20,1,0
69739,594.059405940594,4,2,1,40,1,0

[Colours]
Combo1 : 255,128,128
Combo2 : 255,128,192
Combo3 : 255,91,255
Combo4 : 255,0,128

[HitObjects]
59,83,3095,5,0,0:0:0:0:
142,69,3388,1,0,0:0:0:0:
224,54,3680,2,0,L|209:210,1,130,2|0,0:0|0:0,0:0:0:0:
295,173,4562,1,0,0:0:0:0:
379,165,4859,2,0,L|367:248,1,65
319,297,5453,2,0,P|241:294|234:240,1,130,2|0,0:0|0:0,0:0:0:0:
147,272,6344,1,0,0:0:0:0:
63,287,6641,2,0,L|69:203,1,65
25,149,7244,6,0,P|80:185|156:154,1,130,2|0,0:0|0:0,0:0:0:0:
226,184,8126,1,0,0:0:0:0:
316,197,8420,2,0,L|303:277,1,65
404,212,9008,1,2,0:0:0:0:
400,225,10195,1,0,0:0:0:0:
317,242,10492,1,0,0:0:0:0:
234,261,10789,6,0,L|255:117,1,130,2|0,0:0|0:0,0:0:0:0:
164,154,11680,1,0,0:0:0:0:
80,182,11978,2,0,P|72:213|75:245,1,65,0|0,0:0|0:0,0:0:0:0:
25,313,12572,2,0,P|65:280|141:327,1,130,2|0,0:0|0:0,0:0:0:0:
299,325,13760,2,0,L|382:313,1,65,0|0,0:0|0:0,0:0:0:0:
447,312,14354,6,0,B|424:277|410:257|403:218|413:166|429:121|479:121|481:173|456:214|410:222,1,260,2|0,0:0|0:0,0:0:0:0:
342,213,15839,1,0,0:0:0:0:
257,212,16136,2,0,P|189:229|209:171,1,130,2|2,0:0|0:0,0:0:0:0:
198,201,17324,1,0,0:0:0:0:
114,213,17621,1,0,0:0:0:0:
30,225,17918,6,0,B|46:269|46:269|32:367,1,130,2|0,0:0|0:0,0:0:0:0:
118,345,18801,1,2,0:0:0:0:
201,335,19084,2,0,P|239:352|283:344,1,65,0|0,0:0|0:0,0:0:0:0:
313,284,19715,2,0,P|397:281|401:328,1,130,2|0,0:0|0:0,0:0:0:0:
321,298,20588,1,2,0:0:0:0:
237,287,20880,1,0,0:0:0:0:
153,277,21171,1,0,0:0:0:0:
68,285,21486,6,0,P|69:228|126:188,1,130,2|0,0:0|0:0,0:0:0:0:
223,158,22368,1,2,0:0:0:0:
235,256,22668,2,0,P|301:273|328:269,1,65
379,253,23268,1,2,0:0:0:0:
226,181,23862,2,0,B|162:171|140:179|140:179|116:166|116:166|76:174|41:194,1,195
52,277,25050,6,0,P|137:271|138:164,1,195,2|2,0:0|0:0,0:0:0:0:
233,169,26238,1,0,0:0:0:0:
317,161,26535,1,0,0:0:0:0:
401,152,26832,2,0,B|415:135|421:102|421:102|404:205|443:254,1,195,2|2,0:0|0:0,0:0:0:0:
486,305,28019,1,0,0:0:0:0:
494,323,28613,6,0,P|446:313|401:319,1,65
346,326,29207,2,0,P|303:339|271:334,1,65
228,273,29801,2,0,L|138:282,2,65,0|0|0,0:0|0:0|0:0,0:0:0:0:
169,159,31583,1,0,0:0:0:0:
317,172,31881,1,0,0:0:0:0:
97,136,32178,6,0,P|119:222|220:212,2,168.999992263794,4|0|0,0:3|0:0|0:0,0:0:0:0:
165,82,33663,1,0,0:0:0:0:
295,138,33960,2,0,L|410:126,3,84.4999961318971,4|0|0|0,0:1|0:0|0:0|0:0,0:0:0:0:
493,194,35148,1,0,0:0:0:0:
344,245,35445,1,2,0:1:0:0:
219,133,35742,6,0,B|215:168|242:193|242:193|223:235|239:293,2,168.999992263794,2|0|2,0:0|0:0|0:0,0:0:0:0:
249,53,37227,1,2,0:0:0:0:
364,195,37524,2,0,L|279:191,1,84.4999961318971,10|8,0:0|0:0,0:0:0:0:
410,275,38118,2,0,L|494:271,1,84.4999961318971,8|8,0:0|0:0,0:0:0:0:
455,182,38712,1,2,0:0:0:0:
329,281,39009,1,2,0:0:0:0:
397,117,39306,6,0,P|450:97|490:107,2,84.4999961318971,4|0|0,0:0|0:0|0:0,0:0:0:0:
402,99,40494,1,0,0:0:0:0:
259,116,40791,1,0,0:0:0:0:
115,136,41088,2,0,L|107:28,2,84.4999961318971,4|0|2,0:1|0:0|0:0,0:0:0:0:
94,163,42277,1,0,0:0:0:0:
127,33,42574,1,2,0:1:0:0:
139,217,42871,6,0,P|72:217|40:234,1,84.4999961318971,0|0,0:0|0:0,0:0:0:0:
187,280,43465,2,0,L|162:96,1,168.999992263794,0|0,0:0|0:0,0:0:0:0:
216,53,44356,1,0,0:0:0:0:
260,258,44653,2,0,P|240:340|152:350,1,168.999992263794,10|0,0:0|0:0,0:0:0:0:
174,338,45841,1,0,0:0:0:0:
332,317,46138,1,0,0:0:0:0:
493,292,46435,6,0,P|424:303|453:227,2,168.999992263794,14|8|8,0:0|0:0|0:0,0:0:0:0:
471,141,47941,1,2,0:1:0:0:
335,259,48241,2,0,P|259:230|202:321,1,168.999992263794,12|8,0:1|0:0,0:0:0:0:
282,351,49132,1,2,0:1:0:0:
100,296,49429,2,0,L|214:285,1,84.4999961318971,12|2,0:0|0:1,0:0:0:0:
400,336,50023,5,12,0:0:0:0:
444,92,50320,1,2,0:1:0:0:
359,240,50617,2,0,L|344:157,1,84.4999961318971,8|2,0:0|0:1,0:0:0:0:
160,229,51211,1,8,0:0:0:0:
258,237,51508,1,2,0:1:0:0:
63,221,51805,2,0,B|86:177|74:143|74:143|35:101|65:45,2,168.999992263794,4|8|12,0:1|0:0|0:0,0:0:0:0:
104,307,53291,1,8,0:0:0:0:
188,136,53587,6,0,P|127:125|87:137,1,84.4999961318971,12|2,0:0|0:1,0:0:0:0:
276,162,54181,2,0,P|262:87|174:40,1,168.999992263794,8|8,0:0|0:0,0:0:0:0:
188,136,55072,1,2,0:1:0:0:
278,249,55369,2,0,P|337:227|362:180,1,84.4999961318971,12|2,0:1|0:1,0:0:0:0:
188,288,55963,2,0,P|254:338|344:331,1,168.999992263794,8|8,0:0|0:0,0:0:0:0:
402,275,56854,1,2,0:1:0:0:
219,129,57151,6,0,P|139:166|42:138,1,168.999992263794,4|8,0:0|0:0,0:0:0:0:
127,281,58042,1,0,0:0:0:0:
29,267,58339,2,0,L|113:261,1,84.4999961318971,0|2,0:0|0:1,0:0:0:0:
288,212,58933,2,0,P|325:165|353:237,2,168.999992263794,2|8|8,0:0|0:3|0:3,0:0:0:0:
264,219,60710,6,0,P|293:154|354:265,1,260,4|0,0:0|0:0,0:0:0:0:
226,293,62492,2,0,B|163:242|192:159|192:159|142:201|165:278,1,260,2|0,0:0|0:0,0:0:0:0:
256,105,64274,6,0,B|169:16|89:74|89:74|134:97|180:69,1,276.25,0|2,0:0|0:0,0:0:0:0:
324,57,66056,2,0,B|351:61|381:49|381:49|345:122|384:189|384:189|347:175|308:189,1,260,2|0,0:0|0:0,0:0:0:0:
208,230,67838,6,0,P|158:192|92:202,1,130
76,292,69008,1,0,0:0:0:0:
224,352,69739,5,2,0:0:0:0:
