osu file format v14

[General]
AudioFilename: audio.mp3
AudioLeadIn: 0
PreviewTime: -1
Countdown: 1
SampleSet: Normal
StackLeniency: 0.7
Mode: 0
LetterboxInBreaks: 0
WidescreenStoryboard: 1

[Editor]
Bookmarks: 51220,72803,109417
DistanceSpacing: 1.4
BeatDivisor: 4
GridSize: 4
TimelineZoom: 1

[Metadata]
Title:Nine In The Afternoon
TitleUnicode:Nine In The Afternoon
Artist:Panic At The Disco
ArtistUnicode:Panic At The Disco
Creator:TheAmazingFlame
Version:Hard
Source:
Tags:Nine In The Afternoon Panic At The Disco Pop
BeatmapID:1018685
BeatmapSetID:476882

[Difficulty]
HPDrainRate:5
CircleSize:4
OverallDifficulty:7
ApproachRate:7
SliderMultiplier:1.4
SliderTickRate:1

[Events]
//Background and Video events
0,0,"prettyodd.jpg",0,0
//Break Periods
//Storyboard Layer 0 (Background)
//Storyboard Layer 1 (Fail)
//Storyboard Layer 2 (Pass)
//Storyboard Layer 3 (Foreground)
//Storyboard Sound Samples

[TimingPoints]
732.64514856593,385.405960945529,4,1,0,100,1,0
51413,-100,4,1,0,100,0,1
72514,-100,4,1,0,100,0,0
109441,-100,4,1,0,100,0,1
134179,-100,4,1,0,100,0,0

[HitObjects]
336,112,58,5,0,0:0:0:0:
252,244,347,1,0,0:0:0:0:
148,156,636,1,0,0:0:0:0:
256,68,1021,1,0,0:0:0:0:
320,180,1407,1,0,0:0:0:0:
180,192,1792,1,0,0:0:0:0:
160,72,2177,5,0,0:0:0:0:
284,140,2563,1,0,0:0:0:0:
204,228,2948,1,0,0:0:0:0:
124,100,3334,1,0,0:0:0:0:
300,116,3719,1,0,0:0:0:0:
348,228,4104,1,0,0:0:0:0:
176,172,4490,1,0,0:0:0:0:
284,88,4875,1,0,0:0:0:0:
316,208,5261,1,0,0:0:0:0:
156,160,5646,1,0,0:0:0:0:
120,64,6031,2,0,L|184:252,1,175
312,96,6802,1,0,0:0:0:0:
336,224,7188,1,0,0:0:0:0:
212,104,7573,5,0,0:0:0:0:
296,188,7959,1,0,0:0:0:0:
144,200,8344,1,0,0:0:0:0:
120,92,8729,2,0,P|208:68|240:104,1,140
296,180,9500,1,0,0:0:0:0:
348,112,9886,2,0,P|448:160|440:180,1,140
328,248,10656,1,0,0:0:0:0:
200,204,11042,1,0,0:0:0:0:
104,160,11427,2,0,P|168:80|192:96,1,140
264,172,12198,1,0,0:0:0:0:
372,84,12583,5,0,0:0:0:0:
196,216,12969,1,0,0:0:0:0:
184,92,13161,1,0,0:0:0:0:
280,152,13354,1,0,0:0:0:0:
152,216,13740,1,0,0:0:0:0:
336,224,14125,1,0,0:0:0:0:
188,108,14510,1,0,0:0:0:0:
164,204,14896,6,0,P|244:176|292:204,1,140
244,88,15667,1,0,0:0:0:0:
176,212,16052,1,0,0:0:0:0:
144,84,16437,2,0,P|216:136|256:100,1,140
348,76,17208,1,0,0:0:0:0:
152,192,17594,1,0,0:0:0:0:
268,100,17979,1,0,0:0:0:0:
280,224,18364,1,0,0:0:0:0:
112,72,18750,2,0,L|220:176,1,140
352,116,19521,1,0,0:0:0:0:
288,224,19906,1,0,0:0:0:0:
204,128,20291,1,0,0:0:0:0:
136,176,20677,5,0,0:0:0:0:
292,120,21062,1,0,0:0:0:0:
380,200,21448,1,0,0:0:0:0:
280,280,21833,1,0,0:0:0:0:
224,192,22026,1,0,0:0:0:0:
300,140,22219,1,0,0:0:0:0:
360,208,22604,1,0,0:0:0:0:
188,128,22989,1,0,0:0:0:0:
296,112,23375,1,0,0:0:0:0:
272,232,23760,5,0,0:0:0:0:
172,176,24146,1,0,0:0:0:0:
308,124,24531,1,0,0:0:0:0:
320,220,24916,2,0,L|184:168,1,140
268,56,25687,1,0,0:0:0:0:
328,148,26073,1,0,0:0:0:0:
216,176,26458,1,0,0:0:0:0:
264,96,26843,1,0,0:0:0:0:
296,216,27229,1,0,0:0:0:0:
152,132,27614,1,0,0:0:0:0:
288,104,28000,1,0,0:0:0:0:
204,208,28385,5,0,0:0:0:0:
152,168,28770,1,0,0:0:0:0:
212,132,29156,1,0,0:0:0:0:
252,188,29541,1,0,0:0:0:0:
296,240,29927,1,0,0:0:0:0:
336,188,30312,1,0,0:0:0:0:
216,104,31854,5,0,0:0:0:0:
324,120,32239,1,0,0:0:0:0:
264,168,32624,1,0,0:0:0:0:
216,88,33010,1,0,0:0:0:0:
312,96,33395,1,0,0:0:0:0:
152,116,33781,2,0,L|280:184,1,140
232,72,34552,1,0,0:0:0:0:
192,144,34937,1,0,0:0:0:0:
336,128,35322,1,0,0:0:0:0:
280,208,35708,1,0,0:0:0:0:
152,100,36093,1,0,0:0:0:0:
264,68,36479,5,0,0:0:0:0:
208,144,36864,1,0,0:0:0:0:
308,176,37249,1,0,0:0:0:0:
360,96,37635,1,0,0:0:0:0:
236,68,38020,1,0,0:0:0:0:
156,140,38406,2,0,L|312:188,1,140
132,104,39176,1,0,0:0:0:0:
220,248,39562,1,0,0:0:0:0:
304,120,40140,5,0,0:0:0:0:
216,144,40333,1,0,0:0:0:0:
272,180,40525,1,0,0:0:0:0:
284,76,40814,5,0,0:0:0:0:
208,128,41103,1,0,0:0:0:0:
320,136,41489,1,0,0:0:0:0:
248,216,41682,5,0,0:0:0:0:
132,124,42067,1,0,0:0:0:0:
320,124,42452,1,0,0:0:0:0:
240,68,42838,2,0,L|392:72,1,140
208,160,43609,1,0,0:0:0:0:
328,204,43994,1,0,0:0:0:0:
240,248,44379,1,0,0:0:0:0:
280,120,44765,1,0,0:0:0:0:
192,160,45150,1,0,0:0:0:0:
332,192,45536,1,0,0:0:0:0:
324,72,45921,1,0,0:0:0:0:
228,152,46306,5,0,0:0:0:0:
236,236,46692,1,0,0:0:0:0:
344,188,47077,1,0,0:0:0:0:
192,96,47463,1,0,0:0:0:0:
340,120,47848,1,0,0:0:0:0:
240,192,48233,1,0,0:0:0:0:
152,132,48619,2,0,P|196:104|288:160,1,140
372,88,49197,1,0,0:0:0:0:
292,208,49390,1,0,0:0:0:0:
288,304,49775,1,0,0:0:0:0:
112,180,50160,1,0,0:0:0:0:
156,96,50546,2,0,P|220:76|276:128,1,140
144,80,51317,1,0,0:0:0:0:
328,68,51702,5,0,0:0:0:0:
200,168,52087,1,0,0:0:0:0:
264,208,52280,1,0,0:0:0:0:
328,176,52473,1,0,0:0:0:0:
136,80,52858,5,0,0:0:0:0:
244,144,53244,1,0,0:0:0:0:
368,80,53629,2,0,B|376:120|332:204|324:216,1,140
176,140,54400,1,0,0:0:0:0:
304,72,55074,1,0,0:0:0:0:
384,128,55267,1,0,0:0:0:0:
388,220,55460,1,0,0:0:0:0:
164,144,55942,5,0,0:0:0:0:
268,140,56327,1,0,0:0:0:0:
360,192,56712,1,0,0:0:0:0:
320,264,57098,2,0,P|256:280|180:244,1,140
192,160,57869,2,0,P|248:136|328:168,1,140
372,232,58639,1,0,0:0:0:0:
296,304,59025,1,0,0:0:0:0:
300,200,59410,1,0,0:0:0:0:
216,248,59796,1,0,0:0:0:0:
368,160,60181,1,0,0:0:0:0:
328,272,60566,1,0,0:0:0:0:
240,212,60952,5,0,0:0:0:0:
192,280,61337,1,0,0:0:0:0:
280,280,61723,1,0,0:0:0:0:
344,192,62108,1,0,0:0:0:0:
248,168,62493,1,0,0:0:0:0:
176,200,62879,1,0,0:0:0:0:
328,184,63264,2,0,P|296:264|252:268,1,140
216,84,64035,5,0,0:0:0:0:
340,88,64420,1,0,0:0:0:0:
312,164,64613,1,0,0:0:0:0:
240,180,64806,1,0,0:0:0:0:
192,80,65191,1,0,0:0:0:0:
120,168,65577,1,0,0:0:0:0:
244,172,65962,1,0,0:0:0:0:
308,100,66348,1,0,0:0:0:0:
400,184,66733,5,0,0:0:0:0:
312,192,67504,1,0,0:0:0:0:
244,144,67696,1,0,0:0:0:0:
304,88,67889,1,0,0:0:0:0:
152,100,68275,1,0,0:0:0:0:
248,200,68660,1,0,0:0:0:0:
288,104,69045,1,0,0:0:0:0:
208,136,69431,5,0,0:0:0:0:
336,180,69816,1,0,0:0:0:0:
248,236,70202,1,0,0:0:0:0:
152,192,70587,1,0,0:0:0:0:
132,112,70972,1,0,0:0:0:0:
256,204,71358,1,0,0:0:0:0:
140,252,71743,1,0,0:0:0:0:
224,160,72129,1,0,0:0:0:0:
288,92,72514,5,0,0:0:0:0:
356,180,72899,1,0,0:0:0:0:
260,236,73285,1,0,0:0:0:0:
168,168,73670,1,0,0:0:0:0:
232,96,74056,1,0,0:0:0:0:
328,152,74441,1,0,0:0:0:0:
248,232,74826,1,0,0:0:0:0:
148,152,75212,1,0,0:0:0:0:
248,144,75597,1,0,0:0:0:0:
328,208,76368,5,0,0:0:0:0:
216,200,76561,1,0,0:0:0:0:
156,128,76753,1,0,0:0:0:0:
256,60,77139,5,0,0:0:0:0:
152,128,77910,1,0,0:0:0:0:
248,140,78102,1,0,0:0:0:0:
344,120,78295,1,0,0:0:0:0:
320,208,78681,5,0,0:0:0:0:
136,144,79451,1,0,0:0:0:0:
176,72,79644,1,0,0:0:0:0:
268,48,79837,1,0,0:0:0:0:
344,136,80222,1,0,0:0:0:0:
224,196,80608,1,0,0:0:0:0:
176,132,80993,1,0,0:0:0:0:
272,88,81378,1,0,0:0:0:0:
340,168,81764,1,0,0:0:0:0:
120,84,82342,5,0,0:0:0:0:
184,188,82727,1,0,0:0:0:0:
252,100,83113,1,0,0:0:0:0:
328,188,83498,1,0,0:0:0:0:
396,92,83883,1,0,0:0:0:0:
208,144,84269,1,0,0:0:0:0:
332,204,84654,1,0,0:0:0:0:
312,80,85040,1,0,0:0:0:0:
120,96,85425,5,0,0:0:0:0:
200,196,85811,1,0,0:0:0:0:
268,104,86196,1,0,0:0:0:0:
380,148,86581,1,0,0:0:0:0:
300,232,86967,1,0,0:0:0:0:
200,192,87352,1,0,0:0:0:0:
268,124,87738,1,0,0:0:0:0:
172,108,88123,1,0,0:0:0:0:
328,44,88508,5,0,0:0:0:0:
372,160,88894,1,0,0:0:0:0:
280,176,89279,1,0,0:0:0:0:
204,100,89665,1,0,0:0:0:0:
132,168,90050,1,0,0:0:0:0:
272,216,90435,1,0,0:0:0:0:
324,120,90821,1,0,0:0:0:0:
236,68,91206,1,0,0:0:0:0:
128,120,91592,5,0,0:0:0:0:
192,200,91784,1,0,0:0:0:0:
284,160,91977,1,0,0:0:0:0:
372,96,92362,1,0,0:0:0:0:
360,188,92748,2,0,P|368:256|300:264,1,140
216,192,93519,1,0,0:0:0:0:
196,84,93904,1,0,0:0:0:0:
340,96,94289,5,0,0:0:0:0:
300,200,94675,2,0,P|252:224|188:168,1,140
192,96,95446,5,0,0:0:0:0:
316,92,95831,1,0,0:0:0:0:
352,184,96216,1,0,0:0:0:0:
304,264,96602,1,0,0:0:0:0:
192,152,96987,5,0,0:0:0:0:
252,72,97373,1,0,0:0:0:0:
304,160,97758,1,0,0:0:0:0:
384,224,98144,1,0,0:0:0:0:
280,256,98529,1,0,0:0:0:0:
132,136,98914,5,0,0:0:0:0:
184,60,99107,1,0,0:0:0:0:
244,140,99300,1,0,0:0:0:0:
124,224,99492,5,0,0:0:0:0:
216,244,99685,1,0,0:0:0:0:
312,224,99878,1,0,0:0:0:0:
344,120,100071,5,0,0:0:0:0:
384,272,100456,1,0,0:0:0:0:
200,128,100841,5,0,0:0:0:0:
164,200,101227,1,0,0:0:0:0:
312,80,101612,5,0,0:0:0:0:
368,164,101998,1,0,0:0:0:0:
192,132,102383,5,0,0:0:0:0:
156,216,102576,1,0,0:0:0:0:
228,228,102768,1,0,0:0:0:0:
348,112,103154,5,0,0:0:0:0:
356,192,103539,1,0,0:0:0:0:
224,216,103925,1,0,0:0:0:0:
256,128,104310,1,0,0:0:0:0:
352,104,104695,5,0,0:0:0:0:
368,108,104792,1,2,0:0:0:0:
384,112,104888,1,0,0:0:0:0:
404,120,104984,1,0,0:0:0:0:
420,136,105081,1,0,0:0:0:0:
428,160,105177,1,0,0:0:0:0:
432,188,105274,1,0,0:0:0:0:
304,284,105370,5,0,0:0:0:0:
220,256,105466,1,0,0:0:0:0:
312,104,105755,5,0,0:0:0:0:
368,168,106141,1,0,0:0:0:0:
276,204,106333,2,0,B|232:128|196:152|132:92|92:176|72:76|92:40|104:32,1,280
288,104,107875,5,0,0:0:0:0:
288,208,108646,5,0,0:0:0:0:
180,132,109417,5,0,0:0:0:0:
292,104,110091,5,0,0:0:0:0:
392,136,110284,1,0,0:0:0:0:
320,188,110476,1,0,0:0:0:0:
160,132,110958,5,0,0:0:0:0:
184,240,111344,1,0,0:0:0:0:
276,144,111729,1,0,0:0:0:0:
176,128,112114,1,0,0:0:0:0:
328,80,112500,5,0,0:0:0:0:
188,136,113174,1,0,0:0:0:0:
288,192,113367,1,0,0:0:0:0:
364,128,113560,1,0,0:0:0:0:
140,80,114041,5,0,0:0:0:0:
264,160,114427,1,0,0:0:0:0:
172,196,114812,1,0,0:0:0:0:
296,240,115198,1,0,0:0:0:0:
356,152,115583,5,0,0:0:0:0:
196,164,115969,1,0,0:0:0:0:
268,256,116354,1,0,0:0:0:0:
312,96,116739,5,0,0:0:0:0:
148,160,117125,1,0,0:0:0:0:
264,224,117510,1,0,0:0:0:0:
376,168,117896,1,0,0:0:0:0:
264,88,118281,5,0,0:0:0:0:
136,168,118666,1,0,0:0:0:0:
264,224,119052,1,0,0:0:0:0:
248,116,119437,1,0,0:0:0:0:
88,96,119823,5,0,0:0:0:0:
184,208,120208,1,0,0:0:0:0:
296,196,120593,1,0,0:0:0:0:
372,80,120979,5,0,0:0:0:0:
196,160,121364,1,0,0:0:0:0:
320,200,121750,1,0,0:0:0:0:
192,116,122520,1,0,0:0:0:0:
288,96,122713,1,0,0:0:0:0:
372,152,122906,1,0,0:0:0:0:
168,216,123291,5,0,0:0:0:0:
328,208,123677,1,0,0:0:0:0:
224,104,124062,1,0,0:0:0:0:
92,160,124447,1,0,0:0:0:0:
312,208,124833,5,0,0:0:0:0:
328,96,125700,1,0,0:0:0:0:
380,176,125893,1,0,0:0:0:0:
304,240,126085,1,0,0:0:0:0:
168,176,126471,5,0,0:0:0:0:
208,256,126856,1,0,0:0:0:0:
268,180,127242,1,0,0:0:0:0:
336,272,127627,1,0,0:0:0:0:
336,80,128012,5,0,0:0:0:0:
152,120,128783,1,0,0:0:0:0:
336,152,129169,5,0,0:0:0:0:
248,216,129554,1,0,0:0:0:0:
344,244,129939,1,0,0:0:0:0:
424,176,130325,1,0,0:0:0:0:
376,92,130710,5,0,0:0:0:0:
268,116,131096,1,0,0:0:0:0:
200,184,131481,1,0,0:0:0:0:
324,224,131867,1,0,0:0:0:0:
428,168,132252,5,0,0:0:0:0:
332,120,132637,1,0,0:0:0:0:
188,120,133023,1,0,0:0:0:0:
168,212,133408,1,0,0:0:0:0:
272,192,133794,5,0,0:0:0:0:
320,284,134179,1,0,0:0:0:0:
240,160,134853,1,0,0:0:0:0:
300,128,138033,5,0,0:0:0:0:
228,132,141116,5,0,0:0:0:0:
368,148,143525,5,0,0:0:0:0:
316,240,144296,1,0,0:0:0:0:
188,244,144970,1,0,0:0:0:0:
136,152,145837,1,0,0:0:0:0:
288,144,146801,5,0,0:0:0:0:
256,192,150751,12,0,159038,0:0:0:0:
