osu file format v14

[General]
AudioFilename: audio.mp3
AudioLeadIn: 0
PreviewTime: -1
Countdown: 1
SampleSet: None
StackLeniency: 0.5
Mode: 0
LetterboxInBreaks: 0
WidescreenStoryboard: 0

[Editor]
Bookmarks: 70419
DistanceSpacing: 2.7
BeatDivisor: 4
GridSize: 4
TimelineZoom: 1.9

[Metadata]
Title:High Hopes
TitleUnicode:High Hopes
Artist:Panic! At the Disco
ArtistUnicode:Panic! At the Disco
Creator:MilusPrime
Version:Insane
Source:
Tags:
BeatmapID:1984311
BeatmapSetID:950158

[Difficulty]
HPDrainRate:6
CircleSize:4.5
OverallDifficulty:8
ApproachRate:9.2
SliderMultiplier:1.4
SliderTickRate:1

[Events]
//Background and Video events
0,0,"215439.jpg",0,0
//Break Periods
2,140862,150246
//Storyboard Layer 0 (Background)
//Storyboard Layer 1 (Fail)
//Storyboard Layer 2 (Pass)
//Storyboard Layer 3 (Foreground)
//Storyboard Sound Samples

[TimingPoints]
35298,365.853658536585,4,2,0,100,1,0
35298,-100,4,3,0,70,0,0
70419,-100,4,3,0,70,0,1
92371,-100,4,3,0,70,0,0
164078,-100,4,1,0,70,0,1
166273,-100,4,1,0,70,0,0
167005,-100,4,1,0,70,0,1
169291,-100,4,1,0,70,0,0
169932,-100,4,1,0,70,0,1
172127,-100,4,1,0,70,0,0
172858,-100,4,1,0,70,0,1
187493,-100,4,1,0,70,0,0

[HitObjects]
86,119,176,6,0,L|166:173,1,70
306,202,541,2,0,L|337:165,2,35
265,266,907,2,0,P|220:286|185:267,1,70
115,211,1273,2,0,L|61:162,1,70
139,277,1639,2,0,P|115:303|172:311,1,105
271,290,2005,2,0,P|300:271|310:246,2,35
206,155,2371,2,0,P|218:110|247:100,1,70
369,205,2737,2,0,P|326:244|336:279,1,96.25
187,300,3102,2,0,P|163:258|123:257,1,70
92,139,3468,2,0,L|118:98,2,35
202,46,3834,6,0,P|191:89|215:140,1,70
315,259,4200,2,0,P|328:189|305:160,1,105
234,200,4566,2,0,P|238:245|208:287,1,70
157,343,4932,2,0,L|110:355,2,35
290,333,5298,2,0,P|337:310|346:285,1,70
113,218,5663,2,0,P|84:178|101:147,1,70
271,98,6029,6,0,P|329:86|341:98,1,70
205,214,6395,2,0,L|198:257,2,35
155,107,6761,2,0,P|105:86|87:117,1,70
83,290,7127,2,0,P|62:234|76:211,1,70
199,336,7493,2,0,P|241:324|288:293,1,70
378,143,7858,2,0,L|398:103,2,35
255,184,8224,2,0,P|210:222|169:229,1,70
67,194,8590,2,0,P|67:145|96:112,1,70
332,246,8956,6,0,L|383:310,1,70
145,295,9322,2,0,L|111:252,2,35
128,144,9688,2,0,P|136:103|170:93,1,70
239,227,10054,2,0,P|207:294|202:296,1,70
336,151,10419,2,0,P|350:104|366:93,1,70
351,293,10785,2,0,L|354:341,2,35
253,200,11151,2,0,P|233:154|186:152,1,70
131,226,11517,2,0,P|143:271|119:298,1,70
102,115,11883,6,0,P|110:71|156:59,1,70
195,227,12249,2,0,L|205:288,2,35
80,252,12523,2,0,L|50:229,2,35
121,207,12798,2,0,P|146:160|183:152,1,70
244,188,13163,1,0,0:0:0:0:
343,142,13346,2,0,P|357:187|320:217,1,70
234,127,13712,2,0,L|202:93,2,35
262,241,14078,2,0,P|236:309|213:324,1,70
417,323,14444,2,0,P|422:263|409:232,1,70
265,164,14810,2,0,P|266:111|285:93,1,70
111,242,15176,6,0,L|117:299,2,35
85,134,15541,2,0,P|89:87|134:73,1,70
228,187,15907,2,0,P|237:231|200:254,1,70
319,115,16273,2,0,P|335:78|372:61,1,70
416,186,16639,2,0,L|414:235,2,35
393,250,16913,1,0,0:0:0:0:
366,281,17005,1,0,0:0:0:0:
335,302,17096,1,0,0:0:0:0:
131,233,17371,6,0,P|116:156|121:150,1,70
254,75,17737,2,0,P|276:126|266:152,1,70
232,259,18102,2,0,P|209:292|223:338,1,70
263,338,18377,2,0,L|303:351,2,35
211,324,18651,2,0,P|156:313|140:290,2,70
290,265,19200,6,0,P|316:240|316:195,1,70
257,107,19566,2,0,L|294:80,2,35
165,176,19932,2,0,P|144:227|110:243,1,70
212,359,20298,2,0,P|151:320|142:305,1,70
326,340,20663,2,0,P|356:302|366:273,1,70
394,199,21029,2,0,L|414:163,2,35
398,47,21395,2,0,P|354:47|300:70,1,70
237,77,21761,2,0,P|176:97|146:111,1,70
194,298,22127,6,0,L|171:211,1,70
323,280,22493,2,0,L|294:190,1,70
215,122,22767,2,0,L|223:163,2,35
289,52,23224,2,0,P|356:52|376:71,1,70
371,263,23590,2,0,P|373:321|337:328,1,105
324,328,23956,2,0,P|242:313|234:281,1,105
227,281,24322,2,0,L|201:243,2,35
121,154,24688,2,0,P|80:115|101:96,1,70
339,123,25054,2,0,P|374:147|359:174,1,70
209,272,25419,6,0,P|161:276|157:304,1,70
398,282,25785,2,0,P|356:279|316:296,1,70
151,177,26151,2,0,P|117:139|141:115,1,70
219,67,26517,2,0,P|280:49|284:63,1,70
327,150,26883,2,0,P|338:194|314:206,1,70
186,207,27249,2,0,P|155:175|188:140,1,70
157,308,27615,2,0,P|122:344|122:370,1,70
374,264,27980,2,0,P|403:222|383:185,1,70
315,104,28346,6,0,P|274:77|226:89,1,70
188,90,28621,2,0,L|160:122,2,35
96,253,29078,1,0,0:0:0:0:
301,302,29444,2,0,P|329:254|317:224,1,70
238,176,29810,2,0,P|193:129|194:107,1,70
289,82,30084,2,0,L|322:64,2,35
428,137,30541,2,0,P|434:178|388:197,1,70
324,273,30907,2,0,P|275:295|244:305,1,70
58,344,31273,2,0,L|110:323,2,35
205,233,31639,6,0,P|246:188|254:164,1,70
376,73,32005,2,0,P|340:110|302:125,1,70
142,71,32371,2,0,P|198:100|219:97,1,70
352,202,32737,2,0,P|397:215|422:246,1,70
275,316,33102,2,0,P|317:319|356:334,1,70
198,240,33468,2,0,P|125:187|119:180,1,70
207,76,33834,6,0,P|296:107|299:129,1,105
296,127,34200,2,0,P|304:166|277:187,1,70
273,194,34474,2,0,P|231:213|192:198,2,70
309,187,34932,2,0,P|359:182|390:213,1,70
86,228,35298,6,0,P|102:177|125:176,1,70
205,111,35663,1,0,0:0:0:0:
245,324,35846,1,0,0:0:0:0:
337,121,36029,1,0,0:0:0:0:
421,230,36395,6,0,P|388:229|350:252,1,70
225,322,36761,1,0,0:0:0:0:
255,199,37127,1,0,0:0:0:0:
252,193,37310,2,0,P|261:160|226:149,1,70
81,90,37676,1,0,0:0:0:0:
218,290,38041,5,0,0:0:0:0:
333,287,38224,2,0,P|387:260|404:230,1,70
199,174,38590,2,0,P|232:152|274:138,1,70
151,328,38956,5,0,0:0:0:0:
56,201,39139,1,0,0:0:0:0:
251,270,39322,2,0,B|311:275|356:238|366:169,1,140
186,147,39871,1,0,0:0:0:0:
391,93,40054,1,0,0:0:0:0:
385,296,40237,5,0,0:0:0:0:
253,337,40420,1,0,0:0:0:0:
313,191,40603,1,0,0:0:0:0:
266,86,40785,2,4,P|212:71|124:96,1,140,0|0,0:0|0:0,0:0:0:0:
96,268,41334,1,0,0:0:0:0:
237,204,41517,1,0,0:0:0:0:
74,155,41700,1,0,0:0:0:0:
201,308,41883,2,0,P|223:335|324:351,1,140
144,136,42615,5,0,0:0:0:0:
353,190,42798,1,0,0:0:0:0:
145,270,42980,1,0,0:0:0:0:
302,110,43163,1,0,0:0:0:0:
255,291,43346,2,0,P|234:326|197:341,1,70
82,207,43712,2,0,P|104:176|136:164,1,70
375,200,44078,6,0,P|411:163|409:74,1,140
306,125,44627,1,0,0:0:0:0:
224,173,44810,2,0,P|191:97|224:61,1,140
93,279,45358,5,0,0:0:0:0:
293,320,45541,1,0,0:0:0:0:
59,173,45724,1,0,0:0:0:0:
251,241,45907,2,0,P|290:214|295:123,1,140
231,61,46456,1,0,0:0:0:0:
110,69,46639,1,0,0:0:0:0:
78,297,47005,5,0,0:0:0:0:
174,167,47188,1,0,0:0:0:0:
202,302,47371,2,0,P|245:263|282:263,1,70
380,302,47737,2,0,P|360:346|325:355,1,70
308,184,48102,2,0,B|353:156|374:129|347:60,1,140
167,126,48651,1,0,0:0:0:0:
116,245,48834,1,0,0:0:0:0:
358,316,49200,6,0,P|366:252|351:235,1,70
265,122,49566,2,0,P|266:162|240:192,1,70
124,297,49932,1,0,0:0:0:0:
141,143,50115,1,0,0:0:0:0:
235,310,50298,1,0,0:0:0:0:
75,187,50480,1,0,0:0:0:0:
131,49,50663,2,0,P|97:59|68:77,1,70
337,80,51029,2,0,B|330:135|286:172|252:221,1,140
410,281,51578,5,0,0:0:0:0:
445,147,51761,1,0,0:0:0:0:
296,292,51944,1,0,0:0:0:0:
336,155,52127,2,0,P|371:100|304:54,1,140
106,122,52676,5,0,0:0:0:0:
138,116,52767,1,0,0:0:0:0:
171,127,52858,1,0,0:0:0:0:
84,273,53041,1,0,0:0:0:0:
296,153,53224,1,0,0:0:0:0:
212,305,53407,1,0,0:0:0:0:
376,248,53590,2,0,P|414:205|425:161,1,70
396,66,53956,2,0,P|347:90|320:125,1,70
136,184,54322,5,0,0:0:0:0:
202,185,54505,1,0,0:0:0:0:
277,297,54688,5,0,0:0:0:0:
240,350,54871,1,0,0:0:0:0:
115,96,55054,6,0,P|176:79|192:88,1,70
132,218,55419,1,0,0:0:0:0:
322,161,55602,2,0,P|302:196|260:208,1,70
132,218,55968,1,0,0:0:0:0:
107,100,56151,2,0,P|156:60|193:54,2,70
147,282,56883,6,0,P|190:209|267:212,1,140
368,224,57432,2,0,P|347:252|297:267,1,70
279,139,57798,2,0,P|306:114|341:105,1,70
72,186,58712,6,0,P|164:204|69:188,1,420
325,152,60176,2,0,P|393:135|319:147,1,280
104,219,61273,5,0,0:0:0:0:
230,300,61639,2,0,P|316:265|223:289,1,280
153,108,62737,1,0,0:0:0:0:
318,129,63102,1,0,0:0:0:0:
405,264,63468,2,0,P|367:302|365:242,1,140
369,117,64200,1,0,0:0:0:0:
156,147,64566,2,0,P|71:166|166:258,1,280
264,110,65663,1,0,0:0:0:0:
401,294,66029,2,0,B|356:283|293:198|393:246|393:246|446:159|433:260|408:292,1,280
112,132,67127,1,0,0:0:0:0:
285,131,67493,2,0,P|354:124|271:165,1,280
73,217,68590,1,0,0:0:0:0:
196,267,68956,2,0,P|253:278|199:252,1,140
91,194,70419,6,0,L|163:123,1,70
385,226,70785,2,0,L|331:301,1,70
314,305,71060,1,0,0:0:0:0:
277,319,71151,1,0,0:0:0:0:
241,323,71243,1,0,0:0:0:0:
86,177,71517,1,0,0:0:0:0:
284,189,71700,1,0,0:0:0:0:
68,281,71883,1,0,0:0:0:0:
177,102,72066,2,0,P|216:82|250:85,1,70
349,124,72432,1,0,0:0:0:0:
367,221,72615,5,0,0:0:0:0:
466,285,72798,1,0,0:0:0:0:
293,300,72980,1,0,0:0:0:0:
410,360,73163,1,0,0:0:0:0:
279,146,73346,2,0,L|240:73,1,70
44,167,73712,2,0,L|79:243,1,70
237,337,74078,5,0,0:0:0:0:
381,220,74261,1,0,0:0:0:0:
359,348,74444,1,0,0:0:0:0:
223,217,74627,1,0,0:0:0:0:
397,136,74810,2,0,P|378:93|331:75,1,70
258,342,75176,2,0,P|214:295|221:272,1,70
223,258,75450,1,0,0:0:0:0:
249,225,75541,1,0,0:0:0:0:
276,207,75633,1,0,0:0:0:0:
59,147,75907,6,0,P|97:115|123:114,1,70
386,134,76273,5,0,0:0:0:0:
92,266,76456,1,0,0:0:0:0:
366,294,76639,1,0,0:0:0:0:
148,119,76822,1,0,0:0:0:0:
221,323,77005,1,0,0:0:0:0:
267,80,77188,1,0,0:0:0:0:
101,238,77371,6,0,P|79:274|88:304,1,70
370,315,77737,2,0,P|392:242|388:218,1,70
143,134,78102,5,0,0:0:0:0:
258,210,78285,2,0,L|295:279,2,70
244,79,78834,1,0,0:0:0:0:
385,62,79200,6,0,P|399:109|398:147,1,70
230,192,79566,2,0,P|196:148|201:103,1,70
292,93,79932,2,0,P|324:141|312:180,1,70
150,246,80298,2,0,P|109:201|107:162,1,70
306,311,80663,6,0,L|382:277,4,70
84,86,82127,6,0,L|76:182,1,70
232,205,82493,2,0,L|238:125,1,70
231,93,82767,1,0,0:0:0:0:
201,65,82858,1,0,0:0:0:0:
154,57,82950,1,0,0:0:0:0:
114,277,83224,6,0,P|86:312|98:333,1,70
334,131,83590,2,0,P|370:150|360:178,1,70
309,313,83956,5,0,0:0:0:0:
129,154,84139,1,0,0:0:0:0:
396,258,84322,1,0,0:0:0:0:
149,272,84505,1,0,0:0:0:0:
299,130,84688,2,0,P|337:99|266:93,1,140
70,212,85237,5,0,0:0:0:0:
315,204,85419,1,0,0:0:0:0:
124,131,85602,1,0,0:0:0:0:
303,308,85785,1,0,0:0:0:0:
282,89,85968,2,0,P|328:73|370:94,3,70
96,288,86883,5,0,0:0:0:0:
132,141,87066,5,0,0:0:0:0:
166,141,87157,1,0,0:0:0:0:
193,164,87249,1,0,0:0:0:0:
202,331,87432,1,0,0:0:0:0:
355,189,87615,1,0,0:0:0:0:
106,251,87797,1,0,0:0:0:0:
281,81,87980,2,0,P|315:75|368:85,1,70
359,275,88346,2,0,P|325:269|272:279,1,70
260,273,88621,1,0,0:0:0:0:
219,255,88712,1,0,0:0:0:0:
200,227,88804,1,0,0:0:0:0:
99,121,89078,6,0,P|153:93|176:87,1,70
95,242,89444,2,0,P|64:284|61:318,1,70
275,195,89810,5,0,0:0:0:0:
191,322,89993,1,0,0:0:0:0:
391,319,90176,2,0,P|414:268|396:253,1,70
346,185,90541,2,0,P|327:143|347:116,1,70
127,89,90907,6,0,L|103:163,1,70
234,307,91273,2,0,L|261:226,1,70
81,281,91639,1,0,0:0:0:0:
215,170,92371,6,0,L|306:166,1,70
281,288,92737,2,0,L|208:294,1,70
184,99,93102,2,0,L|261:97,1,70
103,155,93468,6,0,B|70:196|70:196|121:230|141:223|160:213,1,140
302,150,94017,1,0,0:0:0:0:
211,317,94200,1,0,0:0:0:0:
167,223,94383,1,0,0:0:0:0:
412,198,94566,2,0,P|410:151|420:126,1,70
216,85,94932,2,0,P|195:100|192:141,1,70
252,243,95297,2,0,L|323:184,1,70
100,217,95663,5,0,0:0:0:0:
194,351,95846,1,0,0:0:0:0:
97,111,96029,5,0,0:0:0:0:
237,137,96212,1,0,0:0:0:0:
307,67,96395,2,0,P|360:49|439:101,1,140
321,186,96944,1,0,0:0:0:0:
398,306,97127,1,0,0:0:0:0:
115,127,97310,1,0,0:0:0:0:
99,202,97493,6,0,P|78:242|108:257,1,70
268,161,97858,2,0,P|269:118|243:107,1,70
205,291,98224,2,0,P|201:329|229:340,1,70
384,266,98590,5,0,0:0:0:0:
444,136,98773,1,0,0:0:0:0:
156,225,98956,1,0,0:0:0:0:
289,117,99139,1,0,0:0:0:0:
248,292,99322,2,0,P|207:309|164:293,1,70
89,152,99688,5,0,0:0:0:0:
254,226,99871,1,0,0:0:0:0:
115,82,100054,1,0,0:0:0:0:
168,266,100237,1,0,0:0:0:0:
354,256,100419,2,0,B|365:191|337:142|287:156,1,140
61,259,101151,5,2,0:0:0:0:
251,301,101334,1,0,0:0:0:0:
82,155,101517,1,0,0:0:0:0:
198,152,101700,2,0,P|232:137|284:151,1,70
377,207,102615,5,0,0:0:0:0:
246,246,102797,2,0,P|191:260|168:241,1,70
96,219,103163,2,0,P|83:169|102:150,1,70
248,113,103529,1,0,0:0:0:0:
61,289,103712,1,0,0:0:0:0:
333,305,103895,1,0,0:0:0:0:
159,199,104078,2,0,P|191:208|229:211,1,70
351,184,104444,2,0,P|381:149|405:151,1,70
203,94,104810,5,0,0:0:0:0:
86,231,104993,1,0,0:0:0:0:
278,185,105176,1,0,0:0:0:0:
285,330,105541,6,0,P|235:330|214:317,1,70
381,280,105907,2,0,P|425:261|444:237,1,70
82,343,106273,1,0,0:0:0:0:
200,249,106456,1,0,0:0:0:0:
330,353,106639,1,0,0:0:0:0:
164,349,106822,1,0,0:0:0:0:
428,244,107005,1,0,0:0:0:0:
234,314,107188,1,0,0:0:0:0:
39,207,107371,6,0,P|56:238|93:246,1,70
381,200,107737,1,0,0:0:0:0:
178,261,107919,1,0,0:0:0:0:
103,166,108102,1,0,0:0:0:0:
267,229,108285,1,0,0:0:0:0:
346,167,108468,2,0,P|362:127|343:90,1,70
92,44,108834,6,0,P|97:89|127:101,1,70
306,79,109200,1,0,0:0:0:0:
444,114,109383,2,0,P|454:151|432:194,1,70
351,270,109749,1,0,0:0:0:0:
242,143,109932,1,0,0:0:0:0:
116,174,110115,2,0,P|118:227|94:251,2,70
172,98,110663,2,0,P|220:78|320:106,1,140
380,271,111395,6,0,P|353:306|317:309,1,70
187,243,111761,2,0,P|185:191|218:166,1,70
381,122,112127,1,0,0:0:0:0:
240,311,112310,1,0,0:0:0:0:
55,193,112493,1,0,0:0:0:0:
187,157,112676,1,0,0:0:0:0:
89,304,112858,1,0,0:0:0:0:
261,207,113041,1,0,0:0:0:0:
379,286,113224,2,0,P|417:238|422:210,1,70
171,142,113590,6,0,P|148:182|152:212,1,70
282,311,113956,2,0,P|298:276|306:234,1,70
361,117,114322,2,0,P|392:162|388:190,1,70
174,310,114688,2,0,P|158:251|135:222,1,70
72,117,115054,1,0,0:0:0:0:
256,130,115237,1,0,0:0:0:0:
296,287,115419,1,0,0:0:0:0:
402,157,115602,1,0,0:0:0:0:
416,294,115785,2,0,P|409:338|323:359,1,140
106,129,117249,6,0,P|94:190|138:115,1,280
338,190,118346,1,0,0:0:0:0:
119,328,118712,2,0,P|112:242|156:199,1,140
269,303,119444,1,0,0:0:0:0:
287,109,119810,1,0,0:0:0:0:
102,147,120176,2,0,P|68:196|122:145,1,280
273,153,121273,1,0,0:0:0:0:
206,317,121639,1,0,0:0:0:0:
379,311,122005,2,0,P|403:217|278:101,1,280
110,215,123102,5,0,0:0:0:0:
207,118,123468,1,0,0:0:0:0:
253,278,123834,1,0,0:0:0:0:
403,185,124200,2,0,B|428:153|441:52|388:139|388:139|288:91|351:176|405:191,1,280
177,254,125297,1,0,0:0:0:0:
102,154,125663,2,0,P|85:103|211:145,1,280
78,282,126761,2,0,P|117:330|291:263,1,280
144,170,127858,1,0,0:0:0:0:
284,153,128224,1,0,0:0:0:0:
418,206,128956,6,0,P|423:250|367:338,1,140
290,354,129505,1,0,0:0:0:0:
233,243,129688,2,0,P|213:189|136:144,1,140
325,249,130237,1,0,0:0:0:0:
303,121,130419,1,0,0:0:0:0:
122,221,130602,1,0,0:0:0:0:
226,208,130785,1,0,0:0:0:0:
62,105,130968,1,0,0:0:0:0:
70,291,131151,6,0,P|118:328|207:330,1,140
173,199,131700,1,0,0:0:0:0:
163,92,131883,2,0,P|254:94|305:103,1,140
330,121,132340,2,0,P|377:153|420:258,1,140
413,255,132797,2,0,P|433:293|370:361,1,140
208,295,133346,1,0,0:0:0:0:
116,147,134078,6,0,P|178:132|263:142,1,140
126,261,134627,1,0,0:0:0:0:
276,302,134810,2,0,P|334:268|374:198,1,140
153,162,135358,1,0,0:0:0:0:
68,296,135541,2,0,P|108:330|202:351,1,140
271,126,136090,1,0,0:0:0:0:
346,279,136273,1,0,0:0:0:0:
132,212,136456,1,0,0:0:0:0:
362,192,136639,1,0,0:0:0:0:
119,124,136822,1,0,0:0:0:0:
219,295,137005,6,0,P|263:295|361:252,1,140
188,182,137554,5,0,0:0:0:0:
356,76,138102,5,0,0:0:0:0:
231,292,138651,5,0,0:0:0:0:
110,161,139200,5,0,0:0:0:0:
203,115,139383,1,0,0:0:0:0:
304,140,139566,1,0,0:0:0:0:
349,234,139749,1,0,0:0:0:0:
311,331,139932,1,0,0:0:0:0:
113,287,140115,6,0,L|68:204,1,70
201,189,140480,2,0,L|251:274,1,70
73,193,150816,5,0,0:0:0:0:
104,174,150907,1,0,0:0:0:0:
135,176,150999,1,0,0:0:0:0:
166,190,151090,1,0,0:0:0:0:
75,329,151273,1,0,0:0:0:0:
365,160,151456,1,0,0:0:0:0:
280,339,151639,1,0,0:0:0:0:
166,157,151822,1,0,0:0:0:0:
337,278,152005,1,0,0:0:0:0:
390,209,152188,1,0,0:0:0:0:
407,124,152371,6,0,L|418:49,1,70
118,85,152737,2,0,L|106:182,1,70
249,105,153102,2,0,L|237:202,1,70
81,328,153468,2,0,L|94:253,1,70
261,286,153834,2,0,L|231:360,1,70
146,176,154200,2,0,L|105:102,1,70
335,195,154566,6,0,L|387:115,1,70
166,298,154932,2,0,L|96:329,1,70
291,305,155297,2,0,L|372:341,1,70
140,148,155663,2,0,L|73:102,1,70
328,225,156029,2,0,L|396:166,1,70
101,290,156395,2,0,L|167:314,1,70
274,118,156761,2,0,L|205:68,1,70
412,325,157127,2,0,L|334:268,1,70
111,194,157493,2,0,L|141:289,1,70
405,125,157858,6,0,L|340:199,1,70
148,138,158224,2,0,L|198:219,1,70
350,325,158590,2,0,L|291:247,1,70
86,313,158956,2,0,L|170:275,1,70
144,103,159322,2,0,L|101:190,1,70
229,74,159688,5,0,0:0:0:0:
210,262,159871,1,0,0:0:0:0:
292,170,160054,5,0,0:0:0:0:
325,314,160237,1,0,0:0:0:0:
396,95,160419,5,0,0:0:0:0:
403,234,160602,1,0,0:0:0:0:
96,95,160785,5,0,0:0:0:0:
170,274,160968,1,0,0:0:0:0:
226,75,161151,5,0,0:0:0:0:
58,259,161334,1,0,0:0:0:0:
361,95,161517,5,0,0:0:0:0:
269,282,161700,1,0,0:0:0:0:
421,247,161883,5,0,0:0:0:0:
187,129,162066,1,0,0:0:0:0:
83,199,162249,5,0,0:0:0:0:
270,354,162432,1,0,0:0:0:0:
341,204,162615,5,0,0:0:0:0:
349,173,162706,1,0,0:0:0:0:
350,140,162797,1,0,0:0:0:0:
337,111,162889,1,0,0:0:0:0:
317,87,162980,1,0,0:0:0:0:
289,69,163072,1,0,0:0:0:0:
256,63,163163,1,0,0:0:0:0:
225,67,163255,1,0,0:0:0:0:
195,81,163346,1,0,0:0:0:0:
171,278,164078,6,0,L|105:207,1,70
335,89,164444,2,0,L|401:157,1,70
308,284,164810,1,0,0:0:0:0:
282,264,164901,1,0,0:0:0:0:
268,243,164993,1,0,0:0:0:0:
176,56,165176,5,0,0:0:0:0:
126,266,165358,1,0,0:0:0:0:
301,85,165541,1,0,0:0:0:0:
50,197,165724,1,0,0:0:0:0:
292,187,165907,2,0,P|354:202|382:186,1,70
250,309,166273,1,0,0:0:0:0:
150,215,167005,6,0,L|100:140,1,70
233,86,167371,2,0,L|288:153,1,70
366,228,167737,1,0,0:0:0:0:
444,109,167919,1,0,0:0:0:0:
422,333,168102,1,0,0:0:0:0:
179,164,168285,1,0,0:0:0:0:
266,95,168468,2,0,P|310:85|348:89,1,70
306,269,168834,2,0,P|271:293|234:294,1,70
207,291,169108,5,0,0:0:0:0:
176,272,169200,1,0,0:0:0:0:
158,239,169291,1,0,0:0:0:0:
205,101,169932,5,0,0:0:0:0:
335,331,170297,5,0,0:0:0:0:
61,208,170480,1,0,0:0:0:0:
350,166,170663,1,0,0:0:0:0:
149,352,170846,1,0,0:0:0:0:
151,137,171029,2,0,P|209:101|236:94,1,70
323,278,171395,2,0,P|294:308|248:323,1,70
368,94,171761,1,0,0:0:0:0:
411,273,171944,1,0,0:0:0:0:
130,142,172127,1,0,0:0:0:0:
225,161,172858,6,0,L|211:246,1,70
429,260,173224,2,0,L|440:330,1,70
362,83,173590,1,0,0:0:0:0:
154,300,173773,1,0,0:0:0:0:
340,232,173956,1,0,0:0:0:0:
125,124,174139,1,0,0:0:0:0:
276,323,174322,2,0,P|322:322|352:311,4,70
138,98,175785,5,0,0:0:0:0:
376,319,176151,5,0,0:0:0:0:
386,179,176517,5,0,0:0:0:0:
225,350,176700,1,0,0:0:0:0:
101,147,176883,1,0,0:0:0:0:
301,119,177066,2,0,L|263:39,1,70
155,277,177432,2,0,L|114:355,1,70
315,232,177980,5,0,0:0:0:0:
146,127,178163,1,0,0:0:0:0:
271,101,178346,1,0,0:0:0:0:
130,274,178529,1,0,0:0:0:0:
283,346,178712,2,0,P|339:322|347:320,1,70
309,137,179078,2,0,P|236:152|226:165,1,70
179,283,179444,1,0,0:0:0:0:
330,244,179627,1,0,0:0:0:0:
115,147,179810,1,0,0:0:0:0:
223,55,179993,1,0,0:0:0:0:
434,176,180176,6,0,P|393:173|355:186,1,70
91,316,180541,2,0,P|131:274|164:254,1,70
196,248,180816,1,0,0:0:0:0:
254,253,180907,1,0,0:0:0:0:
303,285,180999,1,0,0:0:0:0:
115,130,181273,5,0,0:0:0:0:
326,266,181456,1,0,0:0:0:0:
288,120,181639,2,0,P|271:74|231:80,1,70
206,333,182005,2,0,P|170:299|176:273,1,70
187,245,182279,1,0,0:0:0:0:
236,222,182371,1,0,0:0:0:0:
286,216,182462,1,0,0:0:0:0:
402,181,182737,1,0,0:0:0:0:
155,127,182919,1,0,0:0:0:0:
364,333,183102,1,0,0:0:0:0:
315,146,183285,2,0,P|287:99|246:87,1,70
107,237,183834,5,0,0:0:0:0:
194,302,184017,1,0,0:0:0:0:
188,160,184200,1,0,0:0:0:0:
362,300,184383,1,0,0:0:0:0:
352,165,184566,2,0,P|367:112|350:71,1,70
122,243,184932,2,0,P|108:302|118:337,1,70
190,125,185297,1,0,0:0:0:0:
275,308,185480,1,0,0:0:0:0:
307,181,185663,1,0,0:0:0:0:
401,79,186029,6,0,L|330:79,1,70
321,286,186395,2,0,P|373:277|393:259,1,70
390,220,186669,1,0,0:0:0:0:
346,180,186761,1,0,0:0:0:0:
289,174,186852,1,0,0:0:0:0:
235,174,186944,1,0,0:0:0:0:
96,294,187127,1,0,0:0:0:0:
88,104,187310,1,0,0:0:0:0:
243,70,187493,1,0,0:0:0:0:
