osu file format v14

[General]
AudioFilename: audio.mp3
AudioLeadIn: 0
PreviewTime: 108354
Countdown: 0
SampleSet: None
StackLeniency: 1
Mode: 0
LetterboxInBreaks: 0
WidescreenStoryboard: 0

[Editor]
Bookmarks: 15172,29717,43354,62445,66081,95172
DistanceSpacing: 1
BeatDivisor: 4
GridSize: 8
TimelineZoom: 2.4

[Metadata]
Title:King Of The Clouds
TitleUnicode:King Of The Clouds
Artist:Panic! At The Disco
ArtistUnicode:Panic! At The Disco
Creator:starryorange
Version:Get Lifted
Source:
Tags:
BeatmapID:1954248
BeatmapSetID:935380

[Difficulty]
HPDrainRate:7
CircleSize:4.5
OverallDifficulty:8
ApproachRate:8
SliderMultiplier:1.5
SliderTickRate:1

[Events]
//Background and Video events
0,0,"Ladic.full.1644060.jpg",0,0
Video,0,"Panic! At The Disco - King Of The Clouds (Official Audio).mp4"
//Break Periods
//Storyboard Layer 0 (Background)
//Storyboard Layer 1 (Fail)
//Storyboard Layer 2 (Pass)
//Storyboard Layer 3 (Foreground)
//Storyboard Sound Samples

[TimingPoints]
627,303.030303030303,3,1,0,100,1,0
627,-117.647058823529,3,1,0,100,0,0
13354,-133.333333333333,3,1,0,100,0,0
15172,-111.111111111111,3,1,0,100,0,0
26081,-133.333333333333,3,1,0,100,0,0
36990,-153.846153846153,3,1,0,100,0,0
42445,-222.22222222222,3,1,0,100,0,0
44263,-100,3,1,0,100,0,1
57899,-83.3333333333333,3,1,0,100,0,1
66081,-100,3,1,0,100,0,0
91536,-125,3,1,0,100,0,0
102445,-153.846153846153,3,1,0,100,0,0
109717,-100,3,1,0,100,0,1
124263,-83.3333333333333,3,1,0,100,0,1
131536,-100,3,1,0,100,0,1
138808,-153.846153846153,3,1,0,100,0,0
143354,-117.647058823529,3,1,0,100,0,0
146081,-181.818181818181,3,1,0,100,0,0

[Colours]
Combo1 : 46,90,224
Combo2 : 77,238,222
Combo3 : 162,128,225
Combo4 : 103,173,237

[HitObjects]
109,56,627,6,0,L|76:112,1,63.7500012159348
189,105,930,2,0,L|245:153,1,63.7500012159348
161,190,1233,1,0,0:0:0:0:
322,198,1536,1,0,0:0:0:0:
164,229,1839,2,0,P|190:284|247:351,2,127.50000243187
329,88,2748,1,0,0:0:0:0:
418,187,3051,1,0,0:0:0:0:
351,60,3354,2,0,P|382:38|424:58,1,63.7500012159348
420,48,3657,5,0,0:0:0:0:
351,60,3960,1,0,0:0:0:0:
205,100,4263,6,0,B|216:164|115:166|132:219,1,127.50000243187
180,326,4869,1,0,0:0:0:0:
341,326,5172,2,0,B|336:261|437:269|426:215,1,127.50000243187,0|0,0:0|0:0,0:0:0:0:
271,172,5778,1,0,0:0:0:0:
124,178,6081,2,0,P|82:72|64:52,2,127.50000243187
243,281,6990,1,0,0:0:0:0:
145,170,7293,1,0,0:0:0:0:
299,155,7596,1,0,0:0:0:0:
314,170,7899,5,0,0:0:0:0:
421,70,8202,2,0,P|440:130|441:220,2,127.50000243187
262,35,9111,1,0,0:0:0:0:
403,84,9414,1,0,0:0:0:0:
276,170,9717,2,0,P|278:218|311:317,2,127.50000243187
152,265,10627,1,0,0:0:0:0:
69,156,10930,1,0,0:0:0:0:
89,145,11233,5,0,0:0:0:0:
213,79,11536,2,0,P|258:47|287:180,1,255.000004863739
231,226,12445,2,0,P|235:301|364:244,1,255.000004863739
344,103,13354,6,0,L|296:108,2,28.1250010728836
192,46,13657,1,0,0:0:0:0:
193,175,13960,1,0,0:0:0:0:
271,295,14263,5,0,0:0:0:0:
301,306,14339,1,0,0:0:0:0:
332,292,14414,1,0,0:0:0:0:
384,255,14566,5,0,0:0:0:0:
349,65,14869,1,0,0:0:0:0:
134,81,15172,6,0,L|81:134,1,67.4999979400635
227,181,15475,2,0,L|305:198,1,67.4999979400635
207,315,15778,2,0,L|137:329,1,67.4999979400635
78,206,16081,6,6,L|63:238,1,33.7499989700318
235,168,16384,1,0,0:0:0:0:
99,266,16687,1,0,0:0:0:0:
273,322,16990,6,0,L|351:288,1,67.4999979400635
324,142,17293,2,0,L|394:202,1,67.4999979400635
455,61,17596,2,0,L|378:28,1,67.4999979400635
283,38,17899,2,0,P|247:83|159:76,1,134.999995880127
348,79,18505,1,0,0:0:0:0:
398,230,18808,2,0,P|411:283|411:310,1,67.4999979400635
313,305,19111,5,0,0:0:0:0:
237,130,19414,1,0,0:0:0:0:
190,309,19717,2,0,P|173:270|170:245,1,67.4999979400635
264,206,20020,1,0,0:0:0:0:
352,63,20323,1,0,0:0:0:0:
390,223,20627,6,0,P|395:275|381:303,1,67.4999979400635
245,279,20930,2,0,P|203:314|166:320,1,67.4999979400635
156,178,21233,1,0,0:0:0:0:
259,61,21536,2,0,P|277:100|299:115,1,67.4999979400635
438,75,21839,1,0,0:0:0:0:
464,214,22142,1,0,0:0:0:0:
350,327,22445,6,0,L|330:250,1,67.4999979400635
270,120,22748,2,0,L|231:192,1,67.4999979400635
111,253,23051,2,0,L|84:181,1,67.4999979400635
133,54,23354,2,6,L|139:99,1,33.7499989700318
219,213,23657,1,0,0:0:0:0:
173,64,23960,1,0,0:0:0:0:
295,170,24263,6,0,L|358:241,1,67.4999979400635
460,340,24566,2,0,L|470:254,1,67.4999979400635
314,303,24869,2,0,L|244:340,1,67.4999979400635
240,194,25172,1,4,0:0:0:0:
286,49,25475,2,0,L|324:110,1,67.4999979400635
453,137,25778,2,0,L|441:217,1,67.4999979400635
370,285,26081,6,0,B|334:318|334:318|308:240|237:343|181:268,1,225.000008583069
271,106,26990,5,0,0:0:0:0:
98,68,27293,2,0,L|60:137,1,56.2500021457673
176,248,27596,2,0,L|194:180,1,56.2500021457673
286,73,27899,2,0,B|308:68|332:51|332:51|346:72|346:72|364:58|364:58|366:127|457:122,1,225.000008583069
265,223,28808,5,0,0:0:0:0:
129,78,29111,1,0,0:0:0:0:
198,153,29263,1,0,3:3:0:0:
331,288,29566,1,0,0:0:0:0:
362,181,29717,6,0,P|336:155|334:123,1,56.2500021457673
237,48,30020,2,0,L|196:111,1,56.2500021457673
105,172,30323,2,0,L|115:231,1,56.2500021457673
242,315,30626,5,0,0:0:0:0:
411,157,31233,5,0,0:0:0:0:
382,142,31536,6,0,P|374:104|351:79,1,56.2500021457673
247,197,31839,2,0,L|294:251,1,56.2500021457673
405,327,32142,2,0,L|474:296,1,56.2500021457673
411,157,32445,5,0,0:0:0:0:
211,95,33202,5,0,0:0:0:0:
200,127,33354,2,0,B|147:152|147:152|175:181|205:263|95:292,1,225.000008583069
294,214,34263,6,6,L|306:247,1,28.1250010728836
103,57,35020,5,0,0:0:0:0:
126,78,35172,2,0,P|110:130|235:127,1,225.000008583069
361,260,36081,5,0,0:0:0:0:
161,40,36990,6,0,B|202:61|202:61|174:124|217:163,1,146.249993305207
66,305,37899,5,0,0:0:0:0:
284,247,38505,1,0,0:0:0:0:
375,118,38808,2,0,P|393:167|394:217,2,97.4999955368044
238,191,39717,5,0,0:0:0:0:
451,327,40323,5,0,0:0:0:0:
418,228,40626,2,0,P|405:187|388:168,1,48.7499977684022
373,100,40930,2,0,P|335:83|311:79,1,48.7499977684022
226,42,41233,2,0,P|199:53|170:79,1,48.7499977684022
61,52,41536,2,0,P|46:61|39:79,2,24.3749988842011
118,181,41839,2,0,P|149:203|175:205,1,48.7499977684022
282,297,42142,2,0,B|286:271|288:257|308:235,1,48.7499977684022
269,117,42445,2,0,P|299:93|304:63,1,67.4999979400635
204,59,43051,5,0,0:0:0:0:
175,154,43354,5,0,0:0:0:0:
445,62,43657,5,0,0:0:0:0:
375,324,43960,5,0,0:0:0:0:
220,111,44263,2,0,P|270:61|281:57,1,75
244,330,44566,2,0,P|196:344|167:338,1,75
404,147,44869,2,0,P|422:188|424:244,1,75
190,160,45172,5,0,0:0:0:0:
387,340,45475,2,0,L|370:246,1,75
277,123,45778,2,0,L|246:46,1,75
70,203,46081,2,0,P|79:254|101:281,1,75
319,196,46384,2,0,P|321:158|303:115,1,75
71,71,46687,2,0,P|59:122|64:168,1,75
290,69,46990,5,0,0:0:0:0:
405,280,47293,1,0,3:3:0:0:
257,217,47445,1,0,0:0:0:0:
339,348,47596,1,0,3:3:0:0:
335,189,47748,1,0,0:0:0:0:
256,312,47899,2,0,L|181:319,1,75
140,126,48202,6,0,L|193:71,1,75
405,158,48505,2,0,L|405:242,1,75,0|0,3:3|3:3,3:3:0:0:
265,47,48808,5,0,0:0:0:0:
121,228,49111,5,0,0:0:0:0:
254,166,49263,1,0,0:0:0:0:
182,302,49414,1,0,0:0:0:0:
330,336,49566,1,0,0:0:0:0:
315,181,49717,6,0,P|319:131|306:91,1,75
112,144,50020,2,0,P|91:186|88:228,1,75
258,320,50323,2,0,P|308:332|343:321,1,75
395,78,50626,5,0,0:0:0:0:
132,114,50930,1,0,0:0:0:0:
234,233,51081,1,0,3:3:0:0:
176,75,51233,1,0,3:3:0:0:
190,270,51384,1,0,0:0:0:0:
282,105,51536,6,0,L|328:180,1,75
66,264,51839,2,0,L|130:321,1,75
169,90,52142,2,0,L|217:30,1,75
368,137,52445,1,0,0:0:0:0:
434,328,52748,6,0,L|349:300,1,75
315,260,53051,2,0,L|252:308,1,75
134,148,53354,6,0,P|136:103|154:73,1,75
334,75,53657,1,0,0:0:0:0:
366,93,53733,1,0,0:0:0:0:
371,132,53808,1,0,0:0:0:0:
252,273,53960,2,0,P|211:255|183:224,1,75
272,121,54263,5,0,0:0:0:0:
441,342,54566,5,0,0:0:0:0:
464,190,54717,1,0,0:0:0:0:
330,283,54869,1,0,0:0:0:0:
484,308,55020,1,0,0:0:0:0:
387,220,55172,6,0,P|360:159|362:123,1,75
204,93,55475,2,0,P|174:61|142:43,1,75
168,283,55778,2,0,P|204:321|229:331,1,75
299,184,56081,5,0,0:0:0:0:
118,62,56384,2,0,L|135:137,1,75
185,177,56687,2,0,L|256:139,1,75
401,234,56990,6,0,P|431:265|442:308,1,75
234,293,57293,2,0,P|153:250|195:129,1,225
45,243,57899,5,0,0:0:0:0:
267,165,58202,5,0,0:0:0:0:
357,320,58354,1,0,0:0:0:0:
209,243,58505,1,0,0:0:0:0:
373,213,58657,1,0,0:0:0:0:
258,345,58808,6,0,P|203:344|166:313,1,89.9999972534181
104,183,59111,2,0,P|120:123|156:94,1,89.9999972534181
294,55,59414,2,0,P|340:75|372:118,1,89.9999972534181
370,257,59717,2,0,P|342:303|304:318,1,89.9999972534181
207,152,60020,2,0,P|231:106|266:88,1,89.9999972534181
425,168,60323,2,0,P|425:235|391:280,1,89.9999972534181
179,252,60626,2,0,P|166:201|186:150,1,89.9999972534181
392,86,60930,2,0,P|425:140|433:195,1,89.9999972534181
213,336,61233,2,0,P|173:307|169:254,1,89.9999972534181
294,239,61536,5,0,0:0:0:0:
166,114,61763,1,0,0:0:0:0:
148,80,61839,1,0,0:0:0:0:
174,239,61990,1,0,3:3:0:0:
250,92,62142,1,0,3:3:0:0:
124,206,62293,1,0,0:0:0:0:
291,136,62445,6,0,L|336:218,1,89.9999972534181
196,311,62748,2,0,L|102:316,1,89.9999972534181
134,173,63051,2,0,L|178:79,1,89.9999972534181
276,172,63354,1,0,0:0:0:0:
453,100,63657,1,0,0:0:0:0:
276,172,63960,1,0,0:0:0:0:
449,296,64263,6,0,L|375:348,1,89.9999972534181
224,238,64566,2,0,L|226:138,1,89.9999972534181
359,209,64869,1,0,0:0:0:0:
262,36,65172,1,0,0:0:0:0:
359,209,65475,5,0,0:0:0:0:
247,322,65626,1,0,0:0:0:0:
409,273,65778,1,0,0:0:0:0:
243,242,65930,1,0,0:0:0:0:
315,146,66081,6,0,L|251:85,1,75
114,72,66384,2,0,P|145:119|154:167,2,75
276,87,66839,1,0,0:0:0:0:
414,138,66990,2,0,P|441:168|411:205,1,75
409,273,67293,1,0,0:0:0:0:
319,76,67596,1,0,0:0:0:0:
150,163,67899,6,0,P|134:204|221:285,2,150
334,220,68808,1,0,0:0:0:0:
166,107,69111,1,0,0:0:0:0:
316,40,69263,1,0,0:0:0:0:
154,33,69414,1,0,0:0:0:0:
244,167,69566,1,0,0:0:0:0:
383,200,69717,6,0,P|421:228|413:276,1,75
296,285,70020,2,0,P|252:315|217:300,1,75
151,206,70323,2,0,P|120:184|72:197,1,75
211,77,70626,6,0,P|251:58|289:83,1,75
251,198,70930,2,0,P|234:232|243:276,1,75
384,278,71233,2,0,P|429:328|457:326,1,75
430,162,71536,2,0,P|400:109|365:89,2,75
311,185,71990,1,0,0:0:0:0:
233,107,72142,1,0,0:0:0:0:
345,148,72293,1,0,0:0:0:0:
211,158,72445,6,0,P|182:184|172:227,1,75
241,319,72748,2,0,P|268:273|270:242,1,75
146,92,73051,2,0,P|117:125|116:183,1,75
287,150,73354,6,0,L|323:220,1,75
403,134,73657,2,0,L|403:43,1,75
272,45,73960,2,0,L|184:53,1,75
150,160,74263,1,0,0:0:0:0:
305,325,74566,1,0,0:0:0:0:
192,138,74869,1,0,0:0:0:0:
359,112,75172,6,0,P|369:135|369:165,1,37.5
432,180,75323,2,0,P|436:227|431:240,1,37.5
376,254,75475,2,0,P|359:291|347:299,1,37.5
283,268,75626,2,0,P|244:282|214:271,2,75
254,176,76081,2,0,P|242:132|239:89,1,75
114,105,76384,5,0,0:0:0:0:
110,223,76536,1,0,0:0:0:0:
163,105,76687,1,0,0:0:0:0:
61,215,76839,1,0,0:0:0:0:
201,126,76990,6,0,B|241:141|241:141|237:176|271:223|271:223|294:172|294:172|321:222|321:222|349:186|348:141|348:141|393:144|431:112|407:46,1,450
155,80,78202,5,0,0:0:0:0:
345,311,78505,5,0,0:0:0:0:
113,110,78808,2,0,P|88:129|119:136,1,75
42,314,79111,2,0,L|108:277,1,75
233,179,79414,2,0,L|267:261,1,75
356,176,79717,5,0,0:0:0:0:
402,194,79793,1,0,0:0:0:0:
420,241,79869,1,0,0:0:0:0:
405,284,79945,1,0,0:0:0:0:
362,310,80020,1,0,0:0:0:0:
315,322,80096,1,0,0:0:0:0:
260,322,80172,1,0,0:0:0:0:
214,308,80248,1,0,0:0:0:0:
171,288,80323,6,0,B|151:323|151:323|85:333,1,75
87,208,80626,2,0,P|97:149|133:122,1,75
299,170,80930,2,0,P|322:130|310:87,1,75
438,316,81233,1,0,0:0:0:0:
219,192,81536,2,0,L|184:98,1,75
87,208,81839,5,0,0:0:0:0:
77,231,82142,1,0,0:0:0:0:
287,212,82445,2,0,P|300:259|389:322,1,150
379,131,83051,2,0,P|357:86|327:67,1,75
213,81,83354,1,0,0:0:0:0:
59,241,83657,5,0,0:0:0:0:
183,354,83808,1,0,0:0:0:0:
163,224,83960,1,0,3:3:0:0:
66,343,84111,1,0,0:0:0:0:
208,302,84263,6,0,P|251:295|287:271,1,75
200,155,84566,1,0,0:0:0:0:
431,215,84869,1,0,0:0:0:0:
202,83,85172,2,0,P|157:85|121:115,1,75
197,241,85475,2,0,P|245:253|282:244,1,75
394,329,85778,1,0,0:0:0:0:
315,139,86081,6,0,L|281:50,1,75
150,152,86384,2,0,L|102:216,1,75
261,110,86687,2,0,L|214:41,1,75
143,243,86990,2,0,L|118:329,1,75
280,272,87293,5,0,0:0:0:0:
371,160,87445,1,0,0:0:0:0:
334,294,87596,1,0,3:3:0:0:
316,144,87748,1,0,0:0:0:0:
191,69,87899,6,0,P|148:64|72:133,2,150
98,278,88808,2,0,P|88:317|100:362,1,75
261,275,89111,2,0,P|268:225|255:189,1,75
439,291,89414,5,0,0:0:0:0:
315,93,89717,1,0,0:0:0:0:
60,64,90020,1,0,0:0:0:0:
172,317,90323,1,0,0:0:0:0:
396,208,90626,2,0,P|384:172|397:133,1,75
236,67,90930,5,0,3:3:0:0:
192,180,91081,1,0,3:3:0:0:
293,125,91233,1,0,0:0:0:0:
170,107,91384,1,0,0:0:0:0:
264,200,91536,2,0,P|267:261|61:231,1,360
237,89,92748,5,0,0:0:0:0:
166,251,93051,1,0,0:0:0:0:
295,120,93354,2,0,P|360:114|414:265,1,240
247,315,94263,5,0,0:0:0:0:
130,152,94566,1,0,0:0:0:0:
186,233,94717,1,0,3:3:0:0:
69,54,95020,1,0,0:0:0:0:
202,98,95172,6,0,P|256:111|275:100,1,60
369,168,95475,2,0,L|322:227,1,60
435,321,95778,2,0,L|354:348,1,60
251,302,96081,5,0,0:0:0:0:
242,284,96687,5,0,0:0:0:0:
233,262,96990,2,0,P|225:222|235:182,1,60
313,104,97293,2,0,P|329:140|316:240,1,120
132,170,97899,2,4,L|114:128,1,30
443,146,98657,5,0,0:0:0:0:
420,174,98808,2,0,P|422:210|309:158,1,240
218,284,99717,2,0,P|189:319|112:327,2,120
126,227,100475,1,0,0:0:0:0:
207,142,100626,1,0,0:0:0:0:
390,248,100930,1,0,0:0:0:0:
404,204,101081,2,0,B|406:177|406:177|473:140|411:98,1,120
301,121,101536,5,0,0:0:0:0:
81,259,102142,6,2,L|52:324,1,60
237,327,102445,5,0,0:0:0:0:
331,61,103354,5,0,0:0:0:0:
69,155,103960,6,0,P|91:198|133:229,2,97.4999955368044
216,137,104869,1,0,0:0:0:0:
284,256,105172,2,4,L|300:297,1,24.3749988842011
419,107,105778,5,0,0:0:0:0:
259,101,106081,2,0,P|245:144|307:218,1,146.249993305207
256,192,106687,12,0,108202,0:0:0:0:
117,305,108505,5,0,0:0:0:0:
126,207,108808,5,0,0:0:0:0:
403,77,109111,5,0,0:0:0:0:
304,338,109414,5,0,0:0:0:0:
106,142,109717,6,0,P|104:95|125:56,1,75
303,176,110020,2,0,P|341:211|348:250,1,75
127,323,110323,2,0,P|82:288|74:260,1,75
255,124,110626,5,4,0:0:0:0:
440,56,110930,6,0,L|455:146,1,75
332,243,111233,2,0,L|279:308,1,75
79,200,111536,6,0,P|73:134|85:106,1,75
365,72,111839,2,0,P|384:116|384:163,1,75
184,338,112142,2,0,P|164:297|161:263,1,75
397,238,112445,1,0,0:0:0:0:
187,94,112748,5,0,0:0:0:0:
75,234,112899,1,0,0:0:0:0:
239,157,113051,1,0,3:3:0:0:
50,158,113202,1,0,0:0:0:0:
233,235,113354,2,0,P|246:271|281:295,1,75
445,132,113657,6,0,P|417:73|422:47,1,75
178,109,113960,2,0,P|182:167|162:210,1,75
335,336,114263,1,0,0:0:0:0:
325,126,114566,5,0,0:0:0:0:
151,67,114717,1,0,0:0:0:0:
287,188,114869,1,0,3:3:0:0:
254,208,114945,1,0,3:3:0:0:
216,210,115020,1,0,3:3:0:0:
175,204,115096,1,0,3:3:0:0:
138,189,115172,6,0,P|103:163|82:124,1,75
369,86,115475,2,0,P|410:119|430:169,1,75
276,336,115778,2,0,P|214:313|194:291,1,75
123,93,116081,6,0,L|207:67,1,75
343,133,116384,1,0,0:0:0:0:
170,226,116536,1,0,0:0:0:0:
368,298,116687,1,0,0:0:0:0:
290,116,116839,1,0,0:0:0:0:
188,66,116990,6,0,P|122:93|112:120,1,75
196,340,117293,2,0,P|242:315|262:294,1,75
50,160,117596,2,0,P|53:205|73:226,1,75
262,137,117899,5,4,0:0:0:0:
461,342,118202,2,0,L|412:254,1,75
350,122,118505,2,0,L|387:47,1,75
168,67,118808,6,0,P|126:91|111:127,1,75
188,331,119111,2,0,P|235:311|256:276,1,75
307,63,119414,2,0,P|341:100|368:105,1,75
431,299,119717,5,0,0:0:0:0:
217,207,119945,5,0,3:3:0:0:
217,207,120020,1,0,0:0:0:0:
57,70,120172,1,0,3:3:0:0:
252,92,120323,1,0,3:3:0:0:
52,182,120475,1,0,0:0:0:0:
194,309,120626,6,0,P|245:325|293:316,1,75
346,53,120930,2,0,P|401:54|435:68,1,75
188,232,121233,2,0,P|159:198|145:154,1,75
406,223,121536,5,0,0:0:0:0:
126,64,121839,5,0,0:0:0:0:
306,328,122142,5,0,0:0:0:0:
307,82,122445,5,0,0:0:0:0:
276,107,122520,1,0,0:0:0:0:
242,127,122596,1,0,3:3:0:0:
206,150,122672,1,0,3:3:0:0:
189,188,122748,1,0,3:3:0:0:
185,232,122823,1,0,3:3:0:0:
201,268,122899,1,0,3:3:0:0:
321,217,123051,1,0,0:0:0:0:
259,339,123202,1,0,0:0:0:0:
347,245,123354,6,0,L|426:229,1,75
124,98,123657,2,0,L|206:80,1,75
285,338,123960,2,0,L|367:325,1,75
336,69,124263,6,0,P|320:127|333:174,1,89.9999972534181,0|0,3:3|3:3,3:3:0:0:
60,218,124566,2,0,P|79:263|73:315,1,89.9999972534181,0|0,3:3|3:3,3:3:0:0:
250,79,124869,2,0,P|314:78|342:65,1,89.9999972534181,0|0,3:3|3:3,3:3:0:0:
321,300,125172,5,0,0:0:0:0:
129,102,125475,2,0,B|57:109|57:109|69:159|122:202,1,179.999994506836
341,111,126081,6,0,L|378:196,1,84.3750032186509
186,268,126384,2,0,L|106:332,1,89.9999972534181
190,113,126687,2,0,P|220:67|284:76,1,89.9999972534181
318,216,126990,5,0,0:0:0:0:
51,202,127293,1,0,0:0:0:0:
174,74,127445,1,0,0:0:0:0:
149,246,127596,1,0,0:0:0:0:
137,64,127748,1,0,0:0:0:0:
266,206,127899,6,0,P|296:243|340:258,1,89.9999972534181
353,104,128202,1,0,0:0:0:0:
432,335,128505,1,0,0:0:0:0:
246,167,128808,6,0,P|194:212|169:215,1,89.9999972534181
205,47,129111,1,0,0:0:0:0:
97,291,129414,1,0,0:0:0:0:
356,211,129717,6,0,P|384:156|417:143,1,89.9999972534181
296,336,130020,2,0,P|238:334|206:306,1,89.9999972534181
292,185,130323,2,0,P|296:138|279:94,1,89.9999972534181
120,152,130626,5,0,0:0:0:0:
239,284,130778,1,0,0:0:0:0:
69,252,130930,1,0,0:0:0:0:
220,161,131081,1,0,3:3:0:0:
144,323,131233,1,0,3:3:0:0:
120,152,131384,1,0,0:0:0:0:
318,39,131536,6,0,P|373:67|398:104,1,75
338,310,131839,2,0,P|293:322|258:318,1,75
426,153,132142,2,0,P|432:204|408:249,1,75
419,248,132445,5,0,0:0:0:0:
213,68,132748,5,0,0:0:0:0:
210,322,133051,5,0,0:0:0:0:
301,72,133354,6,0,P|276:111|234:132,1,75
77,322,133657,2,0,P|123:301|176:317,1,75
410,248,133960,2,0,P|400:190|406:157,1,75
404,150,134263,1,0,0:0:0:0:
211,131,134566,5,0,3:3:0:0:
182,163,134642,1,0,3:3:0:0:
164,202,134717,1,0,3:3:0:0:
170,245,134793,1,0,3:3:0:0:
191,286,134869,2,0,P|233:311|263:309,1,75
354,156,135172,6,0,P|338:100|343:74,1,75
123,55,135475,2,0,P|145:99|146:142,1,75
271,300,135778,2,0,P|325:324|356:320,1,75
305,88,136081,2,0,P|271:59|233:54,1,75
232,213,136384,5,0,0:0:0:0:
442,85,136687,1,0,3:3:0:0:
452,126,136763,1,0,3:3:0:0:
448,168,136839,1,0,3:3:0:0:
432,206,136914,1,0,3:3:0:0:
408,239,136990,2,0,P|385:269|388:327,1,75
206,326,137293,6,0,P|150:295|135:260,1,75
223,84,137596,2,0,P|280:82|325:101,1,75
286,217,137899,5,0,0:0:0:0:
147,191,138126,1,0,0:0:0:0:
129,155,138202,1,0,0:0:0:0:
144,112,138278,1,0,0:0:0:0:
179,94,138354,1,0,3:3:0:0:
222,103,138455,1,0,3:3:0:0:
331,220,138657,5,0,0:0:0:0:
383,93,138808,6,0,P|435:112|381:288,1,292.499986610413
295,210,139919,2,0,P|261:187|167:193,1,129.999994049073
219,78,140475,2,0,B|254:42|254:42|262:82|274:98,1,97.4999955368044
251,182,140930,2,0,P|222:217|364:200,1,389.999982147218
89,126,142445,5,0,0:0:0:0:
244,78,143051,2,0,P|266:105|278:132,1,48.7499977684022
237,191,143354,2,0,P|255:237|276:255,1,63.7500012159348
351,243,143657,2,0,P|367:287|366:319,1,63.7500012159348
258,335,143960,2,0,P|212:341|140:288,1,127.50000243187
186,186,144414,2,0,B|236:152|210:112|210:112|240:107|240:107|234:52|234:52|263:93|310:107,1,255.000004863739
321,207,145172,2,0,P|321:271|432:207,1,255.000004863739
287,75,146081,5,0,0:0:0:0:
99,149,146687,6,0,B|85:191|106:200|106:200|104:238,1,82.5000025177003
274,265,147293,2,0,P|300:283|323:288,1,41.2500012588501
362,186,147596,2,0,P|396:168|404:158,1,41.2500012588501
359,92,147899,2,0,B|313:26|257:83|257:83|202:52|161:93|161:94|152:134|169:167|169:167|113:192|109:245|145:274|195:280|195:280|401:213|401:213|452:197|452:197|470:316|470:316|421:271|421:271|408:339|408:339|385:278|385:278|346:342|346:342|353:269|353:269|312:301|312:301,1,1258.12503839493
