osu file format v14

[General]
AudioFilename: audio.mp3
AudioLeadIn: 0
PreviewTime: 18302
Countdown: 0
SampleSet: Normal
StackLeniency: 0.7
Mode: 0
LetterboxInBreaks: 0
WidescreenStoryboard: 0

[Editor]
Bookmarks: 66490,112990,114490,117490,130990,154990
DistanceSpacing: 1.2
BeatDivisor: 4
GridSize: 4
TimelineZoom: 2

[Metadata]
Title:Hallelujah
TitleUnicode:Hallelujah
Artist:Panic! At The Disco
ArtistUnicode:Panic! At The Disco
Creator:Bakari
Version:Panic!
Source:
Tags:ezek Namki death of a bachelor brendon urie alternative patd p!atd
BeatmapID:1085755
BeatmapSetID:506553

[Difficulty]
HPDrainRate:6
CircleSize:4
OverallDifficulty:6
ApproachRate:8
SliderMultiplier:3.59999990463257
SliderTickRate:2

[Events]
//Background and Video events
0,0,"panic-at-the-disco-PPcorn-art.jpg",0,0
//Break Periods
//Storyboard Layer 0 (Background)
//Storyboard Layer 1 (Fail)
//Storyboard Layer 2 (Pass)
//Storyboard Layer 3 (Foreground)
//Storyboard Sound Samples

[TimingPoints]
18490,750,4,1,0,65,1,0
18490,-100,4,1,0,65,0,1
42490,-133.333333333333,4,2,0,65,0,0
64998,-133.333333333333,4,2,0,5,0,0
65365,-133.333333333333,4,2,0,25,0,0
65740,-133.333333333333,4,2,0,50,0,0
66115,-133.333333333333,4,2,0,100,0,0
66215,-133.333333333333,4,2,0,50,0,0
66490,-100,4,1,0,50,0,1
90490,-133.333333333333,4,2,0,65,0,0
112999,-133.333333333333,4,1,0,10,0,0
113365,-133.333333333333,4,1,0,25,0,0
113740,-133.333333333333,4,1,0,50,0,0
114115,-133.333333333333,4,1,0,75,0,0
114302,-133.333333333333,4,2,0,5,0,0
114490,-100,4,2,0,65,0,0
114499,-100,4,1,0,10,0,0
117490,-133.333333333333,4,2,0,65,0,0
130990,750,4,1,0,50,1,1
154990,-100,4,1,0,50,0,0

[Colours]
Combo1 : 5,118,231
Combo2 : 23,191,32
Combo3 : 234,234,55
Combo4 : 236,98,208
SliderBorder : 145,145,202
SliderTrackOverride : 45,45,45

[HitObjects]
256,192,14552,12,0,17740,0:0:0:0:
147,326,18490,6,2,P|107:310|76:263,1,89.9999976158143,4|0,0:0|0:0,0:0:0:0:
186,142,18865,2,2,L|178:250,1,89.9999976158143,0|0,0:0|0:0,0:0:0:0:
332,231,19240,2,2,L|326:142,1,89.9999976158143,8|0,0:0|0:0,0:0:0:0:
432,273,19615,2,2,P|406:309|365:326,1,89.9999976158143,0|0,0:0|0:0,0:0:0:0:
256,160,19990,5,4,0:0:0:0:
122,336,20365,1,2,0:0:0:0:
390,336,20740,2,2,P|422:360|482:368,1,89.9999976158143,8|0,0:0|0:0,0:0:0:0:
478,236,21115,2,2,P|446:212|386:204,1,89.9999976158143,0|0,0:0|0:0,0:0:0:0:
180,220,21490,6,2,P|120:252|116:104,1,269.999992847443,4|0,0:0|0:0,0:0:0:0:
248,264,22240,2,2,P|133:296|118:178,1,269.999992847443,8|0,0:0|0:0,0:0:0:0:
328,314,22990,2,2,P|211:348|176:232,1,269.999992847443,2|0,0:0|0:0,0:0:0:0:
256,20,23740,1,8,0:0:0:0:
364,208,24115,1,4,3:0:0:0:
256,136,24302,1,4,3:0:0:0:
148,208,24490,6,2,P|116:244|92:308,1,89.9999976158143,4|0,0:0|0:0,0:0:0:0:
160,372,24865,1,2,0:0:0:0:
256,320,25052,1,0,0:0:0:0:
256,212,25240,1,8,0:0:0:0:
352,372,25615,1,0,0:0:0:0:
512,220,25990,1,2,0:0:0:0:
416,29,26365,2,2,P|376:21|324:29,1,89.9999976158143,0|0,0:0|0:0,0:0:0:0:
167,117,26740,2,2,L|181:206,1,89.9999976158143,8|0,0:0|0:0,0:0:0:0:
332,206,27115,2,2,L|346:117,1,89.9999976158143,0|0,0:0|0:0,0:0:0:0:
128,340,27490,6,2,P|252:385|376:340,1,269.999992847443,4|0,0:0|0:0,0:0:0:0:
141,243,28240,2,2,P|254:309|366:244,1,269.999992847443,8|0,0:0|0:0,0:0:0:0:
208,138,28990,2,2,P|262:234|281:124,1,269.999992847443,2|0,0:0|0:0,0:0:0:0:
256,12,29740,1,8,0:0:0:0:
44,196,30115,1,4,3:0:0:0:
124,272,30302,1,4,3:0:0:0:
212,144,30490,6,2,P|156:88|132:76,1,89.9999976158143,4|0,0:0|0:0,0:0:0:0:
364,83,30865,2,2,P|328:109|300:144,1,89.9999976158143,2|0,0:0|0:0,0:0:0:0:
380,352,31240,1,8,0:0:0:0:
484,320,31427,1,0,0:0:0:0:
408,244,31615,1,0,0:0:0:0:
256,32,31990,1,2,0:0:0:0:
132,352,32365,1,0,0:0:0:0:
28,320,32552,1,0,0:0:0:0:
104,244,32740,1,8,0:0:0:0:
256,92,33115,1,2,0:0:0:0:
408,244,33490,6,2,P|444:332|320:304,1,269.999992847443,4|0,0:0|0:0,0:0:0:0:
104,244,34240,2,2,P|68:332|192:304,1,269.999992847443,8|0,0:0|0:0,0:0:0:0:
309,155,34990,2,2,P|257:57|200:152,1,269.999992847443,2|0,0:0|0:0,0:0:0:0:
379,180,35740,1,8,0:0:0:0:
133,180,36115,1,4,3:0:0:0:
184,284,36302,1,4,3:0:0:0:
256,192,36490,6,2,L|256:8,1,179.999995231629,4|0,0:0|0:0,0:0:0:0:
120,204,37240,2,2,P|132:248|176:300,1,89.9999976158143,8|0,0:0|0:0,0:0:0:0:
354,284,37615,2,2,P|380:247|392:204,1,89.9999976158143,0|0,0:0|0:0,0:0:0:0:
256,12,37990,2,2,L|256:192,1,179.999995231629,2|0,0:0|0:0,0:0:0:0:
464,84,38740,2,2,P|444:44|408:12,1,89.9999976158143,8|0,0:0|0:0,0:0:0:0:
102,13,39115,2,2,P|68:43|48:83,1,89.9999976158143,0|0,0:0|0:0,0:0:0:0:
256,360,39490,5,4,0:0:0:0:
320,264,39677,1,2,0:0:0:0:
256,168,39865,1,2,0:0:0:0:
172,88,40052,1,2,0:0:0:0:
256,8,40240,1,8,0:0:0:0:
423,344,40615,1,2,0:0:0:0:
89,344,40990,1,2,0:0:0:0:
256,84,41365,5,0,0:0:0:0:
336,252,41740,1,8,0:0:0:0:
176,252,42115,1,0,0:0:0:0:
256,184,42490,5,4,3:0:0:0:
328,316,42865,1,0,0:0:0:0:
184,316,43240,2,0,L|96:316,1,67.5000007867814,8|0,0:0|0:0,0:0:0:0:
96,244,43615,2,0,L|172:244,1,67.5000007867814
237,244,43990,2,0,P|264:288|248:372,1,135.000001573563,2|0,0:0|0:0,0:0:0:0:
112,316,44740,2,0,P|85:272|101:188,1,135.000001573563,8|0,0:0|0:0,0:0:0:0:
256,32,45490,5,0,3:0:0:0:
360,140,45865,1,2,0:0:0:0:
228,212,46240,2,0,P|200:188|176:148,1,67.5000007867814,8|0,0:0|0:0,0:0:0:0:
252,140,46615,2,0,P|280:164|304:204,1,67.5000007867814
292,264,46990,2,0,P|252:288|160:256,1,135.000001573563,2|0,0:0|0:0,0:0:0:0:
124,208,47552,1,0,0:0:0:0:
68,256,47740,2,0,P|49:282|37:326,1,67.5000007867814,8|0,0:0|0:0,0:0:0:0:
54,182,48115,2,0,P|46:150|25:110,1,67.5000007867814
124,208,48490,5,4,3:0:0:0:
132,200,49240,2,0,L|138:116,1,67.5000007867814,8|0,0:0|0:0,0:0:0:0:
120,60,49615,1,2,0:0:0:0:
192,80,49802,1,0,0:0:0:0:
136,132,49990,1,0,0:0:0:0:
256,8,50365,1,2,0:0:0:0:
375,132,50740,2,0,L|380:200,1,67.5000007867814,8|0,0:0|0:0,0:0:0:0:
320,80,51115,1,0,0:0:0:0:
392,60,51302,1,0,0:0:0:0:
375,132,51490,5,0,2:0:0:0:
476,240,51865,1,2,0:0:0:0:
372,348,52240,2,2,P|296:368|192:300,1,202.500002360344,8|0,0:0|0:0,0:0:0:0:
248,252,52990,2,2,P|292:260|360:204,1,135.000001573563,2|0,0:0|0:0,0:0:0:0:
344,136,53552,1,0,0:0:0:0:
276,168,53740,2,2,L|204:160,1,67.5000007867814,8|0,0:0|0:0,0:0:0:0:
181,242,54115,2,2,L|247:251,1,67.5000007867814,2|0,0:0|0:0,0:0:0:0:
317,343,54490,5,4,3:0:0:0:
500,236,54865,2,0,P|520:284|512:372,1,135.000001573563,0|8,0:0|0:0,0:0:0:0:
440,380,55427,1,0,0:0:0:0:
428,308,55615,1,0,0:0:0:0:
372,260,55802,1,0,0:0:0:0:
340,192,55990,2,2,P|334:158|339:110,1,67.5000007867814,0|0,0:0|0:0,0:3:0:0:
288,257,56365,2,2,P|284:293|264:349,1,67.5000007867814,0|0,0:0|0:0,0:3:0:0:
256,180,56740,1,8,0:0:0:0:
420,356,57115,1,0,0:0:0:0:
348,348,57302,1,0,0:0:0:0:
388,288,57490,6,0,P|429:283|492:348,1,135.000001573563,4|2,0:3|0:0,0:0:0:0:
348,348,58240,2,0,P|324:324|316:280,1,67.5000007867814,8|0,0:0|0:0,0:0:0:0:
196,292,58615,2,0,P|187:324|164:348,1,67.5000007867814,2|0,0:0|0:0,0:0:0:0:
254,261,58990,2,2,P|228:282|196:291,1,67.5000007867814,0|0,0:0|0:0,0:0:0:0:
315,291,59365,2,0,P|283:282|257:261,1,67.5000007867814,4|0,0:3|0:0,0:0:0:0:
407,196,59740,2,0,P|399:240|367:276,1,67.5000007867814,8|0,0:0|0:0,0:0:0:0:
304,92,60115,2,0,P|344:96|376:116,1,67.5000007867814,2|0,0:0|0:0,0:0:0:0:
255,172,60490,5,4,3:0:0:0:
246,163,60865,2,0,P|224:124|224:80,1,67.5000007867814
244,32,61240,1,2,0:0:0:0:
240,35,61615,5,4,3:0:0:0:
448,17,61990,1,4,3:0:0:0:
240,35,63115,5,4,3:0:0:0:
448,17,63490,1,4,3:0:0:0:
246,360,64240,5,2,2:3:0:0:
256,368,64990,6,2,B|288:336|272:256|208:208|208:208|304:192|304:192|240:144|224:48|256:16,1,472.50000550747,4|0,0:0|0:0,0:1:0:0:
382,70,66490,5,4,0:0:0:0:
154,332,66865,1,0,0:0:0:0:
380,178,67240,2,2,P|368:234|332:270,1,89.9999976158143,8|0,0:0|0:0,0:0:0:0:
164,258,67615,2,2,P|138:222|132:178,1,89.9999976158143,0|0,0:0|0:0,0:0:0:0:
256,4,67990,1,2,0:0:0:0:
257,382,68365,1,0,0:0:0:0:
50,208,68740,2,2,P|87:183|131:177,1,89.9999976158143,8|0,0:0|0:0,0:0:0:0:
380,177,69115,2,2,P|424:183|462:208,1,89.9999976158143,0|0,0:0|0:0,0:0:0:0:
251,306,69490,6,2,L|291:34,1,269.999992847443,4|0,0:0|0:0,0:0:0:0:
185,274,70240,2,2,B|176:202|256:183|256:183|352:169|349:71,1,269.999992847443,8|0,0:0|0:0,0:0:0:0:
231,77,70990,2,2,B|199:137|267:183|267:183|351:231|320:301,1,269.999992847443,2|0,0:0|0:0,0:0:0:0:
292,40,71740,1,8,0:0:0:0:
456,344,72115,1,2,0:0:0:0:
112,280,72490,6,2,P|76:256|40:212,1,89.9999976158143,4|0,0:0|0:0,0:0:0:0:
68,104,72865,1,2,0:0:0:0:
184,96,73052,1,0,0:0:0:0:
208,212,73240,1,8,0:0:0:0:
444,360,73615,2,2,P|472:328|492:272,1,89.9999976158143,0|0,0:0|0:0,0:0:0:0:
288,304,73990,2,0,P|320:348|364:368,1,89.9999976158143,2|0,0:0|0:0,0:0:0:0:
392,192,74365,2,2,L|384:304,1,89.9999976158143,0|0,0:0|0:0,0:0:0:0:
356,120,74740,1,8,0:0:0:0:
68,328,75115,1,2,0:0:0:0:
217,182,75490,6,2,P|189:59|63:44,1,269.999992847443,4|0,0:0|0:0,0:0:0:0:
326,153,76240,2,2,P|225:75|115:138,1,269.999992847443,8|0,0:0|0:0,0:0:0:0:
388,60,76990,2,2,P|261:63|216:183,1,269.999992847443,2|0,0:0|0:0,0:0:0:0:
472,144,77740,1,4,0:0:0:0:
448,260,77927,1,2,0:0:0:0:
364,344,78115,1,8,0:0:0:0:
256,300,78302,2,0,L|256:244,1,44.9999988079071
255,208,78490,6,0,L|255:112,1,89.9999976158143,4|0,0:0|0:0,0:0:0:0:
400,248,78865,2,2,P|380:308|360:336,1,89.9999976158143,0|0,0:0|0:0,0:0:0:0:
146,329,79240,2,2,P|123:291|112:248,1,89.9999976158143,8|0,0:0|0:0,0:0:0:0:
181,65,79615,1,0,0:0:0:0:
257,153,79802,1,0,0:0:0:0:
333,65,79990,1,2,0:0:0:0:
64,196,80365,1,2,0:0:0:0:
256,368,80740,1,8,0:0:0:0:
448,196,81115,1,2,0:0:0:0:
256,16,81490,6,2,P|148:64|104:200,1,269.999992847443,4|0,0:0|0:0,0:0:0:0:
304,200,82240,2,2,P|256:102|208:200,1,269.999992847443,8|0,0:0|0:0,0:0:0:0:
407,200,82990,2,2,P|373:74|256:16,1,269.999992847443,2|0,0:0|0:0,0:0:0:0:
114,111,83740,2,0,P|104:155|105:200,1,89.9999976158143,8|0,0:0|0:0,0:0:0:0:
407,200,84115,2,0,P|408:156|396:108,1,89.9999976158143,2|0,0:0|0:0,0:0:0:0:
256,336,84490,6,2,L|256:132,1,179.999995231629,4|0,0:0|0:0,0:0:0:0:
56,280,85240,2,2,P|92:320|136:344,1,89.9999976158143,8|0,0:0|0:0,0:0:0:0:
389,338,85615,2,2,P|426:314|456:280,1,89.9999976158143,2|0,0:0|0:0,0:0:0:0:
256,68,85990,2,2,L|256:264,1,179.999995231629,2|0,0:0|0:0,0:0:0:0:
436,88,86740,2,2,P|416:60|368:24,1,89.9999976158143,8|0,0:0|0:0,1:0:0:0:
140,26,87115,2,2,P|103:52|76:87,1,89.9999976158143,8|0,0:0|0:0,1:0:0:0:
256,384,87490,5,4,0:0:0:0:
324,292,87677,1,2,0:0:0:0:
256,208,87865,1,2,0:0:0:0:
160,140,88052,1,0,0:0:0:0:
256,68,88240,2,2,B|296:144|256:204|256:204|204:284|260:348,1,269.999992847443,8|0,0:0|0:0,0:0:0:0:
352,280,88990,2,2,B|351:224|258:205|258:205|187:190|152:112,1,269.999992847443,2|0,0:0|0:0,0:0:0:0:
190,2,89740,1,8,0:0:0:0:
331,357,90115,1,0,0:0:0:0:
276,256,90302,1,0,0:0:0:0:
327,156,90490,6,0,P|363:140|452:176,2,135.000001573563,4|0|8,3:0|0:0|0:0,0:0:0:0:
256,288,91615,1,0,0:0:0:0:
185,156,91990,2,0,P|121:139|63:171,1,135.000001573563,2|0,0:0|0:0,0:0:0:0:
52,244,92552,1,0,0:0:0:0:
108,296,92740,2,0,P|112:324|108:388,2,67.5000007867814,8|0|0,0:0|0:0|0:0,0:0:0:0:
256,276,93490,6,0,L|256:360,2,67.5000007867814,2|0|0,0:0|0:0|0:0,0:0:0:0:
404,296,94240,2,0,P|400:324|404:388,2,67.5000007867814,8|0|0,0:0|0:0|0:0,0:0:0:0:
472,260,94802,1,0,0:0:0:0:
412,212,94990,2,0,L|332:216,1,67.5000007867814,2|0,0:0|0:0,0:0:0:0:
312,148,95365,2,0,L|233:153,1,67.5000007867814
200,92,95740,1,8,0:0:0:0:
88,192,96115,1,0,0:0:0:0:
260,344,96490,6,0,P|300:324|336:320,1,67.5000007867814,2|0,0:0|0:0,0:0:0:0:
147,267,96865,2,0,P|171:295|187:339,1,67.5000007867814,2|0,0:0|0:0,0:0:0:0:
235,171,97240,2,0,P|195:191|159:195,1,67.5000007867814,8|0,0:0|0:0,0:0:0:0:
348,242,97615,2,0,P|324:214|308:170,1,67.5000007867814,2|0,0:0|0:0,0:0:0:0:
472,77,97990,2,0,P|468:109|388:173,1,135.000001573563,2|0,0:0|0:0,0:0:0:0:
332,108,98552,1,0,0:0:0:0:
254,232,98740,2,0,L|263:317,1,67.5000007867814,8|0,0:0|0:0,0:0:0:0:
144,356,99115,2,0,L|152:280,1,67.5000007867814,2|0,0:0|0:0,0:0:0:0:
80,204,99490,6,0,P|24:232|0:316,1,135.000001573563,4|2,3:0|0:0,0:0:0:0:
52,368,100052,1,0,0:0:0:0:
151,288,100240,2,0,L|231:280,1,67.5000007867814,8|0,0:0|0:0,0:0:0:0:
281,360,100615,2,0,L|361:352,1,67.5000007867814,2|0,0:0|0:0,0:0:0:0:
472,324,100990,2,0,P|416:272|408:200,1,135.000001573563,2|0,0:0|0:0,0:0:0:0:
432,132,101552,1,0,0:0:0:0:
512,164,101740,2,0,L|504:244,1,67.5000007867814,8|0,0:0|0:0,0:0:0:0:
405,216,102115,2,2,L|421:284,1,67.5000007867814,2|0,0:0|0:0,0:0:0:0:
345,373,102490,6,0,P|281:350|205:350,1,135.000001573563,4|0,3:0|0:0,0:0:0:0:
132,384,103052,1,0,0:0:0:0:
40,328,103240,2,2,L|24:252,1,67.5000007867814,8|0,0:0|0:0,0:0:0:0:
150,191,103615,2,2,L|122:279,1,67.5000007867814,2|0,0:0|0:0,0:0:0:0:
52,156,103990,2,0,B|36:120|48:92|48:92|68:56|44:20,2,135.000001573563,2|0|8,0:0|0:0|0:0,0:0:0:0:
80,332,105115,1,2,0:0:0:0:
256,120,105490,5,4,3:0:0:0:
432,332,105865,1,2,0:0:0:0:
348,360,106052,1,0,0:0:0:0:
356,272,106240,2,0,P|376:252|416:236,1,67.5000007867814,8|0,0:0|0:0,0:0:0:0:
277,258,106615,2,0,P|261:230|253:182,1,67.5000007867814,2|0,0:0|0:0,0:0:0:0:
328,83,106990,2,0,P|307:103|268:118,1,67.5000007867814,8|0,0:0|0:0,0:0:0:0:
407,97,107365,2,0,P|423:124|431:172,1,67.5000007867814,2|0,0:0|0:0,0:0:0:0:
378,22,107740,1,8,0:0:0:0:
320,260,108115,1,2,0:0:0:0:
180,86,108490,5,4,3:0:0:0:
100,244,108865,2,0,P|72:260|24:272,1,67.5000007867814,2|0,0:0|0:0,0:0:0:0:
36,180,109240,2,0,P|104:156|168:188,1,135.000001573563,8|0,0:0|0:0,0:0:0:0:
256,328,109990,1,2,0:0:0:0:
409,239,110365,2,0,P|437:255|485:267,1,67.5000007867814,2|0,0:0|0:0,0:0:0:0:
470,178,110740,2,0,P|402:154|338:186,1,135.000001573563,8|0,0:0|0:0,0:0:0:0:
405,359,111490,6,0,P|433:300|409:239,1,135.000001573563,4|0,3:0|0:0,0:0:0:0:
351,299,112052,1,0,0:0:0:0:
405,359,112240,1,8,0:0:0:0:
512,224,112615,1,0,0:0:0:0:
363,134,112990,6,2,B|421:191|350:264|270:260|254:189|254:189|236:128|158:117|92:188|153:263,1,472.50000550747,4|0,1:0|0:0,0:0:0:0:
363,134,114490,6,2,B|291:99|254:45|291:-27|400:-27|510:8|546:81|514:227|441:264|364:305|254:191|254:191|149:90|72:118|0:168|-41:300|0:396|108:410|218:410|254:337|218:282|146:259,1,1349.99996423721,4|0,3:0|0:0,0:0:0:0:
81,60,117490,6,0,P|147:51|213:64,1,135.000001573563,4|0,3:0|0:0,0:0:0:0:
436,136,118240,2,0,L|420:56,1,67.5000007867814,8|0,0:0|0:0,0:0:0:0:
316,32,118615,2,0,L|332:104,1,67.5000007867814
280,192,118990,2,0,P|248:240|232:336,1,135.000001573563,2|0,0:0|0:0,0:0:0:0:
400,368,119740,2,0,P|432:356|480:352,1,67.5000007867814,8|0,0:0|0:0,0:0:0:0:
512,280,120115,2,0,P|492:276|448:248,1,67.5000007867814,2|0,0:0|0:0,0:0:0:0:
376,124,120490,6,0,P|404:88|424:0,1,135.000001573563,4|0,3:0|0:0,0:0:0:0:
256,60,121240,2,0,L|256:136,2,67.5000007867814,8|0|0,0:0|0:0|0:0,0:0:0:0:
87,2,121990,2,0,P|98:68|136:124,1,135.000001573563,4|0,3:0|0:0,0:0:0:0:
312,152,122740,2,0,P|340:140|392:136,1,67.5000007867814,8|0,0:0|0:0,0:0:0:0:
376,249,123115,2,0,P|343:244|311:231,1,67.5000007867814,2|0,0:0|0:0,0:0:0:0:
232,192,123490,6,0,L|96:192,1,135.000001573563
20,148,124052,1,0,0:0:0:0:
20,236,124240,1,8,0:0:0:0:
116,84,124615,2,0,P|104:64|68:40,1,67.5000007867814
208,112,124990,2,0,P|212:88|204:40,1,67.5000007867814,2|0,0:0|0:0,0:0:0:0:
305,45,125365,2,0,P|299:78|304:112,1,67.5000007867814,2|0,0:0|0:0,0:0:0:0:
444,39,125740,2,0,P|415:56|396:84,1,67.5000007867814,8|0,0:0|0:0,0:0:0:0:
372,168,126115,1,0,0:0:0:0:
424,240,126302,1,0,0:0:0:0:
468,316,126490,6,0,P|420:356|328:344,1,135.000001573563,4|0,3:0|0:0,0:0:0:0:
161,356,127240,2,0,P|95:357|44:316,1,135.000001573563,8|0,0:0|0:0,0:0:0:0:
48,236,127802,1,0,0:0:0:0:
124,268,127990,2,0,P|156:256|196:232,1,67.5000007867814,2|0,0:0|0:0,0:0:0:0:
185,144,128365,2,0,P|155:127|123:115,1,67.5000007867814
48,148,128740,1,0,0:0:0:0:
256,192,128927,12,8,130240,3:0:0:0:
72,192,130990,5,4,0:0:0:0:
256,8,131365,1,0,0:0:0:0:
440,192,131740,1,8,0:0:0:0:
256,376,132115,1,0,0:0:0:0:
196,272,132302,1,0,0:0:0:0:
315,272,132490,1,2,0:0:0:0:
140,112,132865,2,2,P|160:84|216:56,1,89.9999976158143,0|0,0:0|0:0,0:0:0:0:
377,173,133240,2,2,P|349:138|309:118,1,89.9999976158143,8|0,0:0|0:0,0:0:0:0:
125,282,133615,2,2,P|145:254|201:226,1,89.9999976158143,0|0,0:0|0:0,0:0:0:0:
507,190,133990,6,2,P|422:293|293:277,1,269.999992847443,4|0,0:0|0:0,0:0:0:0:
189,36,134740,2,2,P|320:58|371:177,1,269.999992847443,8|0,0:0|0:0,0:0:0:0:
202,378,135490,2,2,P|155:252|233:149,1,269.999992847443,2|0,0:0|0:0,0:0:0:0:
448,192,136240,1,8,0:0:0:0:
128,20,136615,1,8,0:0:0:0:
100,144,136802,1,0,3:0:0:0:
68,260,136990,6,2,P|88:312|216:328,1,179.999995231629,4|0,0:0|0:0,0:0:0:0:
256,232,137552,1,0,0:0:0:0:
312,337,137740,2,2,P|398:333|443:260,1,179.999995231629,8|0,0:0|0:0,0:0:0:0:
142,156,138490,2,0,L|162:252,1,89.9999976158143,2|0,0:0|0:0,0:0:0:0:
248,48,138865,2,0,L|268:144,1,89.9999976158143
121,134,139240,2,0,L|141:230,1,89.9999976158143,8|0,0:0|0:0,0:0:0:0:
227,26,139615,2,0,L|247:122,1,89.9999976158143
404,228,139990,6,2,P|476:188|452:16,1,269.999992847443,4|0,0:0|0:0,0:0:0:0:
216,204,140740,2,2,P|312:212|372:372,1,269.999992847443,8|0,0:0|0:0,0:0:0:0:
64,303,141490,2,2,P|136:262|112:90,1,269.999992847443,2|0,0:0|0:0,0:0:0:0:
4,76,142240,1,8,0:0:0:0:
47,186,142427,1,0,3:0:0:0:
160,220,142615,1,2,0:0:0:0:
248,144,142802,1,0,3:0:0:0:
324,52,142990,6,2,P|368:32|416:28,1,89.9999976158143,4|0,0:0|0:0,0:0:0:0:
486,192,143365,2,2,L|396:192,1,89.9999976158143,0|0,0:0|0:0,0:0:0:0:
323,331,143740,2,2,P|364:351|409:356,1,89.9999976158143,8|0,0:0|0:0,0:0:0:0:
206,256,144115,2,2,P|250:250|291:231,1,89.9999976158143,0|0,0:0|0:0,0:0:0:0:
50,326,144490,2,2,P|134:318|206:378,1,179.999995231629,2|0,0:0|0:0,0:0:0:0:
206,256,145052,1,0,0:0:0:0:
50,326,145240,2,2,P|30:288|22:238,1,89.9999976158143,8|0,0:0|0:0,0:0:0:0:
118,137,145615,2,2,P|138:175|146:225,1,89.9999976158143,0|0,0:0|0:0,0:0:0:0:
18,111,145990,6,2,P|86:42|222:122,1,269.999992847443,4|0,0:0|0:0,0:0:0:0:
352,309,146740,2,2,P|256:385|152:309,1,269.999992847443,8|0,0:0|0:0,0:0:0:0:
293,113,147490,2,2,P|393:36|495:111,1,269.999992847443,4|0,0:0|0:0,0:0:0:0:
396,216,148240,1,8,0:0:0:0:
116,216,148615,1,2,3:0:0:0:
188,124,148802,1,2,3:0:0:0:
216,240,148990,6,2,P|164:312|72:312,1,179.999995231629,4|0,0:0|0:0,0:0:0:0:
433,315,149740,2,2,P|346:311|295:239,1,179.999995231629,8|0,0:0|0:0,0:0:0:0:
492,64,150490,2,0,L|484:168,1,89.9999976158143,2|0,0:0|0:0,0:0:0:0:
368,144,150865,2,0,L|396:240,1,89.9999976158143
433,315,151240,1,8,0:0:0:0:
256,88,151615,1,0,0:0:0:0:
79,315,151990,6,0,P|64:300|40:256,2,59.9999984105428,0|0|0,3:0|3:0|3:0,3:0:0:0:
120,248,152365,2,0,P|112:208|112:168,2,59.9999984105428,0|0|0,3:0|3:0|3:0,3:0:0:0:
188,208,152740,2,0,P|200:176|216:148,2,59.9999984105428,0|0|0,3:0|3:0|3:0,3:0:0:0:
268,212,153115,2,0,P|292:184|316:160,2,59.9999984105428,0|0|0,3:0|3:0|3:0,3:0:0:0:
354,359,153490,6,0,P|342:323|350:227,1,119.999996821086,2|0,3:0|3:0,3:0:0:0:
396,180,153865,2,0,L|388:108,2,59.9999984105428,0|0|0,3:0|3:0|3:0,3:0:0:0:
476,192,154240,2,0,L|472:260,2,59.9999984105428,0|0|0,3:0|3:0|3:0,3:0:0:0:
488,112,154615,1,0,3:0:0:0:
436,52,154740,1,0,3:0:0:0:
360,36,154865,1,0,3:0:0:0:
284,64,154990,5,0,3:0:0:0:
