osu file format v14

[General]
AudioFilename: audio.mp3
AudioLeadIn: 0
PreviewTime: 18302
Countdown: 0
SampleSet: Soft
StackLeniency: 0.7
Mode: 0
LetterboxInBreaks: 0
WidescreenStoryboard: 1

[Editor]
Bookmarks: 66490,112990,114490,117490,130990,154990
DistanceSpacing: 1.11
BeatDivisor: 4
GridSize: 4
TimelineZoom: 0.9000001

[Metadata]
Title:Hallelujah
TitleUnicode:Hallelujah
Artist:Panic! At The Disco
ArtistUnicode:Panic! At The Disco
Creator:Bakari
Version:Calm!
Source:
Tags:ezek Namki death of a bachelor brendon urie alternative patd p!atd
BeatmapID:1077542
BeatmapSetID:506553

[Difficulty]
HPDrainRate:2
CircleSize:3
OverallDifficulty:2
ApproachRate:3
SliderMultiplier:1.39999990463257
SliderTickRate:2

[Events]
//Background and Video events
0,0,"panic-at-the-disco-PPcorn-art.jpg",0,0
//Break Periods
//Storyboard Layer 0 (Background)
//Storyboard Layer 1 (Fail)
//Storyboard Layer 2 (Pass)
//Storyboard Layer 3 (Foreground)
//Storyboard Sound Samples

[TimingPoints]
18490,750,4,1,0,65,1,0
18490,-100,4,1,0,65,0,1
42490,-100,4,2,0,65,0,0
64991,-100,4,2,0,65,0,0
65365,-100,4,2,0,65,0,0
65740,-100,4,2,0,65,0,0
66115,-100,4,2,0,65,0,0
66215,-100,4,2,0,65,0,0
66490,-100,4,2,0,65,0,1
90490,-100,4,2,0,65,0,0
112990,-100,4,2,0,65,0,0
112991,-100,4,2,0,65,0,0
113365,-100,4,2,0,65,0,0
113740,-100,4,2,0,65,0,0
114115,-100,4,2,0,65,0,0
114302,-100,4,2,0,65,0,0
114490,-100,4,2,0,65,0,0
114491,-100,4,2,0,65,0,0
117490,-100,4,2,0,65,0,0
130990,750,4,2,0,65,1,1
130990,-100,4,2,0,65,0,1
154990,-100,4,2,0,65,0,0

[Colours]
Combo1 : 5,118,231
Combo2 : 23,191,32
Combo3 : 234,234,55
Combo4 : 236,98,208
SliderBorder : 145,145,202
SliderTrackOverride : 45,45,45

[HitObjects]
170,97,18490,6,2,L|319:92,1,139.999990463257,4|8,0:0|0:0,0:0:0:0:
449,185,19990,2,0,L|373:193,1,69.9999952316285,4|2,0:0|0:0,0:0:0:0:
335,264,20740,2,2,L|259:256,1,69.9999952316285,8|0,0:0|0:0,0:0:0:0:
202,200,21490,6,2,L|53:214,1,139.999990463257,4|8,0:0|0:0,0:0:0:0:
182,331,22990,2,2,L|323:346,1,139.999990463257,2|8,0:0|0:0,0:0:0:0:
404,334,24115,1,4,3:0:0:0:
391,250,24490,6,2,L|400:174,2,69.9999952316285,4|2|8,0:0|0:0|0:0,0:0:0:0:
222,249,25990,2,2,L|209:167,2,69.9999952316285,2|0|8,0:0|0:0|0:0,0:0:0:0:
156,302,27115,1,0,0:0:0:0:
94,244,27490,6,2,L|111:73,1,139.999990463257,4|8,0:0|0:0,0:0:0:0:
256,26,28990,2,2,P|311:36|321:113,1,139.999990463257,2|8,0:0|0:0,0:0:0:0:
269,174,30115,1,4,3:0:0:0:
310,246,30490,6,2,L|469:241,1,139.999990463257,4|8,0:0|0:0,0:0:0:0:
322,350,31990,2,0,L|242:345,1,69.9999952316285,2|0,0:0|0:0,0:0:0:0:
182,298,32740,2,0,L|94:311,1,69.9999952316285,8|2,0:0|0:0,0:0:0:0:
41,263,33490,5,4,0:0:0:0:
48,96,34240,1,8,0:0:0:0:
188,192,34990,2,2,B|248:194|248:194|276:184|276:184|344:188,1,139.999990463257,2|8,0:0|0:0,0:0:0:0:
412,188,36115,1,4,3:0:0:0:
409,271,36490,6,2,L|413:349,1,69.9999952316285,4|0,0:0|0:0,0:0:0:0:
331,362,37240,2,2,P|282:361|245:268,1,139.999990463257,8|2,0:0|0:0,0:0:0:0:
280,215,38365,1,0,0:0:0:0:
227,149,38740,2,2,P|188:147|138:151,1,69.9999952316285,8|0,0:0|0:0,0:0:0:0:
83,188,39490,5,4,0:0:0:0:
179,325,40240,1,8,0:0:0:0:
331,255,40990,2,0,P|381:251|420:255,2,69.9999952316285,2|0|8,0:0|0:0|0:0,0:0:0:0:
261,207,42115,1,0,0:0:0:0:
199,149,42490,5,4,3:0:0:0:
51,229,43240,2,0,P|55:283|135:313,1,139.999990463257,8|2,0:0|0:0,0:0:0:0:
196,269,44365,1,0,0:0:0:0:
272,303,44740,1,8,0:0:0:0:
426,236,45490,6,0,L|422:75,1,139.999990463257,0|8,3:0|0:0,0:0:0:0:
257,62,46990,2,0,L|266:155,2,69.9999952316285,2|0|8,0:0|0:0|0:0,0:0:0:0:
92,30,48490,5,4,3:0:0:0:
72,196,49240,2,0,P|70:234|152:287,1,139.999990463257,8|0,0:0|0:0,0:0:0:0:
225,262,50365,1,2,0:0:0:0:
253,182,50740,1,8,0:0:0:0:
372,64,51490,6,2,P|412:76|450:87,2,69.9999952316285,0|2|8,2:0|0:0|0:0,0:0:0:0:
207,99,52990,2,2,P|157:113|116:120,2,69.9999952316285,2|0|8,0:0|0:0|0:0,0:0:0:0:
347,191,54490,5,4,3:0:0:0:
224,306,55240,2,2,P|172:310|121:235,1,139.999990463257,8|0,0:0|0:0,0:0:0:0:
147,166,56365,1,0,0:0:0:0:
204,104,56740,2,0,L|296:109,1,69.9999952316285,8|0,0:0|0:0,0:0:0:0:
356,122,57490,5,4,0:3:0:0:
444,264,58240,2,0,L|418:336,1,69.9999952316285,8|2,0:0|0:0,0:0:0:0:
336,319,58990,2,0,L|317:249,2,69.9999952316285,0|4|8,0:0|0:3|0:0,0:0:0:0:
167,327,60490,6,0,L|200:187,1,139.999990463257,4|2,3:0|0:0,0:0:0:0:
180,108,61615,1,4,3:0:0:0:
98,86,61990,2,0,P|60:105|62:199,1,139.999990463257,4|0,3:0|0:0,0:0:0:0:
115,252,63115,1,4,3:0:0:0:
194,223,63490,6,0,L|356:229,1,139.999990463257,4|2,3:0|2:3,0:0:0:0:
458,115,64990,2,2,P|399:124|378:127,1,69.9999952316285,4|0,0:0|0:0,0:0:0:0:
310,95,65740,2,0,L|240:88,1,69.9999952316285,0|0,0:0|0:0,0:0:0:0:
167,129,66490,6,2,P|131:154|141:257,1,139.999990463257,4|8,0:0|0:0,0:0:0:0:
282,310,67990,2,2,L|265:386,2,69.9999952316285,2|0|8,0:0|0:0|0:0,0:0:0:0:
344,254,69115,1,0,0:0:0:0:
401,193,69490,6,2,L|397:52,1,139.999990463257,4|8,0:0|0:0,0:0:0:0:
228,47,70990,2,2,L|224:186,1,139.999990463257,2|8,0:0|0:0,0:0:0:0:
178,257,72115,1,2,0:0:0:0:
96,236,72490,6,2,P|61:213|40:177,2,69.9999952316285,4|2|8,0:0|0:0|0:0,0:0:0:0:
254,291,73990,2,2,P|287:282|322:287,2,69.9999952316285,2|0|8,0:0|0:0|0:0,0:0:0:0:
291,366,75115,1,2,0:0:0:0:
374,361,75490,6,2,P|428:343|441:259,1,139.999990463257,4|8,0:0|0:0,0:0:0:0:
447,100,76990,2,2,P|437:33|375:7,1,139.999990463257,2|4,0:0|0:0,0:0:0:0:
297,38,78115,1,8,0:0:0:0:
274,118,78490,6,2,L|288:193,1,69.9999952316285,4|0,0:0|0:0,0:0:0:0:
204,204,79240,2,2,L|186:119,1,69.9999952316285,8|0,0:0|0:0,0:0:0:0:
112,100,79990,2,0,P|72:92|20:98,2,69.9999952316285,2|2|8,0:0|0:0|0:0,0:0:0:0:
236,213,81490,5,4,0:0:0:0:
118,332,82240,1,8,0:0:0:0:
280,372,82990,2,0,L|427:370,1,139.999990463257,2|8,0:0|0:0,0:0:0:0:
476,308,84115,1,2,0:0:0:0:
440,232,84490,6,2,P|436:181|439:143,1,69.9999952316285,4|0,0:0|0:0,0:0:0:0:
384,96,85240,2,2,P|328:62|248:91,1,139.999990463257,8|2,0:0|0:0,0:0:0:0:
209,149,86365,1,0,0:0:0:0:
255,218,86740,2,2,P|255:253|250:300,1,69.9999952316285,8|8,0:0|0:0,1:1:0:0:
191,346,87490,5,4,0:0:0:0:
46,260,88240,1,8,0:0:0:0:
153,130,88990,2,2,L|310:132,1,139.999990463257,2|8,0:0|0:0,0:0:0:0:
372,104,90115,1,0,0:0:0:0:
454,120,90490,5,4,3:0:0:0:
395,277,91240,2,0,L|251:273,1,139.999990463257,8|2,0:0|0:0,0:0:0:0:
176,242,92365,1,0,0:0:0:0:
95,265,92740,1,8,0:0:0:0:
71,98,93490,6,0,L|-19:109,2,69.9999952316285,2|0|8,0:0|0:0|0:0,0:0:0:0:
238,95,94990,2,0,L|388:105,1,139.999990463257,2|8,0:0|0:0,0:0:0:0:
456,253,96490,6,0,P|423:294|326:283,1,139.999990463257,2|8,0:0|0:0,0:0:0:0:
277,238,97615,1,2,0:0:0:0:
197,209,97990,2,0,L|110:226,2,69.9999952316285,2|0|8,0:0|0:0|0:0,0:0:0:0:
125,56,99490,6,0,L|-18:76,1,139.999990463257,4|8,3:0|0:0,0:0:0:0:
78,216,100990,2,0,L|216:235,1,139.999990463257,2|8,0:0|0:0,0:0:0:0:
355,329,102490,5,4,3:0:0:0:
423,175,103240,2,0,P|439:120|378:33,1,139.999990463257,8|2,0:0|0:0,0:0:0:0:
357,118,104365,1,0,0:0:0:0:
279,151,104740,2,0,L|186:158,1,69.9999952316285,8|2,0:0|0:0,0:0:0:0:
130,125,105490,5,4,3:0:0:0:
188,282,106240,2,0,L|171:374,2,69.9999952316285,8|2|8,0:0|0:0|0:0,0:0:0:0:
272,264,107365,1,2,0:0:0:0:
312,336,107740,1,8,0:0:0:0:
482,346,108490,6,0,L|494:180,1,139.999990463257,4|8,3:0|0:0,0:0:0:0:
454,131,109615,1,0,0:0:0:0:
383,85,109990,2,0,P|350:71|250:101,1,139.999990463257,2|8,0:0|0:0,0:0:0:0:
256,181,111115,1,0,0:0:0:0:
292,256,111490,6,0,L|291:357,2,69.9999952316285,4|0|8,3:0|0:0|0:0,0:0:0:0:
207,250,112615,2,2,L|157:337,2,69.9999952316285,0|4|0,0:0|1:0|0:0,0:0:0:0:
252,188,113740,1,0,0:0:0:0:
292,256,114115,1,0,0:0:0:0:
256,192,114490,12,0,115990,0:0:0:0:
56,44,117490,6,0,L|209:38,1,139.999990463257,4|8,3:0|0:0,0:0:0:0:
338,127,118990,2,0,L|242:131,1,69.9999952316285,2|0,0:0|0:0,0:0:0:0:
201,182,119740,2,0,L|121:177,1,69.9999952316285,8|2,0:0|0:0,0:0:0:0:
61,225,120490,5,4,3:0:0:0:
218,283,121240,2,0,L|365:276,1,139.999990463257,8|4,0:0|3:0,0:0:0:0:
424,225,122365,1,0,0:0:0:0:
361,169,122740,1,8,0:0:0:0:
210,94,123490,6,0,P|156:85|87:155,1,139.999990463257,0|8,0:0|0:0,0:0:0:0:
124,212,124615,2,0,L|124:270|124:298,1,69.9999952316285,0|2,0:0|0:0,0:0:0:0:
185,337,125365,1,2,0:0:0:0:
248,280,125740,2,0,P|282:277|317:275,1,69.9999952316285,8|0,0:0|0:0,0:0:0:0:
368,207,126490,5,4,3:0:0:0:
243,94,127240,2,0,P|207:89|168:77,2,69.9999952316285,8|0|2,0:0|0:0|0:0,0:0:0:0:
316,48,128365,2,0,P|385:38|403:39,1,69.9999952316285,0|0,0:0|0:0,0:0:0:0:
111,310,130990,6,0,P|75:326|41:336,2,69.9999952316285,4|0|8,0:0|0:0|0:0,0:0:0:0:
255,225,132490,2,2,L|335:228,1,69.9999952316285,2|0,0:0|0:0,0:0:0:0:
397,269,133240,2,2,L|486:264,1,69.9999952316285,8|0,0:0|0:0,0:0:0:0:
504,189,133990,6,2,P|500:138|416:89,1,139.999990463257,4|8,0:0|0:0,0:0:0:0:
281,162,135490,2,2,B|226:164|226:164|195:157|195:157|133:160,1,139.999990463257,2|8,0:0|0:0,0:0:0:0:
67,198,136615,1,8,0:0:0:0:
114,267,136990,6,2,L|108:351,2,69.9999952316285,4|0|8,0:0|0:0|0:0,0:0:0:0:
276,224,138490,2,0,P|353:218|429:227,1,139.999990463257,2|8,0:0|0:0,0:0:0:0:
492,189,139615,1,0,0:0:0:0:
483,105,139990,6,2,P|430:70|340:88,1,139.999990463257,4|8,0:0|0:0,0:0:0:0:
221,177,141490,2,2,P|163:203|83:161,1,139.999990463257,2|8,0:0|0:0,0:0:0:0:
60,100,142615,1,2,0:0:0:0:
127,50,142990,6,2,L|285:48,1,139.999990463257,4|8,0:0|0:0,0:0:0:0:
426,102,144490,2,2,L|412:181,1,69.9999952316285,2|0,0:0|0:0,0:0:0:0:
355,231,145240,2,2,L|369:312,1,69.9999952316285,8|0,0:0|0:0,0:0:0:0:
433,351,145990,5,4,0:0:0:0:
265,353,146740,2,2,P|223:342|196:237,1,139.999990463257,8|4,0:0|0:0,0:0:0:0:
321,158,148240,2,0,P|326:117|315:72,1,69.9999952316285,8|2,0:0|3:0,0:0:0:0:
248,47,148990,6,2,L|101:49,1,139.999990463257,4|8,0:0|0:0,0:0:0:0:
52,112,150115,1,0,0:0:0:0:
35,194,150490,2,0,P|51:243|78:271,1,69.9999952316285,2|0,0:0|0:0,0:0:0:0:
145,264,151240,2,0,P|164:234|171:200,1,69.9999952316285,8|0,0:0|0:0,0:0:0:0:
256,192,151990,12,0,154990,3:0:0:0:
