osu file format v14

[General]
AudioFilename: audio.mp3
AudioLeadIn: 0
PreviewTime: 87588
Countdown: 0
SampleSet: Soft
StackLeniency: 0.3
Mode: 0
LetterboxInBreaks: 0
WidescreenStoryboard: 1

[Editor]
Bookmarks: 11034,22068,33103,44137,49655,52413,53793,55172,66206,77241,88275,99310,110344,115174,121379,126898,129657,131036,132413,143448,152931,153103,153275,153448,153620,153793,153965,154137,154310,154482
DistanceSpacing: 4.8
BeatDivisor: 4
GridSize: 4
TimelineZoom: 1.8

[Metadata]
Title:Stratos
TitleUnicode:Stratos
Artist:Pandize
ArtistUnicode:Pandize
Creator:Mun
Version:yaspo's Insane
Source:
Tags:Pandize Drum and Bass DnB EDM Electronic Bandi Yaspo
BeatmapID:1594538
BeatmapSetID:717623

[Difficulty]
HPDrainRate:5
CircleSize:4
OverallDifficulty:7
ApproachRate:8.5
SliderMultiplier:1.5
SliderTickRate:1

[Events]
//Background and Video events
0,0,"mun.jpg",0,0
//Break Periods
2,11234,15086
2,110544,119842
//Storyboard Layer 0 (Background)
//Storyboard Layer 1 (Fail)
//Storyboard Layer 2 (Pass)
//Storyboard Layer 3 (Foreground)
//Storyboard Sound Samples

[TimingPoints]
0,344.827586206897,4,2,1,50,1,0
9655,-100,4,2,1,30,0,0
10342,-100,4,2,1,20,0,0
10515,-100,4,2,1,50,0,0
11032,-100,4,2,1,40,0,0
16551,-100,4,1,1,40,0,0
17586,-100,4,2,0,20,0,0
17758,-200,4,2,1,40,0,0
17844,-100,4,2,0,20,0,0
19310,-133.333333333333,4,2,1,40,0,0
19396,-100,4,2,0,20,0,0
20517,-120.481927710843,4,2,1,40,0,0
20603,-120.481927710843,4,2,1,20,0,0
22066,-100,4,2,1,60,0,0
22068,-100,4,2,1,60,0,0
23017,-100,4,2,1,5,0,0
23104,-100,4,2,1,60,0,0
24051,-100,4,2,1,5,0,0
24138,-100,4,2,1,60,0,0
24741,-100,4,2,1,5,0,0
24828,-100,4,2,1,60,0,0
25775,-100,4,2,1,5,0,0
25862,-100,4,2,1,60,0,0
26810,-100,4,2,1,5,0,0
26897,-100,4,2,1,60,0,0
27500,-100,4,2,1,5,0,0
27587,-100,4,2,1,60,0,0
28534,-100,4,2,1,5,0,0
28621,-100,4,2,1,60,0,0
29568,-100,4,2,1,5,0,0
29655,-100,4,2,1,60,0,0
29913,-100,4,2,1,5,0,0
30000,-100,4,2,1,60,0,0
31293,-100,4,2,1,5,0,0
31380,-100,4,2,1,60,0,0
31810,-100,4,2,1,5,0,0
31897,-100,4,2,1,60,0,0
32327,-100,4,2,1,5,0,0
32414,-100,4,2,1,60,0,0
32672,-100,4,2,1,5,0,0
32759,-100,4,2,1,60,0,0
33017,-100,4,2,1,5,0,0
33101,-100,4,1,1,75,0,0
33103,-100,4,2,1,75,0,0
34051,-100,4,2,1,5,0,0
34138,-100,4,2,1,75,0,0
35086,-100,4,2,1,5,0,0
35173,-100,4,2,1,75,0,0
36810,-100,4,2,1,5,0,0
36897,-100,4,2,1,75,0,0
39568,-100,4,2,1,5,0,0
39655,-100,4,2,1,75,0,0
40603,-100,4,2,1,5,0,0
40690,-100,4,2,1,75,0,0
42327,-100,4,2,1,5,0,0
42414,-100,4,2,1,75,0,0
44137,-76.9230769230769,4,1,1,75,0,0
46034,-100,4,1,1,75,0,0
46206,-76.9230769230769,4,1,1,75,0,0
49655,-100,4,1,1,75,0,0
52411,-100,4,1,1,20,0,0
52413,-100,4,1,1,20,0,0
52584,-100,4,1,1,25,0,0
52756,-100,4,1,1,30,0,0
52929,-100,4,1,1,35,0,0
53101,-100,4,1,1,40,0,0
53273,-100,4,1,1,45,0,0
53446,-100,4,1,1,50,0,0
53618,-100,4,1,1,55,0,0
53791,-100,4,1,1,80,0,0
53793,-100,4,2,1,40,0,0
54310,-100,4,1,1,80,0,0
55172,-133.333333333333,4,1,1,80,0,1
55689,-83.3333333333333,4,1,1,80,0,1
56120,-83.3333333333333,4,2,1,5,0,1
56207,-83.3333333333333,4,1,1,80,0,1
56637,-83.3333333333333,4,2,1,5,0,1
56724,-83.3333333333333,4,1,1,80,0,1
56810,-83.3333333333333,4,2,1,5,0,1
56897,-83.3333333333333,4,1,1,80,0,1
57155,-83.3333333333333,4,2,1,5,0,1
57242,-83.3333333333333,4,1,1,80,0,1
57327,-83.3333333333333,4,2,1,5,0,1
57414,-83.3333333333333,4,1,1,80,0,1
57500,-83.3333333333333,4,2,1,5,0,1
57587,-83.3333333333333,4,1,1,80,0,1
57844,-83.3333333333333,4,2,1,5,0,1
57931,-71.4285714285714,4,1,1,80,0,1
58448,-83.3333333333333,4,1,1,80,0,1
58879,-83.3333333333333,4,2,1,5,0,1
58966,-83.3333333333333,4,1,1,80,0,1
59396,-83.3333333333333,4,2,1,5,0,1
59483,-83.3333333333333,4,1,1,80,0,1
59568,-83.3333333333333,4,2,1,5,0,1
59655,-83.3333333333333,4,1,1,80,0,1
60689,-71.4285714285714,4,1,1,80,0,1
61206,-83.3333333333333,4,1,1,80,0,1
61637,-83.3333333333333,4,2,1,5,0,1
61724,-83.3333333333333,4,1,1,80,0,1
62155,-83.3333333333333,4,2,1,5,0,1
62242,-83.3333333333333,4,1,1,80,0,1
62327,-83.3333333333333,4,2,1,5,0,1
62414,-83.3333333333333,4,1,1,80,0,1
62672,-83.3333333333333,4,2,1,5,0,1
62759,-83.3333333333333,4,1,1,80,0,1
63017,-83.3333333333333,4,2,1,5,0,1
63104,-83.3333333333333,4,1,1,80,0,1
63362,-83.3333333333333,4,2,1,5,0,1
63449,-83.3333333333333,4,1,1,80,0,1
64741,-83.3333333333333,4,1,1,5,0,1
64827,-83.3333333333333,4,1,1,80,0,1
64913,-83.3333333333333,4,1,1,5,0,1
64999,-83.3333333333333,4,1,1,80,0,1
65086,-83.3333333333333,4,1,1,5,0,1
65172,-83.3333333333333,4,1,1,80,0,1
65258,-83.3333333333333,4,1,1,5,0,1
65344,-83.3333333333333,4,1,1,80,0,1
66206,-133.333333333333,4,1,1,80,0,0
66724,-83.3333333333333,4,1,1,80,0,1
67155,-83.3333333333333,4,2,1,5,0,1
67242,-83.3333333333333,4,1,1,80,0,1
67672,-83.3333333333333,4,2,1,5,0,1
67759,-83.3333333333333,4,1,1,80,0,1
67844,-83.3333333333333,4,2,1,5,0,1
67931,-83.3333333333333,4,1,1,80,0,1
68189,-83.3333333333333,4,2,1,5,0,1
68276,-83.3333333333333,4,1,1,80,0,1
68362,-83.3333333333333,4,2,1,5,0,1
68449,-83.3333333333333,4,1,1,80,0,1
68534,-83.3333333333333,4,2,1,5,0,1
68621,-83.3333333333333,4,1,1,80,0,1
68879,-83.3333333333333,4,2,1,5,0,1
68965,-71.4285714285714,4,1,1,80,0,1
69482,-83.3333333333333,4,1,1,80,0,1
69913,-83.3333333333333,4,2,1,5,0,1
70000,-83.3333333333333,4,1,1,80,0,1
70431,-83.3333333333333,4,2,1,5,0,1
70518,-83.3333333333333,4,1,1,80,0,1
70603,-83.3333333333333,4,2,1,5,0,1
70690,-83.3333333333333,4,1,1,80,0,1
71724,-83.3333333333333,4,1,1,80,0,1
72241,-83.3333333333333,4,1,1,80,0,1
72672,-83.3333333333333,4,2,1,5,0,1
72759,-83.3333333333333,4,1,1,80,0,1
73189,-83.3333333333333,4,2,1,5,0,1
73276,-83.3333333333333,4,1,1,80,0,1
73362,-83.3333333333333,4,2,1,5,0,1
73449,-83.3333333333333,4,1,1,80,0,1
73706,-83.3333333333333,4,2,1,5,0,1
73793,-83.3333333333333,4,1,1,80,0,1
74051,-83.3333333333333,4,2,1,5,0,1
74138,-83.3333333333333,4,1,1,80,0,1
74396,-83.3333333333333,4,2,1,5,0,1
74483,-83.3333333333333,4,1,1,80,0,1
75775,-83.3333333333333,4,2,1,5,0,1
75862,-83.3333333333333,4,1,1,80,0,1
75948,-83.3333333333333,4,2,1,5,0,1
76035,-83.3333333333333,4,1,1,80,0,1
76120,-83.3333333333333,4,2,1,5,0,1
76207,-83.3333333333333,4,1,1,80,0,1
76293,-83.3333333333333,4,2,1,5,0,1
76380,-83.3333333333333,4,1,1,80,0,1
76465,-83.3333333333333,4,2,1,5,0,1
76552,-83.3333333333333,4,1,1,80,0,1
77239,-100,4,2,1,50,0,1
77241,-100,4,2,1,50,0,0
86894,-100,4,1,1,80,0,0
88275,-71.4285714285714,4,1,1,80,0,0
88534,-71.4285714285714,4,1,1,5,0,0
88620,-83.3333333333333,4,1,1,80,0,1
88879,-83.3333333333333,4,2,1,5,0,1
88966,-83.3333333333333,4,1,1,80,0,1
89051,-83.3333333333333,4,2,1,5,0,1
89138,-83.3333333333333,4,1,1,80,0,1
91034,-71.4285714285714,4,1,1,80,0,1
91293,-71.4285714285714,4,2,1,5,0,1
91379,-83.3333333333333,4,1,1,80,0,1
91637,-83.3333333333333,4,2,1,5,0,1
91724,-83.3333333333333,4,1,1,80,0,1
92327,-83.3333333333333,4,2,1,5,0,1
92414,-83.3333333333333,4,1,1,80,0,1
93189,-83.3333333333333,4,2,1,5,0,1
93276,-83.3333333333333,4,1,1,80,0,1
93534,-83.3333333333333,4,2,1,5,0,1
93621,-83.3333333333333,4,1,1,80,0,1
93793,-71.4285714285714,4,1,1,80,0,1
94051,-71.4285714285714,4,2,1,5,0,1
94137,-83.3333333333333,4,1,1,80,0,1
94396,-83.3333333333333,4,2,1,5,0,1
94483,-83.3333333333333,4,1,1,80,0,1
94568,-83.3333333333333,4,2,1,5,0,1
94655,-83.3333333333333,4,1,1,80,0,1
96551,-71.4285714285714,4,1,1,80,0,1
96810,-71.4285714285714,4,2,1,5,0,1
96895,-83.3333333333333,4,1,1,80,0,1
99310,-71.4285714285714,4,1,1,80,0,0
99568,-71.4285714285714,4,2,1,5,0,0
99655,-83.3333333333333,4,1,1,80,0,1
99913,-83.3333333333333,4,2,1,5,0,1
100000,-83.3333333333333,4,1,1,80,0,1
100086,-83.3333333333333,4,2,1,5,0,1
100173,-83.3333333333333,4,1,1,80,0,1
102068,-71.4285714285714,4,1,1,80,0,1
102327,-71.4285714285714,4,2,1,5,0,1
102412,-83.3333333333333,4,1,1,80,0,1
104224,-83.3333333333333,4,2,1,5,0,1
104311,-83.3333333333333,4,1,1,80,0,1
104568,-83.3333333333333,4,2,1,5,0,1
104655,-83.3333333333333,4,1,1,80,0,1
104827,-71.4285714285714,4,1,1,80,0,1
105086,-71.4285714285714,4,2,1,5,0,1
105171,-83.3333333333333,4,1,1,80,0,1
105431,-83.3333333333333,4,2,1,5,0,1
105518,-83.3333333333333,4,1,1,80,0,1
105603,-83.3333333333333,4,2,1,5,0,1
105690,-83.3333333333333,4,1,1,80,0,1
107586,-71.4285714285714,4,1,1,80,0,1
107844,-71.4285714285714,4,2,1,5,0,1
107930,-83.3333333333333,4,1,1,80,0,1
108879,-83.3333333333333,4,2,1,5,0,1
108966,-83.3333333333333,4,1,1,80,0,1
110342,-100,4,2,1,80,0,1
110344,-100,4,2,1,80,0,0
121377,-100,4,1,1,80,0,0
121379,-76.9230769230769,4,1,1,80,0,0
126896,-100,4,1,1,80,0,0
129653,-100,4,1,1,20,0,0
129655,-100,4,1,1,20,0,0
129825,-100,4,1,1,25,0,0
129998,-100,4,1,1,30,0,0
130170,-100,4,1,1,35,0,0
130342,-100,4,1,1,40,0,0
130515,-100,4,1,1,45,0,0
130687,-100,4,1,1,50,0,0
130860,-100,4,1,1,55,0,0
131032,-100,4,1,1,80,0,0
132413,-133.333333333333,4,1,1,80,0,0
132931,-83.3333333333333,4,1,1,80,0,1
133879,-83.3333333333333,4,2,1,5,0,1
133966,-83.3333333333333,4,1,1,80,0,1
134051,-83.3333333333333,4,2,1,5,0,1
134138,-83.3333333333333,4,1,1,80,0,1
134913,-83.3333333333333,4,2,1,5,0,1
135000,-83.3333333333333,4,1,1,80,0,1
135172,-71.4285714285714,4,1,1,80,0,1
135517,-83.3333333333333,4,1,1,80,0,1
136637,-83.3333333333333,4,2,1,5,0,1
136724,-83.3333333333333,4,1,1,80,0,1
136810,-83.3333333333333,4,2,1,5,0,1
136897,-83.3333333333333,4,1,1,80,0,1
137931,-71.4285714285714,4,1,1,80,0,1
138276,-83.3333333333333,4,1,1,80,0,1
139396,-83.3333333333333,4,2,1,5,0,1
139483,-83.3333333333333,4,1,1,80,0,1
139568,-83.3333333333333,4,2,1,5,0,1
139655,-83.3333333333333,4,1,1,80,0,1
139913,-83.3333333333333,4,1,1,5,0,1
140000,-83.3333333333333,4,1,1,80,0,1
140258,-83.3333333333333,4,2,1,5,0,1
140345,-83.3333333333333,4,1,1,80,0,1
140603,-83.3333333333333,4,1,1,5,0,1
140690,-83.3333333333333,4,1,1,80,0,1
141982,-83.3333333333333,4,2,1,5,0,1
142069,-83.3333333333333,4,1,1,80,0,1
142155,-83.3333333333333,4,2,1,5,0,1
142242,-83.3333333333333,4,1,1,80,0,1
142327,-83.3333333333333,4,2,1,5,0,1
142414,-83.3333333333333,4,1,1,80,0,1
142500,-83.3333333333333,4,2,1,5,0,1
142587,-83.3333333333333,4,1,1,80,0,1
143448,-133.333333333333,4,1,1,80,0,0
143793,-83.3333333333333,4,1,1,80,0,1
144396,-83.3333333333333,4,2,1,5,0,1
144483,-83.3333333333333,4,1,1,80,0,1
144913,-83.3333333333333,4,2,1,5,0,1
145000,-83.3333333333333,4,1,1,80,0,1
145086,-83.3333333333333,4,2,1,5,0,1
145173,-83.3333333333333,4,1,1,80,0,1
145431,-83.3333333333333,4,2,1,5,0,1
145518,-83.3333333333333,4,1,1,80,0,1
145603,-83.3333333333333,4,2,1,5,0,1
145690,-83.3333333333333,4,1,1,80,0,1
145775,-83.3333333333333,4,2,1,5,0,1
145862,-83.3333333333333,4,1,1,80,0,1
146120,-83.3333333333333,4,2,1,5,0,1
146206,-71.4285714285714,4,1,1,80,0,1
146551,-83.3333333333333,4,1,1,80,0,1
147155,-83.3333333333333,4,2,1,5,0,1
147242,-83.3333333333333,4,1,1,80,0,1
147672,-83.3333333333333,4,2,1,5,0,1
147759,-83.3333333333333,4,1,1,80,0,1
147844,-83.3333333333333,4,2,1,5,0,1
147931,-83.3333333333333,4,1,1,80,0,1
148189,-83.3333333333333,4,2,1,5,0,1
148276,-83.3333333333333,4,1,1,80,0,1
148965,-71.4285714285714,4,1,1,80,0,1
149310,-83.3333333333333,4,1,1,80,0,1
149913,-83.3333333333333,4,2,1,5,0,1
150000,-83.3333333333333,4,1,1,80,0,1
150431,-83.3333333333333,4,2,1,5,0,1
150518,-83.3333333333333,4,1,1,80,0,1
150603,-83.3333333333333,4,2,1,5,0,1
150690,-83.3333333333333,4,1,1,80,0,1
150948,-83.3333333333333,4,2,1,5,0,1
151035,-83.3333333333333,4,1,1,80,0,1
151293,-83.3333333333333,4,2,1,5,0,1
151380,-83.3333333333333,4,1,1,80,0,1
151637,-83.3333333333333,4,2,1,5,0,1
151724,-83.3333333333333,4,1,1,80,0,1
153017,-83.3333333333333,4,2,1,5,0,1
153104,-83.3333333333333,4,1,1,80,0,1
153189,-83.3333333333333,4,2,1,5,0,1
153276,-83.3333333333333,4,1,1,80,0,1
153362,-83.3333333333333,4,2,1,5,0,1
153449,-83.3333333333333,4,1,1,80,0,1
153534,-83.3333333333333,4,2,1,5,0,1
153621,-83.3333333333333,4,1,1,80,0,1
153706,-83.3333333333333,4,2,1,5,0,1
153793,-83.3333333333333,4,1,1,80,0,1
154482,-100,4,1,1,80,0,0

[Colours]
Combo1 : 128,128,255
Combo2 : 0,98,196
Combo3 : 78,186,111
Combo4 : 131,86,186

[HitObjects]
81,56,0,5,0,0:0:0:0:
79,75,344,1,8,0:0:0:0:
230,132,689,2,0,L|329:123,1,75,0|0,0:0|0:0,0:0:0:0:
228,151,1034,1,8,0:0:0:0:
67,235,1379,5,0,0:0:0:0:
65,254,1724,1,8,0:0:0:0:
216,311,2068,2,0,L|315:302,1,75,0|0,0:0|0:0,0:0:0:0:
214,330,2413,1,8,0:0:0:0:
222,231,2586,1,0,0:0:0:0:
230,132,2758,5,0,0:0:0:0:
249,134,3103,1,8,0:0:0:0:
400,198,3448,2,0,L|391:99,1,75,0|0,0:0|0:0,0:0:0:0:
419,200,3793,1,8,0:0:0:0:
214,330,4137,5,0,0:0:0:0:
233,332,4482,1,8,0:0:0:0:
141,251,4655,2,0,L|145:195,2,37.5,0|0|0,0:0|0:0|0:0,0:0:0:0:
36,141,5000,2,0,L|40:196,2,37.5,0|0|8,0:0|0:0|0:0,0:0:0:0:
30,63,5344,1,0,0:0:0:0:
136,16,5517,5,0,0:0:0:0:
138,35,5862,1,8,0:0:0:0:
257,142,6206,2,0,L|266:43,1,75,0|0,0:0|0:0,0:0:0:0:
238,144,6551,1,8,0:0:0:0:
409,115,6896,5,0,0:0:0:0:
407,134,7241,1,8,0:0:0:0:
263,216,7586,2,0,L|254:117,1,75,0|0,0:0|0:0,0:0:0:0:
282,218,7931,1,8,0:0:0:0:
183,226,8103,1,0,0:0:0:0:
84,234,8275,5,0,0:0:0:0:
86,253,8620,1,8,0:0:0:0:
216,311,8965,2,0,L|315:302,1,75,0|0,0:0|0:0,0:0:0:0:
214,330,9310,1,8,0:0:0:0:
422,167,9655,6,0,P|431:243|419:334,1,150,0|10,0:0|0:0,0:0:0:0:
506,198,10172,2,0,L|512:161,2,37.5,0|0|2,0:0|0:0|0:0,0:0:0:0:
347,203,10517,2,0,L|340:166,2,37.5,0|0|2,0:0|0:0|0:0,0:0:0:0:
423,315,11034,1,0,0:0:0:0:
408,62,16551,5,0,0:0:0:0:
408,62,17758,2,0,B|372:81|341:125|339:172|339:172|353:151|382:138,1,187.5
408,62,19310,2,0,B|359:60|300:88|269:135|269:135|297:122|334:126,1,225.000008583069
408,62,20517,2,0,B|326:38|215:57|143:124|143:124|196:116|256:138,1,373.5000054142
512,91,22241,5,0,0:0:0:0:
512,91,22586,1,0,0:0:0:0:
441,160,22758,2,0,P|381:162|322:119,1,112.5,0|0,0:0|0:0,0:0:0:0:
322,117,23103,5,0,0:0:0:0:
261,216,23275,1,0,0:0:0:0:
261,216,23620,1,0,0:0:0:0:
333,308,23793,2,0,P|393:310|452:267,1,112.5,0|0,0:0|0:0,0:0:0:0:
452,265,24137,5,0,0:0:0:0:
428,384,24310,1,0,0:0:0:0:
323,324,24482,2,0,P|263:322|204:365,1,112.5,0|0,0:0|0:0,0:0:0:0:
204,367,24827,5,0,0:0:0:0:
96,339,25000,1,0,0:0:0:0:
96,339,25344,1,0,0:0:0:0:
174,260,25517,2,0,P|122:228|49:235,1,112.5,0|0,0:0|0:0,0:0:0:0:
47,237,25862,5,0,0:0:0:0:
130,148,26034,1,0,0:0:0:0:
130,148,26379,1,0,0:0:0:0:
52,69,26551,2,0,P|103:37|176:44,1,112.5,0|0,0:0|0:0,0:0:0:0:
179,46,26896,5,0,0:0:0:0:
246,140,27068,1,0,0:0:0:0:
179,46,27241,2,0,P|234:23|305:42,1,112.5,0|0,0:0|0:0,0:0:0:0:
308,45,27586,5,0,0:0:0:0:
246,140,27758,1,0,0:0:0:0:
246,140,28103,1,0,0:0:0:0:
318,229,28275,2,0,P|377:236|440:200,1,112.5,0|0,0:0|0:0,0:0:0:0:
442,196,28620,5,0,0:0:0:0:
403,310,28793,1,0,0:0:0:0:
403,310,29137,1,0,0:0:0:0:
302,246,29310,2,0,P|242:238|179:274,1,112.5,0|0,0:0|0:0,0:0:0:0:
194,285,29655,2,0,P|142:305|87:297,1,112.5,0|0,0:0|0:0,0:0:0:0:
64,285,30000,1,0,0:0:0:0:
126,57,30344,5,0,0:0:0:0:
74,146,30517,1,0,0:0:0:0:
74,146,30862,1,0,0:0:0:0:
1,60,31034,2,0,P|52:35|107:38,1,112.5,0|0,0:0|0:0,0:0:0:0:
126,57,31379,5,0,0:0:0:0:
185,148,31551,2,0,P|239:163|293:150,1,112.5,0|0,0:0|0:0,0:0:0:0:
310,131,31896,1,0,0:0:0:0:
373,48,32068,2,0,P|428:35|481:49,1,112.5,0|0,0:0|0:0,0:0:0:0:
479,69,32413,2,0,P|419:55|354:86,1,112.5,0|0,0:0|0:0,0:0:0:0:
368,98,32758,2,0,P|314:113|260:100,1,112.5,0|0,0:0|0:0,0:0:0:0:
240,86,33103,5,0,1:0:0:0:
165,168,33275,2,0,L|65:159,1,75,0|8,0:0|1:0,0:0:0:0:
175,188,33620,1,0,0:0:0:0:
135,322,33793,2,0,P|178:285|232:276,1,112.5,2|0,3:0|0:0,0:0:0:0:
256,281,34137,1,8,1:0:0:0:
332,200,34310,2,0,L|432:209,1,75,0|0,0:0|3:0,0:0:0:0:
512,217,34655,5,0,0:0:0:0:
500,323,34827,2,0,P|451:351|396:351,1,112.5,8|0,1:0|0:0,0:0:0:0:
373,341,35172,1,0,3:0:0:0:
250,356,35344,1,8,0:0:0:0:
250,356,35431,1,8,0:0:0:0:
250,356,35517,2,0,L|257:272,1,75,8|8,0:0|0:0,0:0:0:0:
269,134,35862,5,0,1:0:0:0:
171,78,36034,2,0,L|162:-22,1,75,0|8,0:0|0:1,0:0:0:0:
191,88,36379,1,0,0:0:0:0:
124,203,36551,2,0,P|109:149|70:109,1,112.5,2|0,3:0|0:0,0:0:0:0:
47,101,36896,1,8,1:0:0:0:
8,206,37068,2,0,L|17:306,1,75,0|2,0:0|1:0,0:0:0:0:
21,371,37413,5,0,0:0:0:0:
111,310,37586,2,0,P|146:298|183:300,1,75,8|0,1:0|0:0,0:0:0:0:
294,333,37931,2,0,L|333:329,1,37.5,0|0,3:0|3:0,0:0:0:0:
393,373,38103,2,0,L|432:369,1,37.5,8|8,0:0|0:0,0:0:0:0:
488,318,38275,2,0,L|481:243,1,75,8|8,0:0|0:0,0:0:0:0:
467,70,38620,5,0,1:0:0:0:
397,151,38793,2,0,L|297:142,1,75,0|8,0:0|1:0,0:0:0:0:
407,171,39137,1,0,0:0:0:0:
354,54,39310,2,0,P|297:54|249:81,1,112.5,2|0,0:3|0:0,0:0:0:0:
238,101,39655,1,8,1:0:0:0:
191,208,39827,2,0,L|91:199,1,75,0|0,0:0|3:0,0:0:0:0:
11,194,40172,5,0,0:0:0:0:
0,303,40344,2,0,P|49:331|104:331,1,112.5,8|0,1:0|0:0,0:0:0:0:
127,321,40689,1,0,3:0:0:0:
234,376,40862,1,8,2:0:0:0:
234,376,40948,1,8,2:0:0:0:
234,376,41034,2,0,L|321:368,1,75,8|8,0:2|0:0,0:0:0:0:
490,353,41379,5,0,3:0:0:0:
400,296,41551,2,0,L|391:195,1,75,8|8,0:0|1:0,0:0:0:0:
380,306,41896,1,0,0:0:0:0:
499,248,42068,2,0,P|499:191|472:143,1,112.5,2|0,3:0|0:0,0:0:0:0:
456,129,42413,1,8,1:0:0:0:
335,130,42586,2,0,L|326:29,1,75,2|0,3:0|1:0,0:0:0:0:
242,15,42931,5,0,0:0:0:0:
156,72,43103,2,0,L|162:146,1,75,8|0,1:0|1:0,0:0:0:0:
160,158,43362,1,0,1:0:0:0:
156,168,43448,2,0,L|109:155,3,37.5,8|0|8|0,3:0|0:0|3:0|0:0,0:0:0:0:
258,196,43793,2,0,L|221:205,1,37.5,8|0,3:0|0:0,0:0:0:0:
118,234,43965,2,0,L|154:243,1,37.5,0|0,1:1|0:0,0:0:0:0:
269,306,44137,6,0,B|223:282|223:282|394:235,1,194.999991073609,10|8,0:0|0:0,0:0:0:0:
360,244,44827,1,8,0:0:0:0:
452,321,45000,1,0,0:0:0:0:
481,208,45172,1,8,0:0:0:0:
333,95,45517,6,0,B|379:119|379:119|208:166,1,194.999991073609,8|8,0:0|0:0,0:0:0:0:
413,108,46034,1,8,0:0:0:0:
265,30,46379,1,8,0:0:0:0:
217,160,46551,1,8,0:0:0:0:
38,18,46896,6,0,B|-8:42|-8:42|163:89,1,194.999991073609,8|8,0:0|0:0,0:0:0:0:
130,80,47586,1,8,0:0:0:0:
103,196,47758,1,0,0:0:0:0:
217,160,47931,1,8,0:0:0:0:
14,280,48275,5,8,0:0:0:0:
128,316,48448,1,8,0:0:0:0:
128,316,48793,1,8,0:0:0:0:
242,280,48965,1,8,0:0:0:0:
242,280,49310,1,8,0:0:0:0:
358,316,49482,1,8,0:0:0:0:
470,269,49655,6,0,L|478:173,1,75,2|2,0:0|2:0,0:0:0:0:
332,196,50000,1,8,0:0:0:0:
326,121,50172,1,2,2:0:0:0:
186,121,50344,6,0,L|178:217,1,75,2|2,0:0|2:0,0:0:0:0:
35,194,50689,1,8,0:0:0:0:
41,269,50862,1,2,2:0:0:0:
95,121,51034,6,0,L|87:25,1,75,2|2,0:0|2:0,0:0:0:0:
261,9,51379,1,8,0:0:0:0:
255,84,51551,1,2,2:0:0:0:
417,121,51724,6,0,L|425:25,1,75,2|2,0:0|2:0,0:0:0:0:
255,84,52068,1,8,0:0:0:0:
261,159,52241,1,2,2:0:0:0:
133,172,52413,6,0,L|77:176,3,37.5,0|0|0|0,0:0|0:0|0:0|0:0,0:0:0:0:
187,230,52758,2,0,L|224:226,1,37.5,0|0,0:0|0:0,0:0:0:0:
261,159,52931,2,0,L|298:155,1,37.5,0|0,0:0|0:0,0:0:0:0:
352,212,53103,2,0,L|389:208,1,37.5,0|0,0:0|0:0,0:0:0:0:
435,145,53275,2,0,L|480:140,1,37.5,0|0,0:0|0:0,0:0:0:0:
512,63,53448,5,2,0:0:0:0:
496,39,53534,1,2,0:0:0:0:
477,22,53620,1,2,0:0:0:0:
455,6,53706,1,2,0:0:0:0:
428,0,53793,1,0,0:0:0:0:
32,179,54310,6,0,L|-8:179,3,25,0|0|0|0,0:0|0:0|0:0|0:0,0:0:0:0:
141,182,54655,1,0,0:0:0:0:
141,182,54741,1,0,0:0:0:0:
141,182,54827,1,4,0:3:0:0:
80,272,55000,1,8,0:0:0:0:
202,305,55172,6,0,B|254:305|254:305|286:357,1,112.500004291535,0|2,0:0|0:0,0:0:0:0:
190,285,55689,1,0,0:0:0:0:
364,286,55862,2,0,P|431:271|484:231,1,134.999995880127,8|0,0:0|0:0,0:0:0:0:
498,212,56206,1,0,0:0:0:0:
375,137,56379,1,0,0:0:0:0:
496,132,56551,6,0,L|444:136,1,44.999998626709,2|0,0:0|0:0,0:0:0:0:
332,72,56724,2,0,L|288:75,1,44.999998626709,0|0,0:0|0:0,0:0:0:0:
168,27,56896,2,0,P|207:80|221:146,1,134.999995880127,2|0,0:0|0:0,0:0:0:0:
220,170,57241,2,0,L|267:165,1,44.999998626709,8|0,0:0|0:0,0:0:0:0:
164,225,57413,2,0,L|120:228,1,44.999998626709,0|0,2:0|0:0,0:0:0:0:
0,173,57586,2,0,P|39:227|52:292,1,134.999995880127,0|0,0:0|0:0,0:0:0:0:
31,346,57931,6,0,B|61:306|61:306|171:300|171:300|224:355,1,209.999993591309,2|2,0:0|0:0,0:0:0:0:
119,228,58448,1,0,0:0:0:0:
281,244,58620,2,0,P|302:180|296:114,1,134.999995880127,8|0,0:0|0:0,0:0:0:0:
287,93,58965,1,2,0:0:0:0:
416,173,59137,1,0,0:0:0:0:
370,274,59310,6,0,L|365:218,1,44.999998626709,0|0,0:0|0:0,0:0:0:0:
488,144,59482,2,0,L|492:189,1,44.999998626709,2|0,0:0|0:0,0:0:0:0:
448,333,59655,2,0,L|439:237,1,89.9999972534181,2|0,0:0|0:0,0:0:0:0:
423,49,60000,1,8,0:0:0:0:
344,154,60172,1,0,0:0:0:0:
344,154,60258,1,0,0:0:0:0:
344,154,60344,1,2,0:0:0:0:
252,61,60517,1,8,0:0:0:0:
148,132,60689,6,0,B|127:80|127:80|108:153|108:153|134:251,1,209.999993591309,2|2,0:0|0:0,0:0:0:0:
87,110,61206,1,0,0:0:0:0:
222,207,61379,2,0,P|289:210|351:187,1,134.999995880127,8|0,0:0|0:0,0:0:0:0:
369,173,61724,1,2,0:0:0:0:
416,300,61896,1,0,0:0:0:0:
492,225,62068,6,0,L|432:230,1,44.999998626709,0|0,0:0|0:0,0:0:0:0:
343,281,62241,2,0,L|283:286,1,44.999998626709,2|0,0:0|0:0,0:0:0:0:
247,374,62413,2,0,P|221:311|174:265,1,134.999995880127,2|0,0:0|0:0,0:0:0:0:
159,258,62758,2,0,P|133:320|86:366,1,134.999995880127,8|0,0:0|0:0,0:0:0:0:
72,372,63103,2,0,P|24:324|-1:262,1,134.999995880127,0|0,0:0|0:0,0:0:0:0:
1,234,63448,5,2,0:0:0:0:
144,246,63620,1,0,0:0:0:0:
11,152,63793,1,2,0:0:0:0:
154,164,63965,1,0,0:0:0:0:
22,67,64137,2,0,L|205:83,1,179.999994506836,8|2,0:0|0:0,0:0:0:0:
217,219,64655,6,0,L|221:266,1,44.999998626709,0|0,0:0|0:0,0:0:0:0:
277,361,64827,2,0,L|273:316,1,44.999998626709,0|0,0:0|0:0,0:0:0:0:
335,240,65000,2,0,L|338:284,1,44.999998626709,0|0,0:0|0:0,0:0:0:0:
416,324,65172,2,0,L|412:279,1,44.999998626709,0|0,0:0|0:0,0:0:0:0:
484,235,65344,2,0,L|487:279,2,44.999998626709,0|0|2,0:0|0:0|0:0,0:0:0:0:
411,146,65689,1,0,0:0:0:0:
411,146,65775,1,0,0:0:0:0:
411,146,65862,1,8,3:0:0:0:
335,240,66034,1,8,0:0:0:0:
298,109,66206,6,0,B|246:109|246:109|214:161,1,112.500004291535,2|2,0:0|0:0,0:0:0:0:
310,89,66724,1,0,0:0:0:0:
129,82,66896,2,0,P|63:101|14:146,1,134.999995880127,10|2,2:0|2:0,0:0:0:0:
0,166,67241,1,0,0:0:0:0:
129,236,67413,1,2,0:0:0:0:
9,243,67586,6,0,L|72:237,1,44.999998626709,0|0,0:0|0:0,0:0:0:0:
152,308,67758,2,0,L|215:302,1,44.999998626709,0|0,0:0|2:0,0:0:0:0:
309,357,67931,2,0,P|276:296|273:230,1,134.999995880127,2|0,0:0|0:0,0:0:0:0:
274,210,68275,2,0,L|214:215,1,44.999998626709,8|0,0:0|0:0,0:0:0:0:
326,153,68448,2,0,L|389:147,1,44.999998626709,0|0,0:0|0:0,0:0:0:0:
446,80,68620,2,0,P|449:146|481:205,1,134.999995880127,2|0,0:0|0:0,0:0:0:0:
497,226,68965,6,0,B|426:233|426:233|401:289|401:289|279:295,1,209.999993591309,2|2,0:0|0:0,0:0:0:0:
417,364,69482,1,0,0:0:0:0:
245,367,69655,2,0,P|220:304|224:238,1,134.999995880127,10|2,2:0|2:0,0:0:0:0:
237,215,70000,1,2,0:0:0:0:
102,190,70172,1,0,0:0:0:0:
116,308,70344,6,0,L|120:252,1,44.999998626709,0|0,0:0|0:0,0:0:0:0:
26,174,70517,2,0,L|30:118,1,44.999998626709,0|0,0:0|0:0,0:0:0:0:
163,133,70689,2,0,L|254:141,1,89.9999972534181,2|0,0:0|0:0,0:0:0:0:
447,156,71034,1,8,0:0:0:0:
355,44,71206,1,0,2:0:0:0:
355,44,71293,1,0,0:0:0:0:
355,44,71379,1,2,0:0:0:0:
252,140,71551,1,8,0:0:0:0:
327,243,71724,6,0,B|348:198|348:198|366:241|366:241|335:333,1,179.999994506836,2|2,0:0|0:0,0:0:0:0:
391,225,72241,1,0,0:0:0:0:
252,140,72413,2,0,P|185:135|123:160,1,134.999995880127,10|2,2:0|2:0,0:0:0:0:
107,178,72758,1,0,0:0:0:0:
138,308,72931,1,2,0:0:0:0:
24,282,73103,6,0,L|71:277,1,44.999998626709,0|0,0:0|0:0,0:0:0:0:
177,240,73275,2,0,L|224:235,1,44.999998626709,0|0,0:0|0:0,0:0:0:0:
324,170,73448,2,0,P|301:233|309:299,1,134.999995880127,2|0,0:0|0:0,0:0:0:0:
317,319,73793,2,0,P|380:296|446:304,1,134.999995880127,8|0,0:0|0:0,0:0:0:0:
463,319,74137,2,0,P|454:252|477:189,1,134.999995880127,0|0,0:0|0:0,0:0:0:0:
492,175,74482,5,2,0:0:0:0:
349,187,74655,1,0,0:0:0:0:
482,93,74827,1,2,0:0:0:0:
339,105,75000,1,0,0:0:0:0:
471,8,75172,2,0,L|288:24,1,179.999994506836,10|2,2:0|0:0,0:0:0:0:
271,157,75689,6,0,L|267:204,1,44.999998626709,0|0,0:0|0:0,0:0:0:0:
211,300,75862,2,0,L|215:255,1,44.999998626709,0|0,0:0|0:0,0:0:0:0:
153,178,76034,2,0,L|150:222,1,44.999998626709,0|0,0:0|0:0,0:0:0:0:
72,262,76206,2,0,L|76:217,1,44.999998626709,4|0,3:0|2:0,0:0:0:0:
4,173,76379,2,0,L|1:217,1,44.999998626709,0|0,0:0|0:0,0:0:0:0:
67,338,76551,1,8,0:0:0:0:
149,222,76724,1,0,0:0:0:0:
149,222,76810,1,0,0:0:0:0:
149,222,76896,1,2,0:0:0:0:
0,217,77068,1,8,0:0:0:0:
87,88,77241,5,0,1:0:0:0:
85,107,77586,1,8,0:0:0:0:
236,164,77931,2,0,L|335:155,1,75,0|0,0:0|1:0,0:0:0:0:
234,183,78275,1,8,0:0:0:0:
244,39,78620,5,0,1:0:0:0:
246,20,78965,1,8,0:0:0:0:
385,108,79310,2,0,L|484:117,1,75,0|0,0:0|1:0,0:0:0:0:
383,89,79655,1,8,0:0:0:0:
391,188,79827,1,0,0:0:0:0:
399,287,80000,5,0,1:0:0:0:
418,285,80344,1,8,0:0:0:0:
278,351,80689,2,0,L|269:252,1,75,0|0,0:0|1:0,0:0:0:0:
297,353,81034,1,8,0:0:0:0:
135,320,81379,5,0,1:0:0:0:
116,322,81724,1,8,0:0:0:0:
179,232,81896,2,0,L|183:176,2,37.5,0|0|0,1:0|1:0|1:0,0:0:0:0:
34,163,82241,2,0,L|30:218,2,37.5,0|0|8,1:0|1:0|0:0,0:0:0:0:
46,65,82586,1,0,1:0:0:0:
152,18,82758,5,0,1:0:0:0:
154,37,83103,1,8,0:0:0:0:
186,176,83448,2,0,L|87:167,1,75,0|0,0:0|1:0,0:0:0:0:
188,195,83793,1,8,0:0:0:0:
360,28,84137,5,0,1:0:0:0:
358,47,84482,1,8,0:0:0:0:
324,205,84827,2,0,L|423:214,1,75,0|0,0:0|1:0,0:0:0:0:
322,186,85172,1,8,0:0:0:0:
330,285,85344,1,0,0:0:0:0:
338,384,85517,5,0,1:0:0:0:
319,382,85862,1,8,0:0:0:0:
167,357,86206,2,0,L|176:258,1,75,0|0,0:0|1:0,0:0:0:0:
148,359,86551,1,8,0:0:0:0:
256,192,86896,1,2,0:0:0:0:
256,192,87931,5,8,0:0:0:0:
40,339,88275,6,0,B|65:372|65:372|87:310|43:234,1,157.499995193482,2|0,0:0|0:0,0:0:0:0:
69,244,88620,2,0,P|51:180|66:115,1,134.999995880127,8|0,0:0|2:0,0:0:0:0:
82,105,88965,2,0,L|140:101,1,44.999998626709,2|0,0:0|0:0,0:0:0:0:
192,62,89137,2,0,L|250:58,1,44.999998626709,0|0,0:0|0:0,0:0:0:0:
297,3,89310,2,0,P|313:46|313:92,1,89.9999972534181,8|0,0:0|0:0,0:0:0:0:
256,192,89655,5,2,0:0:0:0:
198,88,89827,1,0,0:0:0:0:
256,192,90000,1,8,0:0:0:0:
288,202,90086,1,0,0:0:0:0:
320,206,90172,1,0,0:0:0:0:
353,200,90258,1,0,0:0:0:0:
383,189,90344,1,0,0:0:0:0:
434,307,90517,2,0,L|333:315,1,89.9999972534181,2|8,0:0|0:0,0:0:0:0:
449,326,90862,1,0,0:0:0:0:
329,332,91034,6,0,B|281:336|281:336|237:291|237:291|173:297,1,157.499995193482,2|0,0:0|0:0,0:0:0:0:
184,315,91379,2,0,P|126:348|59:353,1,134.999995880127,8|0,0:0|0:0,0:0:0:0:
41,354,91724,1,0,0:0:0:0:
94,230,91896,1,2,0:0:0:0:
184,315,92068,2,0,P|213:254|212:187,1,134.999995880127,8|0,0:0|0:0,0:0:0:0:
210,166,92413,6,0,L|165:170,2,44.999998626709,2|0|0,0:0|0:0|0:0,0:0:0:0:
326,151,92758,1,8,0:0:0:0:
293,264,92931,1,2,0:0:0:0:
293,264,93017,1,2,0:0:0:0:
293,264,93103,6,0,L|373:257,1,44.999998626709,2|2,0:0|0:0,0:0:0:0:
420,255,93275,1,0,0:0:0:0:
326,151,93448,2,0,L|387:146,1,44.999998626709,8|0,0:0|0:0,0:0:0:0:
451,143,93620,1,2,0:0:0:0:
400,45,93793,6,0,B|433:20|433:20|371:-2|295:42,1,157.499995193482,2|0,0:0|0:0,0:0:0:0:
301,22,94137,2,0,P|236:40|171:24,1,134.999995880127,8|0,0:0|0:0,0:0:0:0:
151,16,94482,2,0,L|147:63,1,44.999998626709,0|0,0:0|0:0,0:0:0:0:
79,86,94655,2,0,L|75:133,1,44.999998626709,2|0,0:0|0:0,0:0:0:0:
34,222,94827,2,0,P|77:206|123:206,1,89.9999972534181,8|0,0:0|0:0,0:0:0:0:
246,180,95172,6,0,P|230:221|229:266,1,89.9999972534181,2|0,0:0|0:0,0:0:0:0:
235,375,95517,1,8,0:0:0:0:
235,375,95603,1,0,0:0:0:0:
235,375,95689,2,0,L|171:369,2,44.999998626709,0|0|0,2:0|0:0|0:0,0:0:0:0:
342,301,96034,2,0,L|443:309,1,89.9999972534181,2|8,0:0|0:0,0:0:0:0:
327,320,96379,1,0,0:0:0:0:
440,330,96551,6,0,B|447:260|447:260|487:241|487:241|494:166,1,157.499995193482,2|0,0:0|0:0,0:0:0:0:
503,182,96896,2,0,P|487:95|423:29,1,179.999994506836,8|0,0:0|0:0,0:0:0:0:
291,17,97413,1,2,0:0:0:0:
232,136,97586,6,0,L|235:180,3,44.999998626709,8|0|0|0,0:0|0:0|0:0|0:0,0:0:0:0:
162,87,97931,2,0,L|158:42,3,44.999998626709,8|0|2|0,0:0|0:0|0:0|0:0,0:0:0:0:
106,148,98275,1,2,0:0:0:0:
106,148,98448,1,2,0:0:0:0:
113,235,98620,1,10,3:0:0:0:
121,323,98793,2,0,L|216:314,1,89.9999972534181,4|6,3:0|3:0,0:0:0:0:
218,334,99051,2,0,L|313:342,1,89.9999972534181,4|8,3:0|2:0,0:0:0:0:
335,344,99310,6,0,B|376:371|376:371|378:310|415:269,1,157.499995193482,2|0,0:0|0:0,0:0:0:0:
434,273,99655,2,0,P|452:208|436:143,1,134.999995880127,8|0,0:0|0:0,0:0:0:0:
429,123,100000,2,0,L|349:116,1,44.999998626709,0|0,0:0|0:0,0:0:0:0:
317,157,100172,2,0,L|237:151,1,44.999998626709,2|0,0:0|0:0,0:0:0:0:
209,210,100344,2,0,P|193:168|192:123,1,89.9999972534181,8|0,0:0|0:0,0:0:0:0:
256,21,100689,5,2,0:0:0:0:
310,130,100862,1,0,0:0:0:0:
256,21,101034,1,8,0:0:0:0:
226,10,101120,1,0,0:0:0:0:
193,4,101206,1,0,0:0:0:0:
161,8,101293,1,0,0:0:0:0:
129,18,101379,1,0,0:0:0:0:
117,136,101551,2,0,L|16:144,1,89.9999972534181,2|8,0:0|0:0,0:0:0:0:
132,155,101896,1,0,0:0:0:0:
10,168,102068,6,0,B|14:215|14:215|53:264|53:264|56:332,1,157.499995193482,2|0,0:0|0:0,0:0:0:0:
48,336,102413,2,0,P|90:320|135:319,1,89.9999972534181,8|0,0:0|0:0,0:0:0:0:
166,334,102672,1,0,0:0:0:0:
166,334,102758,1,0,0:0:0:0:
241,257,102931,1,2,0:0:0:0:
328,324,103103,2,0,P|373:324|415:309,1,89.9999972534181,8|0,0:0|0:0,0:0:0:0:
484,193,103448,6,0,L|536:189,2,44.999998626709,2|0|0,0:0|0:0|0:0,0:0:0:0:
354,204,103793,1,8,0:0:0:0:
435,132,103965,1,2,0:0:0:0:
435,132,104051,1,2,0:0:0:0:
435,132,104137,6,0,L|355:139,1,44.999998626709,2|0,0:0|0:0,0:0:0:0:
308,141,104310,1,0,0:0:0:0:
308,141,104396,1,0,2:0:0:0:
308,141,104482,2,0,L|280:65,1,44.999998626709,8|0,0:0|0:0,0:0:0:0:
265,19,104655,1,2,0:0:0:0:
218,172,104827,6,0,B|215:122|215:122|165:155|110:149,1,157.499995193482,0|0,0:0|0:0,0:0:0:0:
89,148,105172,2,0,P|70:212|86:277,1,134.999995880127,8|0,0:0|0:0,0:0:0:0:
99,298,105517,2,0,L|158:293,1,44.999998626709,0|0,0:0|0:0,0:0:0:0:
199,344,105689,2,0,L|258:339,1,44.999998626709,2|0,0:0|2:0,0:0:0:0:
331,369,105862,2,0,P|317:326|319:281,1,89.9999972534181,8|0,0:0|0:0,0:0:0:0:
476,298,106206,6,0,P|437:276|406:244,1,89.9999972534181,2|0,0:0|0:0,0:0:0:0:
402,121,106551,1,8,0:0:0:0:
402,121,106637,1,0,0:0:0:0:
402,121,106724,2,0,L|465:115,2,44.999998626709,0|0|0,0:0|0:0|0:0,0:0:0:0:
296,198,107068,2,0,L|195:190,1,89.9999972534181,2|8,0:0|0:0,0:0:0:0:
311,179,107413,1,0,0:0:0:0:
193,170,107586,6,0,B|197:123|197:123|164:84|164:84|171:4,1,157.499995193482,2|0,0:0|0:0,0:0:0:0:
138,22,107931,2,0,P|58:59|10:138,1,179.999994506836,8|0,0:0|0:0,0:0:0:0:
82,257,108448,1,2,0:0:0:0:
206,189,108620,2,0,P|272:191|327:229,1,134.999995880127,8|0,0:0|0:0,0:0:0:0:
342,251,108965,6,0,L|397:246,2,44.999998626709,2|0|0,0:0|0:0|0:0,0:0:0:0:
233,310,109310,2,0,L|143:302,1,89.9999972534181,8|2,0:0|0:0,0:0:0:0:
123,340,109568,1,2,0:0:0:0:
123,340,109655,2,0,L|19:330,1,89.9999972534181,8|2,0:0|0:0,0:0:0:0:
1,357,109913,1,2,0:0:0:0:
1,357,110000,1,8,0:0:0:0:
100,167,110344,5,0,1:0:0:0:
440,54,120517,5,0,1:0:0:0:
440,54,120603,1,0,0:0:0:0:
440,54,120689,2,0,L|487:41,3,37.5,8|0|8|0,0:0|0:0|0:0|0:0,0:0:0:0:
338,82,121034,2,0,L|375:91,1,37.5,8|4,3:0|3:0,0:0:0:0:
478,120,121206,2,0,L|442:129,1,37.5,4|8,3:0|0:0,0:0:0:0:
327,192,121379,6,0,B|373:168|373:168|202:121,1,194.999991073609,8|8,0:0|0:0,0:0:0:0:
236,130,122068,1,8,0:0:0:0:
206,14,122241,1,2,0:0:0:0:
115,94,122413,1,8,0:0:0:0:
151,301,122758,6,0,B|197:277|197:277|26:230,1,194.999991073609,8|8,0:0|0:0,0:0:0:0:
222,275,123275,1,8,0:0:0:0:
38,362,123620,1,8,0:0:0:0:
33,231,123793,1,8,0:0:0:0:
297,209,124137,6,0,B|251:185|251:185|422:138,1,194.999991073609,8|8,0:0|0:0,0:0:0:0:
388,147,124827,1,8,0:0:0:0:
415,25,125000,1,2,0:0:0:0:
294,60,125172,1,8,0:0:0:0:
483,314,125517,5,8,0:0:0:0:
369,278,125689,1,8,0:0:0:0:
369,278,126034,1,8,0:0:0:0:
255,314,126206,1,8,0:0:0:0:
255,314,126551,1,8,0:0:0:0:
139,278,126724,1,8,0:0:0:0:
29,314,126896,6,0,L|21:218,1,75,2|2,0:0|2:0,0:0:0:0:
148,202,127241,1,8,0:0:0:0:
154,127,127413,1,2,2:0:0:0:
294,164,127586,6,0,L|302:260,1,75,2|2,0:0|2:0,0:0:0:0:
436,251,127931,1,8,0:0:0:0:
430,326,128103,1,2,2:0:0:0:
501,195,128275,6,0,L|509:99,1,75,2|2,0:0|2:0,0:0:0:0:
356,108,128620,1,8,0:0:0:0:
362,33,128793,1,2,2:0:0:0:
220,77,128965,6,0,L|212:-19,1,75,2|2,0:0|2:0,0:0:0:0:
76,128,129310,1,8,0:0:0:0:
70,53,129482,1,2,2:0:0:0:
41,199,129655,6,0,L|-15:203,3,37.5,0|0|0|0,0:0|0:0|0:0|0:0,0:0:0:0:
95,257,130000,2,0,L|132:253,1,37.5,0|0,0:0|0:0,0:0:0:0:
169,186,130172,2,0,L|206:182,1,37.5,0|0,0:0|0:0,0:0:0:0:
260,239,130344,2,0,L|297:235,1,37.5,0|0,0:0|0:0,0:0:0:0:
337,171,130517,2,0,L|374:167,1,37.5,0|0,3:1|0:0,0:0:0:0:
429,107,130689,5,0,0:0:0:0:
425,80,130775,1,0,0:0:0:0:
415,56,130862,1,0,0:0:0:0:
402,33,130948,1,0,0:0:0:0:
381,15,131034,1,0,2:0:0:0:
78,155,131551,6,0,L|50:152,3,25,0|0|0|2,0:0|0:0|0:0|0:0,0:0:0:0:
193,173,131896,1,2,0:0:0:0:
193,173,131982,1,0,0:0:0:0:
193,173,132068,1,8,3:0:0:0:
122,261,132241,1,8,0:0:0:0:
266,272,132413,6,0,B|321:276|321:276|356:324,1,112.500004291535,2|2,0:0|0:0,0:0:0:0:
257,253,132931,1,0,0:0:0:0:
447,255,133103,2,0,P|467:215|474:170,1,89.9999972534181,8|0,0:0|0:0,0:0:0:0:
338,56,133448,1,0,0:0:0:0:
364,179,133620,1,2,0:0:0:0:
461,63,133793,6,0,L|391:56,1,44.999998626709,2|0,0:0|0:0,0:0:0:0:
307,126,133965,2,0,L|243:155,1,44.999998626709,0|0,0:0|0:0,0:0:0:0:
167,172,134137,2,0,P|187:132|194:87,1,89.9999972534181,2|0,0:0|0:0,0:0:0:0:
46,9,134482,2,0,P|26:49|19:94,1,89.9999972534181,8|0,0:0|0:0,0:0:0:0:
42,234,134827,2,0,L|82:215,1,44.999998626709,0|0,0:0|0:0,0:0:0:0:
155,183,135000,1,0,0:0:0:0:
92,295,135172,6,0,B|144:267|144:267|223:296|223:296|247:359,1,209.999993591309,2|2,0:0|0:0,0:0:0:0:
151,367,135689,1,0,0:0:0:0:
332,352,135862,2,0,P|376:345|416:325,1,89.9999972534181,8|0,0:0|0:0,0:0:0:0:
315,153,136206,1,2,0:0:0:0:
306,276,136379,1,2,0:0:0:0:
410,223,136551,6,0,L|366:227,1,44.999998626709,2|0,0:0|0:0,0:0:0:0:
327,74,136724,2,0,L|372:70,1,44.999998626709,0|0,0:0|0:0,0:0:0:0:
481,137,136896,2,0,L|392:145,1,89.9999972534181,2|0,0:0|0:0,0:0:0:0:
193,165,137241,1,8,0:0:0:0:
315,153,137413,1,2,0:0:0:0:
315,153,137500,1,0,2:0:0:0:
315,153,137586,1,2,3:0:0:0:
246,57,137758,1,8,0:0:0:0:
371,70,137931,6,0,B|323:65|323:65|366:29|366:29|479:41,1,209.999993591309,2|2,0:0|0:0,0:0:0:0:
355,7,138448,1,0,0:0:0:0:
446,144,138620,2,0,P|443:188|427:230,1,89.9999972534181,8|0,0:0|0:0,0:0:0:0:
321,367,138965,1,2,0:0:0:0:
336,240,139137,1,2,3:0:0:0:
430,324,139310,6,0,L|378:319,1,44.999998626709,2|0,0:0|0:0,0:0:0:0:
274,284,139482,2,0,L|222:288,1,44.999998626709,0|0,0:0|0:0,0:0:0:0:
131,350,139655,2,0,P|154:287|146:220,1,134.999995880127,2|0,0:0|0:0,0:0:0:0:
139,197,140000,1,8,0:0:0:0:
18,209,140172,2,0,L|65:204,1,44.999998626709,0|0,0:0|0:0,0:0:0:0:
139,196,140344,2,0,P|161:133|153:67,1,134.999995880127,2|0,0:0|0:0,0:0:0:0:
144,49,140689,5,2,0:0:0:0:
239,85,140862,1,0,0:0:0:0:
88,120,141034,1,2,0:0:0:0:
231,173,141206,1,0,0:0:0:0:
107,274,141379,2,0,L|15:282,2,89.9999972534181,8|0|2,0:0|0:0|0:0,0:0:0:0:
231,173,141896,6,0,L|235:220,1,44.999998626709,2|0,0:0|0:0,0:0:0:0:
291,316,142068,2,0,L|287:271,1,44.999998626709,2|0,3:0|0:0,0:0:0:0:
349,194,142241,2,0,L|352:238,1,44.999998626709,2|0,3:0|0:0,0:0:0:0:
430,278,142413,2,0,L|426:233,1,44.999998626709,2|0,3:0|0:0,0:0:0:0:
501,233,142586,1,2,3:0:0:0:
429,41,142931,6,0,L|468:44,3,29.9999990844727,0|0|0|0,3:0|3:2|3:2|1:0,0:0:0:0:
334,34,143275,1,0,0:0:0:0:
437,143,143448,6,0,B|382:147|382:147|347:194,1,112.500004291535,2|2,0:0|0:0,0:0:0:0:
445,123,143965,1,0,0:0:0:0:
268,120,144137,2,0,P|201:123|143:157,1,134.999995880127,10|2,2:0|2:0,0:0:0:0:
125,174,144482,1,2,0:0:0:0:
117,303,144655,1,2,0:0:0:0:
56,209,144827,6,0,L|60:264,1,44.999998626709,0|8,0:0|2:0,0:0:0:0:
182,227,145000,2,0,L|186:282,1,44.999998626709,0|0,0:0|2:0,0:0:0:0:
239,364,145172,2,0,P|255:299|299:249,1,134.999995880127,2|0,0:0|0:0,0:0:0:0:
318,235,145517,2,0,L|314:190,1,44.999998626709,8|0,0:0|0:0,0:0:0:0:
389,242,145689,2,0,L|393:287,1,44.999998626709,0|0,2:0|0:0,0:0:0:0:
457,359,145862,2,0,P|473:294|517:244,1,134.999995880127,2|0,0:0|0:0,0:0:0:0:
512,221,146206,6,0,B|466:190|466:190|476:103|476:103|405:63,1,209.999993591309,0|0,0:0|0:0,0:0:0:0:
502,94,146724,1,0,0:0:0:0:
372,195,146896,2,0,P|305:195|245:165,1,134.999995880127,10|2,2:0|2:0,0:0:0:0:
228,150,147241,1,2,0:0:0:0:
109,206,147413,1,2,0:0:0:0:
221,237,147586,2,0,L|166:241,1,44.999998626709,0|0,0:0|0:0,0:0:0:0:
155,129,147758,2,0,L|111:133,1,44.999998626709,0|0,0:0|2:0,0:0:0:0:
19,215,147931,6,0,P|37:150|23:85,1,134.999995880127,2|0,0:0|0:0,0:0:0:0:
14,68,148275,1,8,0:0:0:0:
127,7,148448,1,2,0:0:0:0:
127,7,148534,1,2,0:0:0:0:
127,7,148620,1,2,0:0:0:0:
155,129,148793,1,8,0:0:0:0:
263,39,148965,6,0,B|313:7|313:7|285:103|285:103|304:169,1,209.999993591309,2|2,0:0|0:0,0:0:0:0:
246,51,149482,1,0,0:0:0:0:
415,73,149655,2,0,P|437:135|430:202,1,134.999995880127,10|2,2:0|2:0,0:0:0:0:
416,215,150000,1,2,0:0:0:0:
456,345,150172,1,2,0:0:0:0:
512,269,150344,2,0,L|452:274,1,44.999998626709,0|0,0:0|0:0,0:0:0:0:
384,315,150517,2,0,L|324:320,1,44.999998626709,0|0,0:0|0:0,0:0:0:0:
260,371,150689,6,0,P|264:304|240:241,1,134.999995880127,2|0,0:0|0:0,0:0:0:0:
227,226,151034,2,0,P|166:254|124:307,1,134.999995880127,8|0,0:0|0:0,0:0:0:0:
113,323,151379,2,0,P|62:279|35:217,1,134.999995880127,0|0,0:0|0:0,0:0:0:0:
35,197,151724,5,2,0:0:0:0:
165,154,151896,1,0,0:0:0:0:
35,111,152068,1,2,0:0:0:0:
117,224,152241,1,0,0:0:0:0:
117,85,152413,2,0,L|320:67,1,179.999994506836,10|2,2:0|0:0,0:0:0:0:
478,206,152931,6,0,L|474:253,1,44.999998626709,2|0,0:0|0:0,0:0:0:0:
418,349,153103,2,0,L|422:304,1,44.999998626709,8|0,0:0|0:0,0:0:0:0:
360,227,153275,2,0,L|357:271,1,44.999998626709,2|0,0:0|0:0,0:0:0:0:
279,311,153448,2,0,L|283:266,1,44.999998626709,2|0,0:0|0:0,0:0:0:0:
211,237,153620,2,0,L|207:282,1,44.999998626709,8|0,0:0|0:0,0:0:0:0:
132,253,153793,1,2,0:0:0:0:
224,162,153965,1,2,0:0:0:0:
224,162,154051,1,2,0:0:0:0:
224,162,154137,1,8,0:0:0:0:
150,58,154310,5,6,0:0:0:0:
