osu file format v14

[General]
AudioFilename: audio.mp3
AudioLeadIn: 0
PreviewTime: 87588
Countdown: 0
SampleSet: Soft
StackLeniency: 0.6
Mode: 0
LetterboxInBreaks: 0
WidescreenStoryboard: 1

[Editor]
Bookmarks: 11034,22068,33103,44137,49655,52413,53793,55172,66206,77241,88275,99310,110344,115174,121379,126898,129657,131036,132413,143448,152931,153103,153275,153448,153620,153793,153965,154137,154310,154482
DistanceSpacing: 1
BeatDivisor: 2
GridSize: 4
TimelineZoom: 1.8

[Metadata]
Title:Stratos
TitleUnicode:Stratos
Artist:Pandize
ArtistUnicode:Pandize
Creator:Mun
Version:Normal
Source:
Tags:Pandize Drum and Bass DnB EDM Electronic Bandi Yaspo
BeatmapID:1602996
BeatmapSetID:717623

[Difficulty]
HPDrainRate:3
CircleSize:3
OverallDifficulty:3
ApproachRate:4
SliderMultiplier:1
SliderTickRate:1

[Events]
//Background and Video events
0,0,"mun.jpg",0,0
//Break Periods
2,11234,16611
2,77441,85576
2,110352,120059
//Storyboard Layer 0 (Background)
//Storyboard Layer 1 (Fail)
//Storyboard Layer 2 (Pass)
//Storyboard Layer 3 (Foreground)
//Storyboard Sound Samples

[TimingPoints]
0,344.827586206897,4,2,1,100,1,0
0,-100,4,2,1,100,0,0
10342,-100,4,2,1,20,0,0
10515,-100,4,2,1,50,0,0
11032,-100,4,2,1,40,0,0
16551,-100,4,1,1,40,0,0
20517,-100,4,2,1,40,0,0
22066,-100,4,2,1,60,0,0
33101,-100,4,1,1,75,0,0
33103,-100,4,2,1,75,0,0
44137,-100,4,1,1,75,0,0
52411,-100,4,1,1,20,0,0
52584,-100,4,1,1,25,0,0
52756,-100,4,1,1,30,0,0
53101,-100,4,1,1,40,0,0
53446,-100,4,1,1,50,0,0
53618,-100,4,1,1,55,0,0
53791,-100,4,1,1,80,0,0
53793,-100,4,2,1,40,0,0
54310,-100,4,1,1,80,0,0
55172,-100,4,1,1,80,0,1
66206,-100,4,1,1,80,0,0
66551,-100,4,1,1,80,0,1
77239,-100,4,2,1,50,0,1
77241,-100,4,2,1,50,0,0
86894,-100,4,1,1,80,0,0
88620,-100,4,1,1,80,0,1
99310,-100,4,1,1,80,0,0
99655,-100,4,1,1,80,0,1
110342,-100,4,2,1,80,0,1
110344,-100,4,2,1,80,0,0
121377,-100,4,1,1,80,0,0
129653,-100,4,1,1,20,0,0
129825,-100,4,1,1,25,0,0
129998,-100,4,1,1,30,0,0
130170,-100,4,1,1,35,0,0
130342,-100,4,1,1,40,0,0
130515,-100,4,1,1,45,0,0
130687,-100,4,1,1,50,0,0
130860,-100,4,1,1,55,0,0
131032,-100,4,1,1,80,0,0
132758,-100,4,1,1,80,0,1
154482,-100,4,1,1,80,0,0
154827,-100,4,1,1,80,0,0

[Colours]
Combo1 : 128,128,255
Combo2 : 0,98,196
Combo3 : 78,186,111
Combo4 : 131,86,186

[HitObjects]
49,131,0,6,0,P|106:116|159:130,1,100,0|8,0:0|0:0,0:0:0:0:
145,123,1034,1,8,0:0:0:0:
205,202,1379,2,0,P|262:217|315:203,1,100,0|8,0:0|0:0,0:0:0:0:
301,210,2413,1,8,0:0:0:0:
388,160,2758,6,0,P|403:217|389:270,1,100,0|8,0:0|0:0,0:0:0:0:
396,256,3792,1,8,0:0:0:0:
339,338,4137,6,0,P|282:353|229:339,1,100,0|8,0:0|0:0,0:0:0:0:
192,258,4827,2,0,P|135:243|82:257,1,100,0|8,0:0|0:0,0:0:0:0:
6,296,5517,6,0,L|10:197,1,100,0|8,0:0|0:0,0:0:0:0:
10,196,6551,1,8,0:0:0:0:
98,149,6896,2,0,L|94:50,1,100,0|8,0:0|0:0,0:0:0:0:
94,49,7930,1,8,0:0:0:0:
184,91,8275,6,0,P|246:104|297:87,1,100,0|8,0:0|0:0,0:0:0:0:
280,95,9310,1,8,0:0:0:0:
366,45,9655,6,0,B|391:73|391:73|391:138,2,100,0|10|2,0:0|0:0|0:0,0:0:0:0:
274,4,10689,1,2,0:0:0:0:
190,59,11034,1,2,0:1:0:0:
256,192,17931,12,0,20517,0:0:0:0:
160,258,22241,5,0,0:0:0:0:
273,160,22758,2,0,P|319:146|427:197,1,150,0|0,0:0|0:0,0:0:0:0:
508,294,23793,2,0,L|505:185,2,100,0|0|0,0:0|0:0|0:0,0:0:0:0:
427,353,24827,5,0,0:0:0:0:
427,353,25517,2,0,B|388:361|351:345|351:345|310:329|263:342,1,150,0|0,0:0|0:0,0:0:0:0:
312,191,26551,2,0,L|331:84,2,100,0|0|0,0:0|0:0|0:0,0:0:0:0:
211,188,27586,5,0,0:0:0:0:
211,188,28275,2,0,L|182:338,1,150,0|0,0:0|0:0,0:0:0:0:
314,263,29310,2,0,P|336:218|337:169,2,100,0|0|0,0:0|0:0|0:0,0:0:0:0:
211,188,30344,5,0,0:0:0:0:
211,188,31034,2,0,B|145:191|145:191|131:199|131:199|46:205,2,150,0|0|0,0:0|0:0|0:0,0:0:0:0:
293,131,32413,1,0,0:0:0:0:
383,172,32758,1,0,0:0:0:0:
493,145,33103,6,0,B|515:196|487:241|487:241|460:288|493:355,1,200,0|2,1:0|3:0,0:0:0:0:
390,369,34137,1,8,1:0:0:0:
302,319,34482,1,0,3:0:0:0:
211,361,34827,2,0,P|155:370|89:352,2,100,8|0|8,1:0|3:0|0:0,0:0:0:0:
249,268,35862,6,0,B|202:223|202:223|50:224,1,200,0|2,1:0|3:0,0:0:0:0:
105,131,36896,1,8,1:0:0:0:
155,44,37241,1,2,0:1:0:0:
239,98,37586,2,0,P|295:107|361:89,2,100,8|0|8,1:0|3:0|0:0,0:0:0:0:
155,44,38620,6,0,L|162:264,1,200,0|2,1:0|0:3,0:0:0:0:
167,344,39655,1,8,1:0:0:0:
252,292,40000,1,0,3:0:0:0:
337,344,40344,2,0,P|410:354|458:342,2,100,8|0|8,1:0|3:0|0:2,0:0:0:0:
252,292,41379,6,0,B|228:192|228:192|260:69,1,200,0|2,3:0|3:0,0:0:0:0:
338,46,42413,1,8,1:0:0:0:
425,93,42758,2,0,L|433:199,1,100,0|8,1:0|1:0,0:0:0:0:
379,277,43448,2,0,P|316:290|281:281,1,100,8|8,3:0|3:0,0:0:0:0:
194,234,44137,6,0,P|138:226|209:334,1,300,10|8,0:0|0:0,0:0:0:0:
284,267,45517,2,0,P|366:195|470:185,1,200,8|0,0:0|0:0,0:0:0:0:
431,84,46551,1,8,0:0:0:0:
342,37,46896,6,0,B|281:78|196:45|196:45|113:14|50:62,1,300,8|8,0:0|0:0,0:0:0:0:
72,156,48275,2,0,P|112:201|111:282,1,100,8|0,0:0|0:0,0:0:0:0:
214,273,48965,2,0,P|227:225|262:190,1,100,8|8,0:0|0:0,0:0:0:0:
311,185,49482,1,2,0:0:0:0:
361,179,49655,6,0,L|356:290,1,100,2|8,0:0|0:0,0:0:0:0:
447,237,50344,2,0,P|461:217|482:203,2,50,2|0|8,0:0|0:0|0:0,0:0:0:0:
386,157,51034,2,0,P|366:91|384:43,1,100,2|8,0:0|0:0,0:0:0:0:
250,147,51724,2,0,P|184:167|165:163,1,50,2|2,0:0|0:0,0:0:0:0:
166,134,52068,2,0,P|100:114|81:118,1,50,8|0,0:0|0:0,0:0:0:0:
68,109,52413,6,0,P|54:175|83:230,1,100,2|0,0:0|0:0,0:0:0:0:
140,269,53103,1,0,0:0:0:0:
145,368,53448,1,2,0:0:0:0:
95,366,53620,1,2,0:0:0:0:
60,329,53793,5,10,0:1:0:0:
144,151,54482,2,0,P|201:138|260:159,1,100,0|4,0:0|0:3,0:0:0:0:
330,192,55172,6,0,L|331:64,1,100,0|2,0:0|0:0,0:0:0:0:
409,30,55862,2,0,P|465:74|458:186,1,150,8|0,0:0|0:0,0:0:0:0:
399,277,56896,2,0,P|344:261|277:283,1,100,2|8,0:0|0:0,0:0:0:0:
230,338,57586,1,0,0:0:0:0:
143,287,57931,6,0,L|140:167,1,100,2|2,0:0|0:0,0:0:0:0:
89,100,58620,2,0,P|151:86|236:150,1,150,8|0,0:0|0:0,0:0:0:0:
238,275,59655,2,0,P|304:283|354:255,1,100,2|8,0:0|0:0,0:0:0:0:
364,231,60172,1,0,0:0:0:0:
368,181,60344,1,2,0:0:0:0:
475,257,60689,6,0,L|479:359,1,100,2|2,0:0|0:0,0:0:0:0:
380,340,61379,2,0,B|310:336|310:336|295:328|295:328|228:325,1,150,8|0,0:0|0:0,0:0:0:0:
92,380,62413,2,0,P|72:317|90:258,2,100,2|8|0,0:0|0:0|0:0,0:0:0:0:
171,318,63448,6,0,L|177:202,1,100,2|2,0:0|0:0,0:0:0:0:
198,118,64137,2,0,P|149:120|106:145,1,100,8|2,0:0|0:0,0:0:0:0:
34,215,64827,5,0,0:0:0:0:
34,215,65172,2,0,L|41:83,1,100,0|2,0:0|0:0,0:0:0:0:
230,54,66206,6,0,P|319:82|340:73,1,100,2|2,0:0|0:0,0:0:0:0:
400,21,66896,2,0,L|373:191,2,150,10|2|2,2:0|0:0|0:0,0:0:0:0:
307,58,68275,2,0,P|252:76|187:64,1,100,8|2,0:0|0:0,0:0:0:0:
124,21,68965,5,2,0:0:0:0:
62,100,69310,1,2,0:0:0:0:
121,180,69655,2,0,P|156:269|147:328,2,150,10|0|2,2:0|0:0|0:0,0:0:0:0:
214,143,71034,2,0,L|345:136,1,100,8|2,0:0|0:0,0:0:0:0:
363,140,71551,1,0,0:0:0:0:
413,145,71724,6,0,P|414:202|379:264,1,100,2|2,0:0|0:0,0:0:0:0:
317,300,72413,2,0,B|219:280|219:280|144:311,2,150,10|2|2,2:0|0:0|0:0,0:0:0:0:
410,336,73793,2,0,P|475:347|516:330,1,100,8|0,0:0|0:0,0:0:0:0:
478,240,74482,6,0,P|455:188|466:126,1,100,2|2,0:0|0:0,0:0:0:0:
492,51,75172,2,0,L|371:56,1,100,10|2,2:0|0:0,0:0:0:0:
348,79,75689,1,0,0:1:0:0:
303,102,75862,6,0,P|281:190|341:326,1,200,0|8,0:0|0:0,0:0:0:0:
361,302,76724,1,0,0:0:0:0:
410,309,76896,2,0,P|417:273|416:251,1,50
399,212,77241,1,0,1:0:0:0:
73,238,86896,5,0,0:0:0:0:
371,308,87931,1,8,0:0:0:0:
371,308,88275,6,0,L|386:187,1,100,2|8,0:0|0:0,0:0:0:0:
338,119,88965,2,0,P|257:103|194:129,2,150,2|0|8,0:0|0:0|0:0,0:0:0:0:
425,167,90344,2,0,L|449:70,1,100,0|8,0:0|0:0,0:0:0:0:
406,43,90862,1,2,0:1:0:0:
362,19,91034,1,2,0:0:0:0:
268,105,91379,6,0,P|221:130|160:133,1,100,8|0,0:0|0:0,0:0:0:0:
79,104,92068,2,0,L|110:4,2,100,8|2|8,0:0|0:0|0:0,0:0:0:0:
57,149,92931,1,0,0:0:0:0:
39,196,93103,2,0,P|61:248|41:325,1,100,2|8,0:0|0:0,0:0:0:0:
16,381,93793,1,2,0:0:0:0:
113,361,94137,5,8,0:0:0:0:
210,336,94482,2,0,P|238:281|224:184,2,150,0|0|8,0:0|0:0|0:0,0:0:0:0:
110,326,95862,2,0,B|91:278|91:278|96:227,1,100,0|8,0:0|0:0,0:0:0:0:
103,180,96379,1,0,0:0:0:0:
106,130,96551,1,2,0:0:0:0:
75,34,96896,6,0,P|144:28|220:111,1,150,8|2,0:0|0:0,0:0:0:0:
226,120,97586,1,8,0:0:0:0:
267,208,97931,2,0,P|329:221|381:206,1,100,8|2,0:0|0:0,0:0:0:0:
441,150,98620,2,0,L|443:37,2,100,10|6|2,3:0|3:0|0:0,0:0:0:0:
383,232,99655,6,0,L|370:331,1,100,8|0,0:0|0:0,0:0:0:0:
328,359,100172,2,0,P|289:369|261:368,1,50,0|8,0:0|0:0,0:0:0:0:
223,363,100517,2,0,P|169:325|87:322,1,150,0|8,0:0|0:0,0:0:0:0:
65,224,101379,1,0,0:0:0:0:
144,148,101724,2,0,L|168:51,1,100,8|2,0:0|0:0,0:0:0:0:
255,99,102414,5,8,0:0:0:0:
303,186,102759,2,0,P|350:161|411:158,1,100,0|8,0:0|0:0,0:0:0:0:
462,230,103448,2,0,L|431:330,2,100,2|8|2,0:0|0:0|0:0,0:0:0:0:
484,184,104310,1,0,0:0:0:0:
502,138,104483,2,0,P|504:81|459:16,1,100,8|0,0:0|0:0,0:0:0:0:
387,34,105172,6,0,P|341:53|285:58,1,100,8|0,0:0|0:0,0:0:0:0:
242,46,105689,1,0,0:0:0:0:
193,36,105862,1,8,0:0:0:0:
111,93,106206,2,0,L|137:212,2,100,2|8|0,0:0|0:0|0:0,0:0:0:0:
208,117,107242,2,0,B|256:136|256:136|307:131,1,100,8|2,0:0|0:0,0:0:0:0:
403,117,107931,5,8,0:0:0:0:
498,87,108275,2,0,P|512:147|506:190,2,100,0|8|2,0:0|0:0|0:0,0:0:0:0:
419,24,109311,6,0,P|357:11|305:26,1,100,8|8,0:0|0:0,0:0:0:0:
241,77,110000,1,8,0:0:0:0:
313,159,121379,6,0,P|369:167|327:38,1,250,8|2,0:0|0:0,0:0:0:0:
211,96,122759,2,0,B|201:188|201:188|221:307,1,200,8|0,0:0|0:0,0:0:0:0:
279,373,123793,1,8,0:0:0:0:
325,284,124138,6,0,B|369:268|434:301|434:301|493:334|550:293|515:218,1,250,8|2,0:0|0:0,0:0:0:0:
360,184,125517,2,0,P|337:128|366:52,1,100,8|0,0:0|0:0,0:0:0:0:
250,50,126207,2,0,P|237:98|202:133,1,100,8|8,0:0|0:0,0:0:0:0:
101,136,126897,6,0,L|106:25,1,100,2|8,0:0|0:0,0:0:0:0:
6,28,127586,2,0,L|0:98,1,50,2|0,0:0|0:0,0:0:0:0:
3,127,127931,1,8,0:0:0:0:
40,219,128276,2,0,P|106:239|154:221,1,100,2|8,0:0|0:0,0:0:0:0:
216,292,128966,2,0,P|282:272|306:277,1,50,2|2,0:0|0:0,0:0:0:0:
295,309,129310,2,0,P|361:329|385:324,1,50,10|0,0:0|0:0,0:0:0:0:
395,331,129655,6,0,P|409:265|380:210,1,100,2|0,0:0|0:0,0:0:0:0:
349,148,130345,1,0,0:0:0:0:
324,104,130517,1,0,0:0:0:0:
323,54,130689,2,0,P|333:17|347:-5,1,50,8|0,0:0|0:0,0:0:0:0:
388,4,131035,5,0,2:0:0:0:
308,187,131724,2,0,P|252:203|193:191,1,100,2|8,0:0|3:0,0:0:0:0:
114,203,132413,5,2,0:0:0:0:
114,203,132758,2,0,L|109:345,2,100,2|8|0,0:0|0:0|0:0,0:0:0:0:
153,172,133620,1,0,0:0:0:0:
247,203,133965,1,0,0:0:0:0:
288,175,134137,2,0,L|430:180,2,100,2|8|0,0:0|0:0|0:0,0:0:0:0:
227,242,135172,5,2,0:0:0:0:
227,242,135517,2,0,B|243:294|243:294|235:358,2,100,2|8|2,0:0|0:0|0:0,0:0:0:0:
199,199,136379,2,0,P|261:200|309:169,1,100
334,153,136896,2,0,P|387:145|441:163,2,100,2|8|2,0:0|0:0|3:0,0:0:0:0:
280,237,137931,5,2,0:0:0:0:
280,237,138275,2,0,L|288:358,2,100,2|8|2,0:0|0:0|0:0,0:0:0:0:
237,210,139137,2,0,P|187:227|130:216,1,100
128,172,139655,2,0,P|158:126|157:70,2,100,2|8|2,0:0|0:0|0:0,0:0:0:0:
35,209,140689,5,2,0:0:0:0:
35,209,141034,2,0,L|42:315,2,100,2|8|2,0:0|0:0|0:0,0:0:0:0:
127,246,142068,6,0,P|188:269|252:256,1,100,2|2,3:0|3:0,0:0:0:0:
221,267,142931,2,0,P|236:342|243:354,2,50
263,241,143448,6,0,P|291:152|282:131,1,100,2|2,0:0|0:0,0:0:0:0:
212,87,144138,2,0,L|382:114,2,150,10|2|2,2:0|0:0|0:0,0:0:0:0:
115,113,145517,2,0,P|97:168|109:233,1,100,8|2,0:0|0:0,0:0:0:0:
175,272,146207,5,0,0:0:0:0:
254,334,146552,1,0,0:0:0:0:
334,275,146897,2,0,P|423:240|482:249,2,150,10|2|2,2:0|0:0|0:0,0:0:0:0:
265,202,148275,2,0,L|258:71,1,100,8|2,0:0|0:0,0:0:0:0:
267,3,148965,6,0,P|324:2|386:37,1,100,2|2,0:0|0:0,0:0:0:0:
418,101,149655,2,0,B|438:199|438:199|407:274,2,150,10|2|2,2:0|0:0|0:0,0:0:0:0:
331,151,151034,2,0,P|284:168|234:166,1,100,8|0,0:0|0:0,0:0:0:0:
146,118,151724,6,0,P|169:170|158:232,1,100,2|2,0:0|0:0,0:0:0:0:
136,307,152414,2,0,L|257:302,1,100,10|2,2:0|0:0,0:0:0:0:
322,252,153103,5,8,0:0:0:0:
349,210,153275,2,0,P|354:158|352:149,1,50,2|2,0:0|0:0,0:0:0:0:
333,115,153620,1,8,0:0:0:0:
358,71,153793,2,0,P|276:85|235:73,1,100,2|8,0:0|0:0,0:0:0:0:
225,46,154310,1,6,0:0:0:0:
