osu file format v14

[General]
AudioFilename: audio.mp3
AudioLeadIn: 0
PreviewTime: 87588
Countdown: 0
SampleSet: Soft
StackLeniency: 0.2
Mode: 0
LetterboxInBreaks: 0
WidescreenStoryboard: 0

[Editor]
Bookmarks: 11034,22068,33103,44137,49655,52413,53793,55172,66206,77241,88275,99310,110344,115174,121379,126898,129657,131036,132413,143448,152931,153103,153275,153448,153620,153793,153965,154137,154310,154482
DistanceSpacing: 1
BeatDivisor: 4
GridSize: 4
TimelineZoom: 1.8

[Metadata]
Title:Stratos
TitleUnicode:Stratos
Artist:Pandize
ArtistUnicode:Pandize
Creator:Mun
Version:Endless Sky
Source:
Tags:Pandize Drum and Bass DnB EDM Electronic Bandi Yaspo
BeatmapID:1515961
BeatmapSetID:717623

[Difficulty]
HPDrainRate:6
CircleSize:4
OverallDifficulty:9
ApproachRate:9.5
SliderMultiplier:1.93
SliderTickRate:1

[Events]
//Background and Video events
0,0,"mun.jpg",0,0
//Break Periods
//Storyboard Layer 0 (Background)
//Storyboard Layer 1 (Fail)
//Storyboard Layer 2 (Pass)
//Storyboard Layer 3 (Foreground)
//Storyboard Sound Samples

[TimingPoints]
0,344.827586206897,4,2,1,50,1,0
0,-166.666666666667,4,2,1,50,0,0
9655,-333.333333333333,4,2,1,50,0,0
10172,-333.333333333333,4,2,1,50,0,0
10342,-333.333333333333,4,2,1,20,0,0
10515,-333.333333333333,4,2,1,50,0,0
11032,-333.333333333333,4,2,1,40,0,0
11034,-500,4,2,1,40,0,0
11120,-500,4,2,1,5,0,0
13793,-500,4,2,1,40,0,0
13965,-500,4,2,1,5,0,0
15086,-500,4,2,1,40,0,0
16551,-500,4,1,1,40,0,0
16637,-500,4,2,1,5,0,0
17586,-500,4,2,0,5,0,0
17758,-333.333333333333,4,2,1,40,0,0
17931,-333.333333333333,4,2,1,5,0,0
19137,-333.333333333333,4,2,0,5,0,0
19310,-200,4,2,1,40,0,0
19396,-200,4,2,1,5,0,0
20344,-200,4,2,0,5,0,0
20517,-125,4,2,1,40,0,0
20689,-125,4,2,1,5,0,0
22066,-125,4,2,1,60,0,0
22241,-100,4,2,1,60,0,0
33101,-100,4,1,1,75,0,0
33103,-90.9090909090909,4,2,1,75,0,0
44137,-333.333333333333,4,1,1,75,0,0
44827,-83.3333333333333,4,1,1,75,0,0
44913,-83.3333333333333,4,2,1,5,0,0
45000,-166.666666666667,4,1,1,75,0,0
45517,-333.333333333333,4,1,1,75,0,0
46206,-83.3333333333333,4,1,1,75,0,0
46293,-83.3333333333333,4,2,1,5,0,0
46379,-166.666666666667,4,1,1,75,0,0
46896,-333.333333333333,4,1,1,75,0,0
47586,-83.3333333333333,4,1,1,75,0,0
47672,-83.3333333333333,4,2,1,5,0,0
47758,-166.666666666667,4,1,1,75,0,0
48275,-83.3333333333333,4,1,1,75,0,0
48362,-83.3333333333333,4,2,1,5,0,0
48448,-166.666666666667,4,1,1,75,0,0
48793,-83.3333333333333,4,1,1,75,0,0
48879,-83.3333333333333,4,2,1,5,0,0
48965,-166.666666666667,4,1,1,75,0,0
49310,-83.3333333333333,4,1,1,75,0,0
49396,-83.3333333333333,4,2,1,5,0,0
49482,-83.3333333333333,4,1,1,75,0,0
49568,-83.3333333333333,4,2,1,5,0,0
49655,-71.4285714285714,4,1,1,75,0,0
49741,-83.3333333333333,4,2,1,5,0,0
49827,-500,4,1,1,75,0,0
49913,-83.3333333333333,4,2,1,5,0,0
50000,-71.4285714285714,4,1,1,75,0,0
50086,-83.3333333333333,4,2,1,5,0,0
50172,-500,4,1,1,75,0,0
50258,-83.3333333333333,4,2,1,5,0,0
50344,-71.4285714285714,4,1,1,75,0,0
50431,-83.3333333333333,4,2,1,5,0,0
50517,-500,4,1,1,75,0,0
50603,-83.3333333333333,4,2,1,5,0,0
50689,-71.4285714285714,4,1,1,75,0,0
50775,-83.3333333333333,4,2,1,5,0,0
50862,-500,4,1,1,75,0,0
51034,-71.4285714285714,4,1,1,75,0,0
51120,-83.3333333333333,4,2,1,5,0,0
51206,-500,4,1,1,75,0,0
51293,-83.3333333333333,4,2,1,5,0,0
51379,-71.4285714285714,4,1,1,75,0,0
51465,-83.3333333333333,4,2,1,5,0,0
51551,-500,4,1,1,75,0,0
51637,-83.3333333333333,4,2,1,5,0,0
51724,-71.4285714285714,4,1,1,75,0,0
51810,-83.3333333333333,4,2,1,5,0,0
51896,-500,4,1,1,75,0,0
51982,-83.3333333333333,4,2,1,5,0,0
52068,-71.4285714285714,4,1,1,75,0,0
52155,-83.3333333333333,4,2,1,5,0,0
52241,-500,4,1,1,75,0,0
52327,-83.3333333333333,4,2,1,5,0,0
52411,-500,4,1,1,20,0,0
52413,-71.4285714285714,4,1,1,20,0,0
52584,-71.4285714285714,4,1,1,25,0,0
52756,-71.4285714285714,4,1,1,30,0,0
52929,-71.4285714285714,4,1,1,35,0,0
53101,-71.4285714285714,4,1,1,40,0,0
53273,-71.4285714285714,4,1,1,45,0,0
53446,-71.4285714285714,4,1,1,50,0,0
53618,-71.4285714285714,4,1,1,55,0,0
53791,-71.4285714285714,4,1,1,80,0,0
53793,-200,4,2,1,40,0,0
54310,-100,4,1,1,80,0,0
54568,-83.3333333333333,4,2,1,5,0,0
54655,-100,4,1,1,80,0,0
54827,-50,4,1,1,80,0,0
54913,-83.3333333333333,4,2,1,5,0,0
55000,-500,4,1,1,80,0,0
55086,-500,4,2,1,5,0,0
55172,-76.9230769230769,4,1,1,80,0,1
55431,-500,4,2,1,5,0,1
55517,-100,4,1,1,80,0,1
55603,-500,4,2,1,5,0,1
55689,-100,4,1,1,80,0,1
55775,-500,4,2,1,5,0,1
55862,-71.4285714285714,4,1,1,80,0,1
56120,-500,4,2,1,5,0,1
56206,-100,4,1,1,80,0,1
56293,-500,4,2,1,5,0,1
56379,-100,4,1,1,80,0,1
56465,-500,4,2,1,5,0,1
56551,-125,4,1,1,80,0,1
56637,-500,4,2,1,5,0,1
56724,-125,4,1,1,80,0,1
56810,-500,4,2,1,5,0,1
56896,-125,4,1,1,80,0,1
57155,-500,4,2,1,5,0,1
57241,-100,4,1,1,80,0,1
57327,-500,4,2,1,5,0,1
57413,-100,4,1,1,80,0,1
57500,-500,4,2,1,5,0,1
57586,-71.4285714285714,4,1,1,80,0,1
57844,-500,4,2,1,5,0,1
57931,-76.9230769230769,4,1,1,80,0,1
58189,-500,4,2,1,5,0,1
58275,-100,4,1,1,80,0,1
58362,-500,4,2,1,5,0,1
58448,-100,4,1,1,80,0,1
58534,-500,4,2,1,5,0,1
58620,-71.4285714285714,4,1,1,80,0,1
58879,-500,4,2,1,5,0,1
58965,-100,4,1,1,80,0,1
59051,-500,4,2,1,5,0,1
59137,-100,4,1,1,80,0,1
59224,-500,4,2,1,5,0,1
59310,-125,4,1,1,80,0,1
59396,-500,4,2,1,5,0,1
59482,-125,4,1,1,80,0,1
59568,-500,4,2,1,5,0,1
59655,-83.3333333333333,4,1,1,80,0,1
59913,-500,4,2,1,5,0,1
60000,-500,4,1,1,80,0,1
60689,-66.6666666666667,4,1,1,80,0,1
60948,-500,4,2,1,5,0,1
61034,-100,4,1,1,80,0,1
61120,-500,4,2,1,5,0,1
61206,-100,4,1,1,80,0,1
61293,-500,4,2,1,5,0,1
61379,-83.3333333333333,4,1,1,80,0,1
61637,-500,4,2,1,5,0,1
61724,-100,4,1,1,80,0,1
61810,-500,4,2,1,5,0,1
61896,-100,4,1,1,80,0,1
61982,-500,4,2,1,5,0,1
62068,-125,4,1,1,80,0,1
62155,-500,4,2,1,5,0,1
62241,-125,4,1,1,80,0,1
62327,-500,4,2,1,5,0,1
62413,-83.3333333333333,4,1,1,80,0,1
63017,-500,4,2,1,5,0,1
63103,-83.3333333333333,4,1,1,80,0,1
63362,-500,4,2,1,5,0,1
63448,-83.3333333333333,4,1,1,80,0,1
63793,-100,4,1,1,80,0,1
63879,-500,4,2,1,5,0,1
63965,-100,4,1,1,80,0,1
64051,-500,4,2,1,5,0,1
64137,-83.3333333333333,4,1,1,80,0,1
64396,-500,4,2,1,5,0,1
64482,-83.3333333333333,4,1,1,80,0,1
64655,-100,4,1,1,80,0,1
64741,-500,4,2,1,5,0,1
64827,-66.6666666666667,4,1,1,80,0,1
64913,-500,4,2,1,5,0,1
65000,-66.6666666666667,4,1,1,80,0,1
65086,-500,4,2,1,5,0,1
65172,-66.6666666666667,4,1,1,80,0,1
65258,-500,4,2,1,5,0,1
65344,-66.6666666666667,4,1,1,80,0,1
65431,-500,4,2,1,5,0,1
65517,-100,4,1,1,80,0,1
65603,-500,4,2,1,5,0,1
65689,-100,4,1,1,80,0,1
65862,-50,4,1,1,80,0,1
65948,-500,4,2,1,5,0,1
66034,-500,4,1,1,80,0,1
66120,-500,4,2,1,5,0,1
66206,-76.9230769230769,4,1,1,80,0,1
66465,-500,4,2,1,5,0,1
66551,-100,4,1,1,80,0,1
66637,-500,4,2,1,5,0,1
66724,-100,4,1,1,80,0,1
66810,-500,4,2,1,5,0,1
66896,-100,4,1,1,80,0,1
67327,-500,4,2,1,5,0,1
67413,-100,4,1,1,80,0,1
67672,-500,4,2,1,5,0,1
67758,-100,4,1,1,80,0,1
67844,-500,4,2,1,5,0,1
67931,-100,4,1,1,80,0,1
68362,-500,4,2,1,5,0,1
68448,-100,4,1,1,80,0,1
68534,-500,4,2,1,5,0,1
68620,-100,4,1,1,80,0,1
68879,-500,4,2,1,5,0,1
68965,-100,4,1,1,80,0,1
69224,-500,4,2,1,5,0,1
69310,-100,4,1,1,80,0,1
69396,-500,4,2,1,5,0,1
69482,-100,4,1,1,80,0,1
69568,-500,4,2,1,5,0,1
69655,-100,4,1,1,80,0,1
70258,-500,4,2,1,5,0,1
70344,-100,4,1,1,80,0,1
70431,-500,4,2,1,5,0,1
70517,-100,4,1,1,80,0,1
70603,-500,4,2,1,5,0,1
70689,-100,4,1,1,80,0,1
71724,-66.6666666666667,4,1,1,80,0,1
71982,-500,4,2,1,5,0,1
72068,-100,4,1,1,80,0,1
72155,-500,4,2,1,5,0,1
72241,-100,4,1,1,80,0,1
72327,-500,4,2,1,5,0,1
72413,-100,4,1,1,80,0,1
72844,-500,4,2,1,5,0,1
72931,-100,4,1,1,80,0,1
73189,-500,4,2,1,5,0,1
73275,-100,4,1,1,80,0,1
73362,-500,4,2,1,5,0,1
73448,-100,4,1,1,80,0,1
74051,-500,4,2,1,5,0,1
74137,-100,4,1,1,80,0,1
74396,-500,4,2,1,5,0,1
74482,-100,4,1,1,80,0,1
74568,-500,4,2,1,5,0,1
74655,-100,4,1,1,80,0,1
74741,-500,4,2,1,5,0,1
74827,-100,4,1,1,80,0,1
74913,-500,4,2,1,5,0,1
75000,-100,4,1,1,80,0,1
75086,-500,4,2,1,5,0,1
75172,-100,4,1,1,80,0,1
75775,-500,4,2,1,5,0,1
75862,-66.6666666666667,4,1,1,80,0,1
75948,-500,4,2,1,5,0,1
76034,-66.6666666666667,4,1,1,80,0,1
76120,-500,4,2,1,5,0,1
76206,-66.6666666666667,4,1,1,80,0,1
76293,-500,4,2,1,5,0,1
76379,-66.6666666666667,4,1,1,80,0,1
76465,-500,4,2,1,5,0,1
76551,-66.6666666666667,4,1,1,80,0,1
77155,-500,4,2,1,5,0,1
77239,-66.6666666666667,4,2,1,50,0,1
77241,-250,4,2,1,50,0,0
81293,-66.6666666666667,4,2,1,50,0,0
81379,-250,4,2,1,50,0,0
86894,-250,4,1,1,80,0,0
87931,-500,4,1,1,80,0,0
88189,-500,4,2,0,5,0,0
88275,-66.6666666666667,4,1,1,80,0,0
88534,-66.6666666666667,4,2,0,5,0,0
88620,-71.4285714285714,4,1,1,80,0,1
90689,-100,4,1,1,80,0,1
91379,-66.6666666666667,4,1,1,80,0,1
93103,-100,4,1,1,80,0,1
93189,-100,4,2,0,5,0,1
93275,-100,4,1,1,80,0,1
93534,-100,4,2,0,5,0,1
93620,-100,4,1,1,80,0,1
93706,-100,4,2,0,5,0,1
93793,-66.6666666666667,4,1,1,80,0,1
94137,-71.4285714285714,4,1,1,80,0,1
96206,-100,4,1,1,80,0,1
96896,-71.4285714285714,4,1,1,80,0,1
99310,-66.6666666666667,4,1,1,80,0,0
99568,-66.6666666666667,4,2,0,5,0,0
99655,-58.8235294117647,4,1,1,80,0,1
101724,-100,4,1,1,80,0,1
102413,-58.8235294117647,4,1,1,80,0,1
104137,-100,4,1,1,80,0,1
104224,-100,4,2,0,5,0,1
104310,-100,4,1,1,80,0,1
104568,-100,4,2,0,5,0,1
104655,-100,4,1,1,80,0,1
104827,-66.6666666666667,4,1,1,80,0,1
105086,-66.6666666666667,4,2,0,5,0,1
105172,-58.8235294117647,4,1,1,80,0,1
107241,-100,4,1,1,80,0,1
107931,-58.8235294117647,4,1,1,80,0,1
110342,-58.8235294117647,4,2,1,80,0,1
110344,-166.666666666667,4,2,1,50,0,0
120517,-100,4,2,1,80,0,0
121377,-100,4,1,1,80,0,0
121379,-500,4,1,1,80,0,0
122068,-125,4,1,1,80,0,0
122155,-125,4,2,0,5,0,0
122241,-250,4,1,1,80,0,0
122758,-500,4,1,1,80,0,0
123620,-125,4,1,1,80,0,0
123706,-125,4,2,0,5,0,0
123793,-125,4,1,1,80,0,0
123879,-125,4,2,0,5,0,0
124137,-500,4,1,1,80,0,0
124826,-125,4,1,1,80,0,0
124913,-125,4,2,0,5,0,0
124999,-250,4,1,1,80,0,0
125517,-125,4,1,1,80,0,0
125603,-125,4,2,0,5,0,0
125689,-250,4,1,1,80,0,0
126034,-125,4,1,1,80,0,0
126120,-125,4,2,0,5,0,0
126206,-250,4,1,1,80,0,0
126551,-125,4,1,1,80,0,0
126896,-71.4285714285714,4,1,1,80,0,0
126982,-71.4285714285714,4,2,0,5,0,0
127068,-500,4,1,1,80,0,0
127155,-71.4285714285714,4,2,0,5,0,0
127241,-71.4285714285714,4,1,1,80,0,0
127327,-71.4285714285714,4,2,0,5,0,0
127413,-500,4,1,1,80,0,0
127500,-71.4285714285714,4,2,0,5,0,0
127586,-71.4285714285714,4,1,1,80,0,0
127672,-71.4285714285714,4,2,0,5,0,0
127758,-500,4,1,1,80,0,0
127844,-71.4285714285714,4,2,0,5,0,0
127931,-71.4285714285714,4,1,1,80,0,0
128017,-71.4285714285714,4,2,0,5,0,0
128103,-500,4,1,1,80,0,0
128189,-71.4285714285714,4,2,0,5,0,0
128275,-71.4285714285714,4,1,1,80,0,0
128362,-71.4285714285714,4,2,0,5,0,0
128447,-500,4,1,1,80,0,0
128534,-71.4285714285714,4,2,0,5,0,0
128620,-71.4285714285714,4,1,1,80,0,0
128706,-71.4285714285714,4,2,0,5,0,0
128792,-500,4,1,1,80,0,0
128879,-71.4285714285714,4,2,0,5,0,0
128965,-71.4285714285714,4,1,1,80,0,0
129051,-71.4285714285714,4,2,0,5,0,0
129137,-500,4,1,1,80,0,0
129224,-71.4285714285714,4,2,0,5,0,0
129310,-71.4285714285714,4,1,1,80,0,0
129396,-71.4285714285714,4,2,0,5,0,0
129482,-500,4,1,1,80,0,0
129568,-71.4285714285714,4,2,0,5,0,0
129653,-500,4,1,1,20,0,0
129655,-100,4,1,1,20,0,0
129825,-100,4,1,1,25,0,0
129998,-100,4,1,1,30,0,0
130170,-100,4,1,1,35,0,0
130342,-100,4,1,1,40,0,0
130515,-100,4,1,1,45,0,0
130687,-100,4,1,1,50,0,0
130860,-100,4,1,1,55,0,0
131032,-100,4,1,1,80,0,0
131810,-71.4285714285714,4,2,0,5,0,0
131896,-100,4,1,1,80,0,0
132068,-66.6666666666667,4,1,1,80,0,0
132241,-500,4,1,1,80,0,0
132327,-500,4,2,0,5,0,0
132413,-76.9230769230769,4,1,1,80,0,0
132758,-66.6666666666667,4,1,1,80,0,1
132844,-66.6666666666667,4,2,0,5,0,1
132931,-66.6666666666667,4,1,1,80,0,1
133017,-66.6666666666667,4,2,0,5,0,1
133104,-66.6666666666667,4,1,1,80,0,1
133189,-66.6666666666667,4,2,0,5,0,1
133276,-66.6666666666667,4,1,1,80,0,1
133362,-66.6666666666667,4,2,0,5,0,1
133449,-66.6666666666667,4,1,1,80,0,1
133534,-66.6666666666667,4,2,0,5,0,1
133621,-66.6666666666667,4,1,1,80,0,1
133706,-66.6666666666667,4,2,0,5,0,1
133793,-66.6666666666667,4,1,1,80,0,1
134051,-66.6666666666667,4,2,0,5,0,1
134137,-133.333333333333,4,1,1,80,0,1
134482,-66.6666666666667,4,1,1,80,0,1
134568,-66.6666666666667,4,2,0,5,0,1
134655,-66.6666666666667,4,1,1,80,0,1
134741,-66.6666666666667,4,2,0,5,0,1
134828,-66.6666666666667,4,1,1,80,0,1
134913,-66.6666666666667,4,2,0,5,0,1
135000,-66.6666666666667,4,1,1,80,0,1
135086,-66.6666666666667,4,2,0,5,0,1
135172,-76.9230769230769,4,1,1,80,0,1
135431,-76.9230769230769,4,2,0,5,0,1
135517,-66.6666666666667,4,1,1,80,0,1
135603,-66.6666666666667,4,2,0,5,0,1
135690,-66.6666666666667,4,1,1,80,0,1
135775,-66.6666666666667,4,2,0,5,0,1
135862,-66.6666666666667,4,1,1,80,0,1
135948,-66.6666666666667,4,2,0,5,0,1
136035,-66.6666666666667,4,1,1,80,0,1
136120,-66.6666666666667,4,2,0,5,0,1
136207,-66.6666666666667,4,1,1,80,0,1
136293,-66.6666666666667,4,2,0,5,0,1
136380,-66.6666666666667,4,1,1,80,0,1
136465,-66.6666666666667,4,2,0,5,0,1
136552,-66.6666666666667,4,1,1,80,0,1
136896,-133.333333333333,4,1,1,80,0,1
137241,-66.6666666666667,4,1,1,80,0,1
137758,-500,4,1,1,80,0,1
137844,-500,4,2,0,5,0,1
137931,-66.6666666666667,4,1,1,80,0,1
138189,-66.6666666666667,4,2,0,5,0,1
138276,-66.6666666666667,4,1,1,80,0,1
138362,-66.6666666666667,4,2,0,5,0,1
138449,-66.6666666666667,4,1,1,80,0,1
138534,-66.6666666666667,4,2,0,5,0,1
138621,-66.6666666666667,4,1,1,80,0,1
138706,-66.6666666666667,4,2,0,5,0,1
138793,-66.6666666666667,4,1,1,80,0,1
138879,-66.6666666666667,4,2,0,5,0,1
138966,-66.6666666666667,4,1,1,80,0,1
139051,-66.6666666666667,4,2,0,5,0,1
139138,-66.6666666666667,4,1,1,80,0,1
139224,-66.6666666666667,4,2,0,5,0,1
139311,-66.6666666666667,4,1,1,80,0,1
139568,-66.6666666666667,4,2,0,5,0,1
139655,-133.333333333333,4,1,1,80,0,1
140000,-66.6666666666667,4,1,1,80,0,1
140086,-66.6666666666667,4,2,0,5,0,1
140173,-66.6666666666667,4,1,1,80,0,1
140258,-66.6666666666667,4,2,0,5,0,1
140345,-66.6666666666667,4,1,1,80,0,1
140431,-66.6666666666667,4,2,0,5,0,1
140518,-66.6666666666667,4,1,1,80,0,1
140603,-66.6666666666667,4,2,0,5,0,1
140689,-100,4,1,1,80,0,1
140775,-100,4,2,0,5,0,1
140862,-100,4,1,1,80,0,1
140948,-100,4,2,0,5,0,1
141034,-66.6666666666667,4,1,1,80,0,1
141120,-66.6666666666667,4,2,0,5,0,1
141207,-66.6666666666667,4,1,1,80,0,1
141293,-66.6666666666667,4,2,0,5,0,1
141380,-66.6666666666667,4,1,1,80,0,1
141465,-66.6666666666667,4,2,0,5,0,1
141552,-66.6666666666667,4,1,1,80,0,1
141637,-66.6666666666667,4,2,0,5,0,1
141724,-66.6666666666667,4,1,1,80,0,1
141982,-66.6666666666667,4,2,0,5,0,1
142068,-55.5555555555556,4,1,1,80,0,1
142155,-55.5555555555556,4,2,0,5,0,1
142241,-55.5555555555556,4,1,1,80,0,1
142327,-55.5555555555556,4,2,0,5,0,1
142413,-55.5555555555556,4,1,1,80,0,1
142500,-55.5555555555556,4,2,0,5,0,1
142586,-55.5555555555556,4,1,1,80,0,1
142672,-55.5555555555556,4,2,0,5,0,1
142758,-55.5555555555556,4,1,1,80,0,1
143448,-76.9230769230769,4,1,1,80,0,1
143706,-76.9230769230769,4,2,0,5,0,1
143793,-83.3333333333333,4,1,1,80,0,1
143879,-83.3333333333333,4,2,0,5,0,1
143965,-83.3333333333333,4,1,1,80,0,1
144051,-83.3333333333333,4,2,0,5,0,1
144137,-83.3333333333333,4,1,1,80,0,1
144568,-83.3333333333333,4,2,0,5,0,1
144654,-83.3333333333333,4,1,1,80,0,1
144913,-83.3333333333333,4,2,0,5,0,1
144999,-83.3333333333333,4,1,1,80,0,1
145086,-83.3333333333333,4,2,0,5,0,1
145172,-83.3333333333333,4,1,1,80,0,1
145603,-83.3333333333333,4,2,0,5,0,1
145689,-83.3333333333333,4,1,1,80,0,1
145775,-83.3333333333333,4,2,0,5,0,1
145861,-83.3333333333333,4,1,1,80,0,1
146120,-83.3333333333333,4,2,0,5,0,1
146206,-83.3333333333333,4,1,1,80,0,1
146637,-83.3333333333333,4,2,0,5,0,1
146723,-83.3333333333333,4,1,1,80,0,1
146810,-83.3333333333333,4,2,0,5,0,1
146896,-83.3333333333333,4,1,1,80,0,1
147500,-83.3333333333333,4,2,0,5,0,1
147586,-83.3333333333333,4,1,1,80,0,1
147672,-83.3333333333333,4,2,0,5,0,1
147758,-83.3333333333333,4,1,1,80,0,1
147844,-83.3333333333333,4,2,0,5,0,1
147930,-83.3333333333333,4,1,1,80,0,1
148965,-66.6666666666667,4,1,1,80,0,1
149224,-66.6666666666667,4,2,0,5,0,1
149310,-83.3333333333333,4,1,1,80,0,1
153017,-83.3333333333333,4,2,0,5,0,1
153103,-50,4,1,1,100,0,1
153189,-50,4,2,0,5,0,1
153275,-50,4,1,1,100,0,1
153362,-50,4,2,0,5,0,1
153448,-50,4,1,1,100,0,1
153534,-50,4,2,0,5,0,1
153620,-50,4,1,1,100,0,1
153706,-50,4,2,0,5,0,1
153792,-50,4,1,1,100,0,1
153879,-50,4,2,0,5,0,1
153965,-50,4,1,1,100,0,1
154310,-50,4,1,1,100,0,0

[Colours]
Combo1 : 128,128,255
Combo2 : 0,98,196
Combo3 : 78,186,111
Combo4 : 131,86,186

[HitObjects]
227,295,0,6,0,P|284:272|353:290,1,115.799996466065,0|8,0:0|0:0,0:0:0:0:
227,295,689,2,0,P|263:276|288:272,1,57.8999982330323,0|0,0:0|0:0,0:0:0:0:
381,317,1034,1,8,0:0:0:0:
381,317,1379,6,0,L|381:188,1,115.799996466065,0|8,0:0|0:0,0:0:0:0:
381,317,2068,2,0,L|381:259,1,57.8999982330323,0|0,0:0|0:0,0:0:0:0:
381,143,2413,1,8,0:0:0:0:
382,151,2586,1,0,0:0:0:0:
383,158,2758,6,0,B|334:158|334:158|322:165|322:165|257:165,1,115.799996466065,0|8,0:0|0:0,0:0:0:0:
383,158,3448,2,0,L|319:158,1,57.8999982330323,0|0,0:0|0:0,0:0:0:0:
212,172,3793,1,8,0:0:0:0:
212,172,4137,6,0,P|207:143|211:114,2,57.8999982330323,0|0|8,0:0|0:0|0:0,0:0:0:0:
263,241,4655,1,0,0:0:0:0:
291,241,4741,1,0,0:0:0:0:
319,241,4827,1,0,0:0:0:0:
212,172,5000,1,0,0:0:0:0:
194,194,5086,1,0,0:0:0:0:
186,221,5172,1,8,0:0:0:0:
208,298,5344,1,0,0:0:0:0:
212,172,5517,6,0,L|88:170,1,115.799996466065,0|8,0:0|0:0,0:0:0:0:
212,172,6206,2,0,L|137:170,1,57.8999982330323,0|0,0:0|0:0,0:0:0:0:
38,169,6551,1,8,0:0:0:0:
38,169,6896,6,0,P|42:124|99:64,1,115.799996466065,0|8,0:0|0:0,0:0:0:0:
38,169,7586,2,0,P|38:140|47:112,1,57.8999982330323,0|0,0:0|0:0,0:0:0:0:
141,57,7931,1,8,0:0:0:0:
145,67,8103,1,0,0:0:0:0:
149,77,8275,6,0,B|221:62|221:62|276:81,1,115.799996466065,0|8,0:0|0:0,0:0:0:0:
149,77,8965,2,0,L|221:62,1,57.8999982330323,0|0,0:0|0:0,0:0:0:0:
375,44,9310,2,0,L|319:33,1,57.8999982330323,8|0,0:0|0:0,0:0:0:0:
292,192,9655,6,0,P|295:156|291:134,1,57.8999982330323,0|10,0:0|0:0,0:0:0:0:
198,212,10172,1,0,0:0:0:0:
202,198,10258,1,0,0:0:0:0:
203,183,10344,1,2,0:0:0:0:
96,235,10517,1,0,0:0:0:0:
106,208,10603,1,0,0:0:0:0:
108,179,10689,1,2,0:0:0:0:
64,328,11034,6,0,B|104:296|144:288|184:304|216:336|216:336|256:374|302:358|328:331|336:288|304:248|266:241|266:241|300:244|330:222,1,453.55,0|0,0:0|0:0,0:0:0:0:
232,216,16551,6,0,P|288:216|328:176,1,115.8,0|0,0:0|0:0,0:0:0:0:
373,111,17758,6,0,P|420:190|328:177,1,231.599992932129
288,104,19310,6,0,B|280:48|228:19|228:19|206:53|158:77|99:68|68:34,1,289.5
24,240,20517,6,0,B|80:272|168:248|188:157|188:157|220:67|315:45|403:95|426:184|393:284|286:319|213:251,1,694.8,0|0,0:0|0:0,0:0:0:0:
282,183,22241,5,0,0:0:0:0:
282,183,22586,5,0,0:0:0:0:
233,266,22758,2,0,P|294:280|368:230,1,144.75,0|0,0:0|0:0,0:0:0:0:
282,183,23103,1,0,0:0:0:0:
156,317,23275,1,0,0:0:0:0:
156,317,23620,5,0,0:0:0:0:
233,266,23793,2,0,P|173:227|104:240,1,144.75,0|0,0:0|0:0,0:0:0:0:
156,317,24137,1,0,0:0:0:0:
197,159,24310,1,0,0:0:0:0:
104,240,24482,2,0,P|43:248|5:232,1,96.5,0|0,0:0|0:0,0:0:0:0:
134,100,24827,5,0,0:0:0:0:
156,317,25000,1,0,0:0:0:0:
156,317,25344,5,0,0:0:0:0:
212,106,25517,2,0,B|222:195|222:195|176:239,1,144.75,0|0,0:0|0:0,0:0:0:0:
168,242,25862,1,0,0:0:0:0:
360,183,26034,1,0,0:0:0:0:
360,183,26379,5,0,0:0:0:0:
182,233,26551,2,0,B|234:217|234:217|307:270,1,144.75,0|0,0:0|0:0,0:0:0:0:
325,281,26896,5,0,0:0:0:0:
164,161,27068,1,0,0:0:0:0:
359,128,27241,2,0,B|352:174|352:174|273:117,1,144.75,0|0,0:0|0:0,0:0:0:0:
221,54,27586,5,0,0:0:0:0:
232,220,27758,1,0,0:0:0:0:
232,220,28103,5,0,0:0:0:0:
221,54,28275,2,0,P|147:83|91:50,1,144.75,0|0,0:0|0:0,0:0:0:0:
158,0,28620,1,0,0:0:0:0:
166,158,28793,1,0,0:0:0:0:
166,158,29137,5,0,0:0:0:0:
233,41,29310,2,0,B|270:61|306:44|306:44|347:27|401:60,1,144.75,0|0,0:0|0:0,0:0:0:0:
352,249,29655,2,0,P|322:204|351:106,1,144.75,0|0,0:0|0:0,0:0:0:0:
512,93,30000,2,0,P|488:141|388:165,1,144.75,0|0,0:0|0:0,0:0:0:0:
338,119,30344,5,0,0:0:0:0:
238,276,30517,1,0,0:0:0:0:
238,276,30862,1,0,0:0:0:0:
338,119,31034,2,0,B|301:103|255:116|238:143|238:143|262:159|307:164,1,144.75,0|0,0:0|0:0,0:0:0:0:
282,162,31379,1,0,0:0:0:0:
419,252,31551,2,0,B|382:268|336:255|319:228|319:228|343:212|388:207,1,144.75,0|0,0:0|0:0,0:0:0:0:
363,210,31896,1,0,0:0:0:0:
500,120,32068,2,0,B|463:103|417:116|400:143|400:143|424:159|469:164,1,144.75,0|0,0:0|0:0,0:0:0:0:
312,60,32413,6,0,B|236:74|236:74|175:45,1,144.75,0|0,0:0|0:0,0:0:0:0:
449,75,32758,2,0,B|388:46|388:46|311:59,1,144.75,0|0,0:0|0:0,0:0:0:0:
380,189,33103,6,0,L|380:128,1,53.0750016197205,0|0,1:0|0:0,0:0:0:0:
320,251,33275,1,0,0:0:0:0:
340,268,33362,1,0,0:0:0:0:
364,277,33448,1,8,1:0:0:0:
448,246,33620,1,0,0:0:0:0:
320,251,33793,2,0,B|217:248|217:248|267:313,1,159.225004859162,2|0,3:0|0:0,0:0:0:0:
301,349,34137,1,8,1:0:0:0:
143,197,34310,2,0,P|127:254|145:303,1,106.150003239441,0|0,0:0|3:0,0:0:0:0:
251,292,34655,5,0,0:0:0:0:
143,197,34827,2,0,L|26:199,1,106.150003239441,8|0,1:0|0:0,0:0:0:0:
221,160,35172,2,0,L|292:163,1,53.0750016197205,0|0,3:0|3:0,0:0:0:0:
145,108,35344,1,8,0:0:0:0:
118,109,35430,1,8,0:0:0:0:
91,110,35516,1,8,0:0:0:0:
177,271,35689,1,8,0:0:0:0:
258,74,35862,6,0,L|258:13,1,53.0750016197205,0|0,1:0|0:0,0:0:0:0:
318,136,36034,1,0,0:0:0:0:
298,153,36121,1,0,0:0:0:0:
274,162,36207,1,8,0:0:0:0:
145,108,36379,1,0,0:0:0:0:
183,200,36551,2,0,B|197:253|197:253|148:362,1,159.225004859162,2|0,3:0|0:0,0:0:0:0:
106,252,36896,1,8,1:0:0:0:
261,318,37068,1,0,0:0:0:0:
69,171,37241,1,2,1:0:0:0:
154,348,37414,5,0,0:0:0:0:
274,211,37586,2,0,L|380:209,1,106.150003239441,8|0,1:0|0:0,0:0:0:0:
230,131,37931,2,0,L|176:128,1,53.0750016197205,0|0,3:0|3:0,0:0:0:0:
308,86,38103,1,8,0:0:0:0:
335,85,38189,1,8,0:0:0:0:
362,84,38275,1,8,0:0:0:0:
228,288,38448,1,8,0:0:0:0:
177,128,38620,6,0,L|177:189,1,53.0750016197205,0|0,1:0|0:0,0:0:0:0:
237,66,38792,1,0,0:0:0:0:
217,49,38879,1,0,0:0:0:0:
193,40,38965,1,8,1:0:0:0:
109,71,39137,1,0,0:0:0:0:
107,213,39310,2,0,B|106:318|106:318|152:353,1,159.225004859162,2|0,0:3|0:0,0:0:0:0:
252,258,39654,1,8,1:0:0:0:
37,342,39827,2,0,B|92:335|92:335|138:367,1,106.150003239441,0|0,0:0|3:0,0:0:0:0:
252,258,40172,5,0,0:0:0:0:
114,108,40344,2,0,L|112:-9,1,106.150003239441,8|0,1:0|0:0,0:0:0:0:
136,310,40689,2,0,L|133:381,1,53.0750016197205,0|0,3:0|3:0,0:0:0:0:
241,185,40861,1,8,2:0:0:0:
240,158,40947,1,8,2:0:0:0:
239,131,41033,1,8,0:2:0:0:
50,215,41206,1,8,0:0:0:0:
320,218,41379,6,0,L|398:218,1,53.0750016197205,0|0,3:0|3:0,0:0:0:0:
211,232,41551,1,8,0:0:0:0:
168,229,41637,1,8,2:0:0:0:
125,226,41724,1,8,1:0:0:0:
242,329,41896,1,0,0:0:0:0:
181,142,42068,2,0,B|156:37|156:37|205:85,1,159.225004859162,2|0,3:0|0:0,0:0:0:0:
266,164,42413,1,8,1:0:0:0:
67,131,42586,2,0,L|52:64,1,53.0750016197205,2|0,3:0|0:0,0:0:0:0:
125,226,42758,5,0,1:0:0:0:
157,37,42931,1,0,0:0:0:0:
188,306,43103,1,8,1:0:0:0:
67,131,43275,1,0,1:0:0:0:
67,131,43362,1,0,1:0:0:0:
67,131,43448,5,8,3:0:0:0:
115,111,43534,1,0,0:0:0:0:
168,117,43620,1,8,3:0:0:0:
211,146,43706,1,0,0:0:0:0:
262,187,43792,1,8,3:0:0:0:
327,191,43878,1,0,1:1:0:0:
382,156,43964,1,0,1:1:0:0:
406,95,44050,1,10,3:0:0:0:
323,36,44137,6,8,P|307:60|302:89,1,57.8999982330323,10|8,0:0|0:0,0:0:0:0:
301,88,44827,6,0,P|307:59|323:36,1,57.8999982330323,8|0,0:0|0:0,0:0:0:0:
326,190,45000,6,0,P|342:214|348:243,1,57.8999982330323,0|8,0:0|0:0,0:0:0:0:
225,159,45517,6,8,P|196:161|169:152,1,57.8999982330323,8|8,0:0|0:0,0:0:0:0:
302,88,46034,1,8,0:0:0:0:
225,159,46206,6,8,P|196:161|169:152,1,57.8999982330323,0|8,0:0|0:0,0:0:0:0:
46,239,46379,6,0,P|59:213|80:194,1,57.8999982330323,8|8,0:0|0:0,0:0:0:0:
236,307,46896,6,8,P|223:333|202:352,1,57.8999982330323,8|8,0:0|0:0,0:0:0:0:
201,352,47586,6,0,P|223:332|236:307,1,57.8999982330323,8|0,0:0|0:0,0:0:0:0:
301,254,47758,6,0,P|307:282|323:307,1,57.8999982330323,0|8,0:0|0:0,0:0:0:0:
467,126,48275,6,0,L|404:132,1,57.8999982330323,8|0,0:0|0:0,0:0:0:0:
323,85,48448,2,0,P|331:113|325:174,1,57.8999982330323,8|0,0:0|0:0,0:0:0:0:
167,83,48793,6,0,L|230:89,1,57.8999982330323,8|0,0:0|0:0,0:0:0:0:
332,141,48965,2,0,P|324:169|330:230,1,57.8999982330323,8|0,0:0|0:0,0:0:0:0:
485,252,49224,1,2,0:0:0:0:
497,233,49310,6,0,L|434:239,1,57.8999982330323,8|0,0:0|0:0,0:0:0:0:
128,191,49482,6,0,L|191:197,1,57.8999982330323,8|0,0:0|0:0,0:0:0:0:
323,307,49655,6,0,P|307:267|318:199,1,67.5499979385377,2|0,0:0|0:0,0:0:0:0:
366,152,49827,2,0,L|380:155,1,9.65,2|0,2:0|2:0,0:0:0:0:
263,88,50000,6,0,P|247:128|258:196,1,67.5499979385377,8|0,0:0|0:0,0:0:0:0:
306,243,50172,2,0,L|320:240,1,9.65,2|0,2:0|2:0,0:0:0:0:
202,307,50344,6,0,P|186:267|197:199,1,67.5499979385377,2|0,0:0|0:0,0:0:0:0:
245,152,50517,2,0,L|259:155,1,9.65,2|0,2:0|2:0,0:0:0:0:
142,88,50689,6,0,P|126:128|137:196,1,67.5499979385377,8|0,0:0|0:0,0:0:0:0:
306,243,50862,1,2,2:0:0:0:
202,307,51034,6,0,B|162:308|162:308|131:326,1,67.5499979385377,2|0,0:0|0:0,0:0:0:0:
75,370,51206,2,0,L|75:385,1,9.65,2|0,2:0|2:0,0:0:0:0:
11,258,51379,6,0,B|51:259|51:259|82:277,1,67.5499979385377,8|0,0:0|0:0,0:0:0:0:
138,321,51551,2,0,L|138:336,1,9.65,2|0,2:0|2:0,0:0:0:0:
201,209,51724,6,0,B|161:210|161:210|130:228,1,67.5499979385377,2|0,0:0|0:0,0:0:0:0:
74,272,51896,2,0,L|74:287,1,9.65,2|0,2:0|2:0,0:0:0:0:
10,160,52069,6,0,B|50:161|50:161|81:179,1,67.5499979385377,8|0,0:0|0:0,0:0:0:0:
137,223,52241,2,0,L|137:238,1,9.65,2|0,2:0|2:0,0:0:0:0:
200,111,52413,5,0,0:0:0:0:
181,93,52499,1,0,0:0:0:0:
158,83,52585,1,0,0:0:0:0:
133,81,52671,1,0,0:0:0:0:
109,89,52757,1,0,0:0:0:0:
89,104,52844,1,0,0:0:0:0:
75,125,52930,1,0,0:0:0:0:
70,150,53016,1,0,0:0:0:0:
72,175,53103,5,0,0:0:0:0:
97,211,53189,1,0,0:0:0:0:
138,227,53275,1,0,0:0:0:0:
182,217,53362,1,0,0:0:0:0:
218,176,53448,1,2,0:0:0:0:
273,151,53534,1,2,0:0:0:0:
339,160,53620,1,2,0:0:0:0:
393,209,53706,1,2,0:0:0:0:
401,290,53793,6,0,L|398:307,3,12.0625,0|0|0|0,0:0|0:0|0:0|0:0,0:0:0:0:
353,331,53965,2,0,L|350:314,3,12.0625,0|0|0|0,0:0|0:0|0:0|0:0,0:0:0:0:
319,287,54137,2,0,L|316:304,3,12.0625,0|0|0|0,0:0|0:0|0:0|0:0,0:0:0:0:
275,327,54310,5,0,0:0:0:0:
274,295,54367,1,0,0:0:0:0:
274,262,54425,1,0,0:0:0:0:
274,230,54482,2,0,L|275:172,1,48.25,0|0,0:0|0:0,0:0:0:0:
235,26,54655,5,0,0:0:0:0:
215,70,54741,1,0,0:0:0:0:
222,117,54827,2,0,B|248:146|286:133|286:133|278:117|257:106,1,96.5,4|0,0:3|0:0,0:0:0:0:
65,90,55000,6,0,L|66:107,1,9.65,8|0,0:0|0:0,0:0:0:0:
116,134,55172,6,0,B|113:34|113:34|65:56|65:56|65:94,1,188.174991386033,0|0,0:0|0:0,0:0:0:0:
68,212,55517,6,0,L|69:276,1,48.25,2|0,0:0|0:0,0:0:0:0:
86,277,55689,2,0,L|85:213,1,48.25,0|0,0:0|0:0,0:0:0:0:
31,343,55862,2,0,B|76:373|131:349|131:349|179:328|240:367,1,202.649993815613,8|0,0:0|0:0,0:0:0:0:
218,203,56206,2,0,L|221:269,1,48.25,0|0,0:0|0:0,0:0:0:0:
209,63,56379,2,0,L|211:111,1,48.25,0|0,0:0|0:0,0:0:0:0:
304,154,56551,6,0,P|308:126|304:102,1,38.6,2|0,0:0|0:0,0:0:0:0:
117,126,56724,2,0,P|116:145|120:164,1,38.6,0|0,0:0|0:0,0:0:0:0:
218,203,56896,2,0,L|209:66,1,115.799996466065,2|0,0:0|0:0,0:0:0:0:
397,319,57241,6,0,L|400:367,1,48.25,8|0,0:0|0:0,0:0:0:0:
427,378,57413,2,0,L|423:329,1,48.25,0|0,2:0|0:0,0:0:0:0:
452,244,57586,2,0,B|405:213|350:236|350:236|282:260|234:212,1,202.649993815613,0|0,0:0|0:0,0:0:0:0:
203,115,57931,6,0,P|264:67|294:161,1,188.174991386033,2|0,0:0|0:0,0:0:0:0:
257,230,58275,2,0,L|170:223,1,48.25,2|0,0:0|0:0,0:0:0:0:
199,206,58448,2,0,L|247:209,1,48.25,0|0,0:0|0:0,0:0:0:0:
132,302,58620,2,0,B|128:269|100:254|100:254|83:206|100:166|100:166|125:148|140:102,1,202.649993815613,8|0,0:0|0:0,0:0:0:0:
49,97,58965,6,0,L|-8:97,1,48.25,2|0,0:0|0:0,0:0:0:0:
254,97,59137,2,0,L|205:97,1,48.25,0|0,0:0|0:0,0:0:0:0:
106,19,59310,6,0,P|138:16|153:19,1,38.6,0|0,0:0|0:0,0:0:0:0:
144,177,59482,2,0,P|124:178|106:175,1,38.6,2|0,0:0|0:0,0:0:0:0:
319,25,59655,6,0,P|349:89|298:184,1,173.699994699097,2|0,0:0|0:0,0:0:0:0:
239,221,60000,1,8,0:0:0:0:
355,315,60172,1,0,0:0:0:0:
365,294,60258,1,0,0:0:0:0:
368,271,60344,1,2,0:0:0:0:
241,381,60517,1,8,0:0:0:0:
446,274,60689,6,0,B|401:235|360:228|310:252|310:252|337:298|390:259,1,217.125008282662,2|0,0:0|0:0,0:0:0:0:
451,161,61034,2,0,L|450:102,1,48.25,2|0,0:0|0:0,0:0:0:0:
432,101,61206,2,0,L|432:149,1,48.25,0|0,0:0|0:0,0:0:0:0:
493,25,61379,6,0,P|423:0|339:84,1,173.699994699097,8|0,0:0|0:0,0:0:0:0:
277,135,61724,2,0,L|283:198,1,48.25,2|0,0:0|0:0,0:0:0:0:
262,7,61896,2,0,L|268:70,1,48.25,0|0,0:0|0:0,0:0:0:0:
362,124,62068,6,0,P|368:90|366:65,1,38.6,0|0,0:0|0:0,0:0:0:0:
182,99,62241,2,0,P|187:133|198:155,1,38.6,2|0,0:0|0:0,0:0:0:0:
354,260,62413,6,0,P|298:251|248:278,1,115.799996466065,2|0,0:0|0:0,0:0:0:0:
248,278,62758,2,0,P|328:251|397:306,1,173.699994699097,8|0,0:0|0:0,0:0:0:0:
248,278,63103,2,0,P|328:251|397:306,1,173.699994699097,0|0,0:0|0:0,0:0:0:0:
398,311,63448,5,2,0:0:0:0:
431,122,63620,1,0,0:0:0:0:
302,188,63793,2,0,L|375:189,1,48.25,2|0,0:0|0:0,0:0:0:0:
165,184,63965,2,0,L|238:185,1,48.25,0|0,0:0|0:0,0:0:0:0:
336,109,64137,2,0,P|253:111|213:184,1,173.699994699097,8|0,0:0|0:0,0:0:0:0:
255,261,64482,1,2,0:0:0:0:
255,261,64655,2,0,L|172:264,1,48.25,0|0,0:0|0:0,0:0:0:0:
57,250,64827,6,0,B|94:243|94:243|142:250,1,72.3750027608873
284,182,65000,2,0,B|247:189|247:189|199:182,1,72.3750027608873,0|0,0:0|0:0,0:0:0:0:
208,334,65172,2,0,B|201:297|201:297|208:249,1,72.3750027608873
131,101,65345,2,0,B|138:138|138:138|131:186,1,72.3750027608873
18,371,65517,6,0,L|13:309,1,48.25,2|0,0:0|0:0,0:0:0:0:
132,172,65689,5,0,0:0:0:0:
132,234,65775,1,0,0:0:0:0:
133,297,65862,2,0,B|125:326|125:326|101:295|118:246,1,96.5,8|0,3:0|0:0,0:0:0:0:
248,96,66034,6,0,L|249:106,1,9.65,8|0,0:0|0:0,0:0:0:0:
191,132,66206,6,0,B|192:41|192:41|248:57|248:57|248:131,1,188.174991386033,2|0,0:0|0:0,0:0:0:0:
226,214,66551,6,0,P|185:222|168:219,1,48.25,2|0,0:0|0:0,0:0:0:0:
27,212,66724,2,0,P|49:204|73:204,1,48.25,0|0,0:0|0:0,0:0:0:0:
64,290,66896,2,0,L|64:314,2,24.125,10|2|2,2:0|2:0|2:0,0:0:0:0:
141,138,67068,2,0,L|141:113,2,24.125,2|2|2,2:0|2:0|2:0,0:0:0:0:
73,219,67241,6,0,P|48:219|26:211,1,48.25,0|0,0:0|0:0,0:0:0:0:
0,111,67413,1,2,0:0:0:0:
112,311,67586,6,0,L|50:314,1,48.25,0|0,0:0|0:0,0:0:0:0:
251,332,67758,2,0,L|189:329,1,48.25,0|0,0:0|2:0,0:0:0:0:
339,295,67931,2,0,L|444:289,1,96.5,2|0,0:0|0:0,0:0:0:0:
279,219,68275,6,0,P|322:204|337:205,1,48.25,8|0,0:0|0:0,0:0:0:0:
427,384,68448,2,0,P|403:380|381:368,1,48.25,0|0,0:0|0:0,0:0:0:0:
466,208,68620,2,0,P|508:242|500:349,1,144.75,2|0,0:0|0:0,0:0:0:0:
427,384,68965,6,0,B|412:333|436:289|436:289|406:290|383:335,1,144.75,2|0,0:0|0:0,0:0:0:0:
512,327,69310,2,0,P|522:294|514:255,1,48.25,2|0,0:0|0:0,0:0:0:0:
308,312,69482,2,0,P|309:335|318:358,1,48.25,0|0,0:0|0:0,0:0:0:0:
354,225,69655,2,0,L|325:221,2,24.125,10|2|2,2:0|2:0|2:0,0:0:0:0:
466,208,69827,2,0,L|495:204,2,24.125,2|2|2,2:0|2:0|2:0,0:0:0:0:
233,245,70000,1,2,0:0:0:0:
398,130,70172,2,0,L|395:81,1,48.25,0|0,0:0|0:0,0:0:0:0:
273,57,70344,6,0,P|271:81|276:105,1,48.25,0|0,0:0|0:0,0:0:0:0:
509,95,70517,2,0,P|510:71|504:48,1,48.25,0|0,0:0|0:0,0:0:0:0:
398,130,70689,2,0,L|404:249,1,96.5,2|0,0:0|0:0,0:0:0:0:
413,377,71034,1,8,0:0:0:0:
390,57,71206,1,0,2:0:0:0:
387,32,71293,1,0,0:0:0:0:
385,8,71379,1,2,0:0:0:0:
501,191,71551,1,8,0:0:0:0:
195,199,71724,6,0,B|232:160|280:152|331:177|331:177|304:223|251:184,1,217.125008282662,2|0,0:0|0:0,0:0:0:0:
135,146,72068,6,0,P|118:181|123:216,1,48.25,2|0,0:0|2:0,0:0:0:0:
165,331,72241,2,0,P|160:307|147:287,1,48.25,0|0,0:0|0:0,0:0:0:0:
50,234,72413,2,0,L|9:227,2,24.125,10|2|2,2:0|2:0|2:0,0:0:0:0:
195,199,72586,2,0,L|236:192,2,24.125,2|2|2,2:0|2:0|2:0,0:0:0:0:
147,287,72758,6,0,P|151:310|164:330,1,48.25,0|0,0:0|0:0,0:0:0:0:
309,309,72931,1,2,0:0:0:0:
222,146,73103,6,0,L|217:213,1,48.25,0|0,0:0|0:0,0:0:0:0:
190,5,73275,2,0,L|195:72,1,48.25,0|0,0:0|0:0,0:0:0:0:
29,168,73448,6,0,P|52:125|93:101,1,96.5,2|0,0:0|0:0,0:0:0:0:
93,101,73793,2,0,P|37:145|30:215,1,144.75,8|0,0:0|0:0,0:0:0:0:
93,101,74137,2,0,P|37:145|30:215,1,144.75
169,80,74482,6,0,B|191:87|191:87|229:81,1,48.25,2|0,0:0|0:0,0:0:0:0:
311,24,74655,2,0,B|333:17|333:17|371:23,1,48.25,0|0,0:0|0:0,0:0:0:0:
166,103,74827,6,0,P|173:138|162:174,1,48.25,2|0,0:0|0:0,0:0:0:0:
296,82,75000,2,0,P|294:57|301:34,1,48.25,0|0,0:0|0:0,0:0:0:0:
287,199,75172,6,0,L|291:226,2,24.125,10|2|2,2:0|2:0|2:0,0:0:0:0:
166,103,75344,2,0,L|169:79,2,24.125,2|2|2,2:0|2:0|2:0,0:0:0:0:
149,232,75517,1,2,0:0:0:0:
6,154,75689,2,0,P|34:146|75:156,1,48.25,0|0,0:0|0:0,0:0:0:0:
389,310,75862,6,0,L|388:199,1,72.3750027608873,0|0,0:0|0:0,0:0:0:0:
298,0,76034,2,0,L|297:111,1,72.3750027608873,0|0,0:0|0:0,0:0:0:0:
452,169,76206,6,0,P|374:151|355:158,1,72.3750027608873,4|0,3:0|2:0,0:0:0:0:
136,122,76379,2,0,P|214:140|233:133,1,72.3750027608873,0|0,0:0|0:0,0:0:0:0:
435,12,76551,1,8,0:0:0:0:
296,246,76724,5,0,0:0:0:0:
296,159,76810,1,0,0:0:0:0:
297,72,76896,1,2,0:0:0:0:
310,60,77068,2,0,L|310:168,1,72.3750027608873,8|0,0:0|0:0,0:0:0:0:
339,316,77241,6,0,P|309:328|262:318,1,77.2,0|8,1:0|0:0,0:0:0:0:
262,301,77758,1,0,0:0:0:0:
346,325,77931,2,0,P|325:336|303:337,1,38.6,0|0,0:0|1:0,0:0:0:0:
203,264,78275,2,0,P|221:267|238:276,1,38.6,8|0,0:0|0:0,0:0:0:0:
117,318,78620,6,0,L|115:231,1,77.2,0|8,1:0|0:0,0:0:0:0:
127,225,79137,1,0,0:0:0:0:
107,326,79310,2,0,L|105:273,1,38.6,0|0,0:0|1:0,0:0:0:0:
109,147,79655,1,8,0:0:0:0:
118,157,79827,1,0,0:0:0:0:
188,222,80000,6,0,B|226:228|226:228|269:214,1,77.2,0|8,1:0|0:0,0:0:0:0:
279,207,80517,1,0,0:0:0:0:
178,232,80689,2,0,B|216:238,1,38.6,0|0,0:0|1:0,0:0:0:0:
400,151,81034,2,0,B|342:160,1,57.9,8|0,0:0|0:0,0:0:0:0:
342,160,81379,6,0,P|351:113|336:77,1,77.2,0|8,1:0|0:0,0:0:0:0:
269,42,81896,1,0,1:0:0:0:
259,43,81982,1,0,1:0:0:0:
249,44,82068,1,0,1:0:0:0:
228,121,82241,1,0,1:0:0:0:
248,123,82327,1,0,1:0:0:0:
268,125,82413,1,8,0:0:0:0:
432,140,82586,1,0,1:0:0:0:
337,274,82758,6,0,L|343:195,1,77.2,0|8,1:0|0:0,0:0:0:0:
345,177,83275,1,0,0:0:0:0:
322,280,83448,2,0,L|325:240,1,38.6,0|0,0:0|1:0,0:0:0:0:
353,96,83793,1,8,0:0:0:0:
155,183,84137,6,0,P|178:179|237:194,1,77.2,0|8,1:0|0:0,0:0:0:0:
241,205,84655,1,0,0:0:0:0:
142,172,84827,2,0,P|171:166|194:172,1,38.6,0|0,0:0|1:0,0:0:0:0:
291,264,85172,2,0,P|297:293|291:316,1,38.6,8|0,0:0|0:0,0:0:0:0:
253,132,85517,6,0,P|251:89|263:48,1,77.2,0|8,1:0|0:0,0:0:0:0:
278,48,86034,1,0,0:0:0:0:
239,144,86206,2,0,P|234:111|237:93,1,38.6,0|0,0:0|1:0,0:0:0:0:
350,17,86551,1,8,0:0:0:0:
291,264,86896,5,2,0:0:0:0:
63,91,87931,6,0,P|77:90|92:88,1,28.95,8|0,0:0|0:0,0:0:0:0:
168,93,88275,6,0,B|138:53|72:41|32:71|32:71|43:94|81:102|112:78,1,217.125008282662,2|0,0:0|0:0,0:0:0:0:
232,47,88620,6,0,B|287:23|330:46|330:46|373:69|439:42,1,202.649993815613,8|0,0:0|2:0,0:0:0:0:
284,124,88965,2,0,P|265:195|286:246,1,67.5499979385377,2|0,0:0|0:0,0:0:0:0:
380,307,89137,1,0,0:0:0:0:
311,262,89224,1,0,0:0:0:0:
230,264,89310,1,8,0:0:0:0:
100,362,89482,2,0,P|133:357|163:342,1,67.5499979385377,0|0,0:0|0:0,0:0:0:0:
264,187,89655,5,2,0:0:0:0:
296,111,89742,1,0,0:0:0:0:
280,31,89827,2,0,P|257:94|259:109,1,67.5499979385377,0|0,0:0|0:0,0:0:0:0:
488,227,90000,5,8,0:0:0:0:
423,180,90086,1,0,0:0:0:0:
343,178,90172,1,0,0:0:0:0:
276,222,90259,1,0,0:0:0:0:
219,278,90345,1,0,0:0:0:0:
140,292,90431,1,0,0:0:0:0:
67,259,90517,2,0,P|52:223|65:142,1,67.5499979385377,2|0,0:0|0:0,0:0:0:0:
188,137,90689,6,0,L|180:202,1,48.25,8|0,0:0|0:0,0:0:0:0:
163,194,90862,2,0,L|168:146,1,48.25,0|0,0:0|0:0,0:0:0:0:
196,46,91034,6,0,P|243:61|271:158,1,144.75,2|0,0:0|0:0,0:0:0:0:
291,341,91379,5,8,0:0:0:0:
256,263,91465,1,0,0:0:0:0:
287,184,91551,1,0,0:0:0:0:
364,149,91637,1,0,0:0:0:0:
443,178,91723,1,0,0:0:0:0:
479,254,91810,1,0,0:0:0:0:
460,339,91896,2,0,P|441:275|458:234,1,72.3750027608873,2|0,0:0|0:0,0:0:0:0:
481,32,92068,2,0,B|502:114|443:179|443:179|470:128|427:73,1,217.125008282662,8|0,0:0|0:0,0:0:0:0:
369,134,92413,5,2,0:0:0:0:
294,174,92499,1,0,0:0:0:0:
212,154,92585,1,0,0:0:0:0:
164,85,92671,1,0,0:0:0:0:
175,1,92758,2,0,P|191:38|190:92,1,72.3750027608873,8|0,0:0|0:0,0:0:0:0:
114,342,92931,5,2,0:0:0:0:
119,233,93017,1,2,0:0:0:0:
123,124,93103,2,0,B|117:100|117:100|101:126,1,48.25,2|2,0:0|0:0,0:0:0:0:
212,154,93275,2,0,B|206:178|206:178|193:157,1,48.25,0|0,0:0|0:0,0:0:0:0:
301,124,93448,2,0,B|295:100|295:100|279:126,1,48.25,8|0,0:0|0:0,0:0:0:0:
390,154,93620,2,0,B|384:178|384:178|368:152,1,48.25,2|0,0:0|0:0,0:0:0:0:
471,30,93793,6,0,B|507:64|515:112|490:163|490:163|458:132|472:97,1,217.125008282662,2|0,0:0|0:0,0:0:0:0:
501,240,94137,5,8,0:0:0:0:
488,318,94223,1,0,0:0:0:0:
424,364,94309,1,0,2:0:0:0:
346,352,94395,1,0,0:0:0:0:
299,288,94482,2,0,P|346:273|390:288,1,67.5499979385377,0|0,0:0|0:0,0:0:0:0:
501,240,94655,5,2,0:0:0:0:
420,234,94741,1,0,0:0:0:0:
360,180,94827,2,0,P|350:132|371:90,1,67.5499979385377,8|0,0:0|0:0,0:0:0:0:
512,142,95000,2,0,L|427:141,1,67.5499979385377,0|0,0:0|0:0,0:0:0:0:
249,192,95172,5,2,0:0:0:0:
168,184,95258,1,0,2:0:0:0:
112,124,95344,2,0,P|107:83|116:54,1,67.5499979385377,0|0,0:0|0:0,0:0:0:0:
249,192,95517,5,8,0:0:0:0:
282,263,95603,1,0,0:0:0:0:
253,336,95689,1,0,2:0:0:0:
179,364,95775,1,0,0:0:0:0:
108,324,95862,2,0,P|98:276|119:234,1,67.5499979385377,0|0,0:0|0:0,0:0:0:0:
220,49,96034,2,0,P|225:82|215:114,1,67.5499979385377,2|0,0:0|0:0,0:0:0:0:
84,159,96206,6,0,L|141:161,1,48.25,8|0,0:0|0:0,0:0:0:0:
150,183,96379,2,0,L|94:183,1,48.25
215,114,96551,6,0,P|248:173|214:254,1,144.75,2|0,0:0|0:0,0:0:0:0:
155,308,96896,5,8,0:0:0:0:
228,337,96982,1,0,0:0:0:0:
299,303,97068,1,0,0:0:0:0:
322,225,97155,1,0,0:0:0:0:
378,167,97241,1,0,0:0:0:0:
458,166,97327,1,0,2:0:0:0:
511,226,97413,2,0,P|463:221|427:185,1,67.5499979385377,2|0,0:0|0:0,0:0:0:0:
299,303,97586,2,0,B|382:257|448:335|448:335|411:325|362:355,1,202.649993815613,8|0,0:0|0:0,0:0:0:0:
221,375,97931,5,8,0:0:0:0:
214,280,98017,1,0,0:0:0:0:
206,186,98103,1,2,0:0:0:0:
199,92,98189,1,0,0:0:0:0:
157,7,98275,2,0,P|124:0|78:16,1,67.5499979385377,2|0,0:0|0:0,0:0:0:0:
293,64,98448,6,0,P|325:71|358:64,1,67.5499979385377,2|0,0:0|0:0,0:0:0:0:
199,92,98620,1,10,3:0:0:0:
346,211,98793,1,4,3:0:0:0:
94,150,98965,1,6,3:0:0:0:
115,140,99051,2,0,L|115:230,1,67.5499979385377,4|0,3:0|0:0,0:0:0:0:
114,364,99224,1,8,2:0:0:0:
11,369,99310,6,0,B|43:320|107:311|159:346|159:346|113:382|81:343,1,217.125008282662,2|0,0:0|0:0,0:0:0:0:
237,365,99655,2,0,P|335:371|406:246,1,246.075004693508,8|0,0:0|0:0,0:0:0:0:
384,88,100000,2,0,P|366:138|378:188,1,82.0250015645027,0|0,0:0|0:0,0:0:0:0:
407,256,100172,5,2,0:0:0:0:
314,224,100258,1,0,0:0:0:0:
217,242,100344,2,0,P|191:301|211:361,1,82.0250015645027,8|0,0:0|0:0,0:0:0:0:
248,140,100517,2,0,L|248:45,1,82.0250015645027,0|0,0:0|0:0,0:0:0:0:
120,373,100689,5,2,0:0:0:0:
121,274,100775,1,0,2:0:0:0:
122,174,100862,2,0,L|122:61,1,82.0250015645027,0|0,0:0|0:0,0:0:0:0:
216,242,101034,2,0,P|102:292|8:197,1,246.075004693508,8|0,0:0|0:0,0:0:0:0:
122,91,101379,1,0,0:0:0:0:
202,146,101465,1,0,0:0:0:0:
216,242,101551,2,0,P|207:307|184:354,1,82.0250015645027,2|0,0:0|0:0,0:0:0:0:
64,256,101724,6,0,L|135:256,1,48.25,8|0,0:0|0:0,0:0:0:0:
121,274,101896,2,0,L|72:274,1,48.25,0|0,0:0|2:0,0:0:0:0:
201,322,102068,6,0,L|297:322,1,96.5,2|0,0:0|0:0,0:0:0:0:
459,210,102413,1,8,0:0:0:0:
364,240,102500,1,0,0:0:0:0:
270,209,102586,1,0,0:0:0:0:
220,124,102672,1,0,0:0:0:0:
231,26,102758,2,0,P|277:-4|357:-9,1,82.0250015645027,0|0,0:0|0:0,0:0:0:0:
104,181,102931,2,0,P|142:193|175:218,1,82.0250015645027,2|0,0:0|0:0,0:0:0:0:
0,70,103103,2,0,B|46:124|11:188|11:188|-24:248|27:358,1,246.075004693508,8|0,0:0|0:0,0:0:0:0:
186,336,103448,5,2,0:0:0:0:
185,237,103534,1,0,0:0:0:0:
104,181,103620,2,0,P|60:174|6:190,1,82.0250015645027,0|0,0:0|0:0,0:0:0:0:
270,209,103793,1,8,0:0:0:0:
189,0,103965,5,2,0:0:0:0:
191,122,104051,1,2,0:0:0:0:
193,244,104137,2,0,L|191:306,1,48.25,2|0,0:0|0:0,0:0:0:0:
270,209,104310,1,0,0:0:0:0:
270,209,104396,1,0,2:0:0:0:
270,209,104482,2,0,L|269:258,1,48.25,8|0,0:0|0:0,0:0:0:0:
340,248,104655,2,0,L|338:310,1,48.25,2|0,0:0|0:0,0:0:0:0:
403,197,104827,6,0,B|438:144|436:93|408:58|408:58|376:90|391:137,1,217.125008282662,0|0,0:0|0:0,0:0:0:0:
461,293,105172,5,8,0:0:0:0:
414,209,105258,1,0,0:0:0:0:
324,173,105344,1,0,0:0:0:0:
232,201,105430,1,0,0:0:0:0:
177,281,105517,2,0,L|173:160,1,82.0250015645027,0|0,0:0|0:0,0:0:0:0:
30,115,105689,5,2,0:0:0:0:
128,109,105775,1,0,2:0:0:0:
227,104,105862,2,0,L|325:103,1,82.0250015645027,8|0,0:0|0:0,0:0:0:0:
78,278,106034,2,0,L|81:197,1,82.0250015645027,0|0,0:0|0:0,0:0:0:0:
227,104,106206,5,2,0:0:0:0:
227,104,106293,1,0,0:0:0:0:
227,104,106379,2,0,L|325:103,1,82.0250015645027,0|0,0:0|0:0,0:0:0:0:
364,279,106551,5,8,0:0:0:0:
305,199,106637,1,0,0:0:0:0:
309,103,106723,1,0,0:0:0:0:
372,29,106809,1,0,0:0:0:0:
466,11,106896,2,0,L|462:135,1,82.0250015645027,0|0,0:0|0:0,0:0:0:0:
452,314,107068,1,2,0:0:0:0:
305,199,107241,6,0,L|383:197,1,48.25,8|0,0:0|0:0,0:0:0:0:
361,213,107413,2,0,L|283:215,1,48.25,0|0,0:0|0:0,0:0:0:0:
225,273,107586,6,0,P|204:210|257:134,1,144.75,2|0,0:0|0:0,0:0:0:0:
168,79,107931,5,8,0:0:0:0:
239,144,108017,1,0,0:0:0:0:
335,150,108103,1,0,0:0:0:0:
413,93,108189,1,0,0:0:0:0:
439,0,108275,2,0,P|441:38|479:108,1,82.0250015645027,0|0,0:0|0:0,0:0:0:0:
495,309,108448,2,0,P|497:271|535:201,1,82.0250015645027,2|0,0:0|0:0,0:0:0:0:
335,150,108620,2,0,B|505:152|505:152|423:190,1,246.075004693508,8|0,0:0|0:0,0:0:0:0:
348,242,108965,6,0,L|243:243,1,82.0250015645027,2|0,0:0|0:0,0:0:0:0:
82,238,109137,2,0,L|133:146,1,82.0250015645027,0|0,0:0|0:0,0:0:0:0:
219,10,109310,2,0,L|272:100,1,82.0250015645027,8|0,0:0|0:0,0:0:0:0:
359,262,109482,5,2,0:0:0:0:
226,259,109569,1,2,0:0:0:0:
95,260,109655,1,8,0:0:0:0:
237,13,109827,5,2,0:0:0:0:
300,129,109914,1,2,0:0:0:0:
367,242,110000,1,8,0:0:0:0:
367,242,110344,6,0,P|343:277|337:320,1,86.8499973495484,0|0,1:0|0:0,0:0:0:0:
349,338,110689,2,0,L|411:336,1,57.8999982330323,8|0,0:0|0:0,0:0:0:0:
349,338,111034,2,0,L|233:341,1,115.799996466065,0|8,0:0|0:0,0:0:0:0:
145,148,111724,6,0,P|174:179|177:241,1,86.8499973495484,0|0,1:0|0:0,0:0:0:0:
128,335,112068,2,0,L|135:267,1,57.8999982330323,8|0,0:0|0:0,0:0:0:0:
233,278,112413,1,0,0:0:0:0:
81,223,112586,1,0,3:0:0:0:
73,224,112672,1,0,3:0:0:0:
65,225,112758,2,0,L|-3:232,1,57.8999982330323,0|0,3:0|3:0,0:0:0:0:
145,148,113103,6,0,L|254:154,1,86.8499973495484,0|0,1:0|0:0,0:0:0:0:
316,145,113448,2,0,P|305:197|297:207,1,57.8999982330323,8|0,0:0|0:0,0:0:0:0:
242,67,113793,2,0,P|283:84|315:162,1,115.799996466065,0|8,0:0|0:0,0:0:0:0:
73,32,114482,6,0,L|-7:29,1,57.8999982330323,0|0,1:0|0:0,0:0:0:0:
164,77,114827,2,0,L|221:74,1,57.8999982330323,8|0,0:0|0:0,0:0:0:0:
73,32,115172,2,0,L|16:29,1,28.9499991165161,0|0,3:0|3:0,0:0:0:0:
164,77,115344,2,0,L|192:75,1,28.9499991165161,0|0,3:0|3:0,0:0:0:0:
370,13,115517,2,0,L|312:11,1,57.8999982330323,8|0,0:0|0:0,0:0:0:0:
63,122,115862,6,0,P|88:155|90:208,1,86.8499973495484,0|0,1:0|0:0,0:0:0:0:
49,270,116206,2,0,L|51:328,1,57.8999982330323,8|0,0:0|0:0,0:0:0:0:
63,122,116551,2,0,P|116:134|196:112,1,115.799996466065,0|8,1:0|0:0,0:0:0:0:
306,58,117241,6,0,P|348:48|412:66,1,86.8499973495484,0|0,1:0|0:0,0:0:0:0:
454,118,117586,2,0,L|452:190,1,57.8999982330323,8|0,0:0|0:0,0:0:0:0:
390,55,117931,1,0,0:0:0:0:
289,147,118103,1,0,3:0:0:0:
297,146,118189,1,0,3:0:0:0:
305,145,118275,2,0,L|377:143,1,57.8999982330323,0|0,3:0|3:0,0:0:0:0:
219,208,118620,6,0,L|125:205,1,86.8499973495484,0|0,1:0|0:0,0:0:0:0:
75,131,118965,2,0,P|111:114|135:111,1,57.8999982330323,8|0,0:0|0:0,0:0:0:0:
135,299,119310,2,0,P|81:285|42:213,1,115.799996466065,0|8,1:0|0:0,0:0:0:0:
399,273,120000,6,0,B|344:287|344:287|305:359,1,115.799996466065,0|8,1:0|0:0,0:0:0:0:
201,292,120517,5,0,1:0:0:0:
219,288,120574,1,0,1:0:0:0:
238,283,120632,1,0,1:0:0:0:
256,276,120689,2,0,P|276:254|293:202,1,48.25,8|0,0:0|0:0,0:0:0:0:
87,204,120862,2,0,P|96:236|124:278,1,48.25,8|0,0:0|0:0,0:0:0:0:
337,154,121034,5,8,3:0:0:0:
279,135,121120,1,4,3:0:0:0:
223,156,121206,1,4,3:0:0:0:
191,205,121292,1,8,0:0:0:0:
222,299,121379,6,0,P|248:320|255:323,1,38.6,8|8,0:0|0:0,0:0:0:0:
252,322,122068,6,0,P|235:312|222:299,1,38.6,8|8,0:0|0:0,0:0:0:0:
404,302,122241,6,0,P|404:321|400:340,1,38.6,2|8,0:0|0:0,0:0:0:0:
347,165,122758,6,8,P|341:131|342:124,1,38.6
394,268,123275,1,8,0:0:0:0:
341,127,123620,6,8,P|341:146|347:165,1,38.6
394,268,123793,2,0,P|399:234|398:227,1,38.6,8|0,0:0|0:0,0:0:0:0:
247,217,124137,6,8,P|272:222|289:219,1,38.6
284,220,124827,6,0,P|265:221|247:217,1,38.6,8|8,0:0|0:0,0:0:0:0:
423,216,125000,6,0,P|442:215|461:220,1,38.6,2|8,0:0|0:0,0:0:0:0:
383,13,125517,6,0,L|396:86,1,38.6,8|0,0:0|0:0,0:0:0:0:
430,254,125689,2,8,L|423:215,1,38.6,8|0,0:0|0:0,0:0:0:0:
256,56,126034,6,0,L|256:131,1,38.6,8|0,0:0|0:0,0:0:0:0:
256,328,126206,2,0,L|256:253,1,38.6,8|0,0:0|0:0,0:0:0:0:
136,30,126465,1,0,0:0:0:0:
129,15,126551,6,0,L|115:88,1,38.6,8|0,0:0|0:0,0:0:0:0:
82,256,126723,2,0,L|88:217,1,38.6,8|0,0:0|0:0,0:0:0:0:
159,150,126896,6,0,P|199:188|208:225,1,67.5499979385377,2|0,0:0|0:0,0:0:0:0:
216,288,127068,2,0,L|215:304,1,9.65,2|0,2:0|2:0,0:0:0:0:
354,116,127241,6,0,P|314:154|305:191,1,67.5499979385377,8|0,0:0|0:0,0:0:0:0:
297,254,127413,2,0,L|298:270,1,9.65,2|0,2:0|2:0,0:0:0:0:
69,134,127586,6,0,P|124:135|155:156,1,67.5499979385377,2|0,0:0|0:0,0:0:0:0:
203,198,127758,2,0,L|207:215,1,9.65,2|0,2:0|2:0,0:0:0:0:
444,100,127931,6,0,P|388:101|357:122,1,67.5499979385377,8|0,0:0|0:0,0:0:0:0:
310,164,128103,2,0,L|308:177,1,9.65,2|0,2:0|2:0,0:0:0:0:
428,299,128275,6,0,L|424:230,1,67.5499979385377,2|0,0:0|0:0,0:0:0:0:
378,105,128448,2,0,L|378:114,1,9.65,2|0,2:0|2:0,0:0:0:0:
355,320,128620,6,0,L|351:251,1,67.5499979385377,8|0,0:0|0:0,0:0:0:0:
305,126,128793,2,0,L|305:135,1,9.65,2|0,2:0|2:0,0:0:0:0:
282,341,128965,6,0,L|278:272,1,67.5499979385377,2|0,0:0|0:0,0:0:0:0:
232,147,129138,2,0,L|232:156,1,9.65,2|0,2:0|2:0,0:0:0:0:
209,362,129311,6,0,L|205:290,1,67.55,8|0,0:0|0:0,0:0:0:0:
159,168,129482,2,0,L|159:177,1,9.65,2|0,2:0|0:0,0:0:0:0:
364,20,129655,5,0,0:0:0:0:
366,50,129741,1,0,0:0:0:0:
361,79,129827,1,0,0:0:0:0:
350,107,129913,1,0,0:0:0:0:
334,132,129999,1,0,0:0:0:0:
311,153,130086,1,0,0:0:0:0:
285,168,130172,1,0,0:0:0:0:
257,177,130258,1,0,0:0:0:0:
227,179,130344,5,0,0:0:0:0:
174,151,130430,1,0,0:0:0:0:
115,158,130516,1,0,3:1:0:0:
71,198,130602,1,0,0:0:0:0:
57,256,130688,1,0,0:0:0:0:
78,311,130775,1,0,0:0:0:0:
127,344,130861,1,0,0:0:0:0:
187,344,130947,1,0,0:0:0:0:
235,310,131034,6,0,L|244:276,3,24.125,0|0|0|0,2:0|2:0|2:0|2:0,0:0:0:0:
315,284,131206,2,0,L|311:249,3,24.125,0|0|0|0,2:0|2:0|2:0|2:0,0:0:0:0:
381,233,131379,2,0,L|365:201,3,24.125,0|0|0|0,2:0|2:0|2:0|2:0,0:0:0:0:
427,162,131551,5,0,0:0:0:0:
412,149,131609,1,0,0:0:0:0:
395,140,131666,1,0,0:0:0:0:
375,137,131724,2,0,P|335:147|312:163,1,48.25,2|0,0:0|0:0,0:0:0:0:
260,239,131896,5,2,0:0:0:0:
260,181,131982,1,0,0:0:0:0:
259,123,132068,2,0,B|259:26,1,72.3750027608873,8|0,3:0|0:0,0:0:0:0:
173,172,132241,6,0,L|174:163,1,9.65,8|0,0:0|0:0,0:0:0:0:
119,105,132413,6,0,B|108:205|108:205|170:196|170:196|175:152,1,188.174991386033,2|0,0:0|0:0,0:0:0:0:
177,293,132758,6,0,L|248:280,1,72.3750027608873,2|0,0:0|0:0,0:0:0:0:
245,293,132931,2,0,L|173:305,1,72.3750027608873,0|0,0:0|0:0,0:0:0:0:
12,340,133103,6,0,L|83:327,1,72.3750027608873,8|0,0:0|0:0,0:0:0:0:
406,259,133275,2,0,L|334:271,1,72.3750027608873,0|0,0:0|0:0,0:0:0:0:
34,247,133448,6,0,L|105:234,1,72.3750027608873,0|0,0:0|0:0,0:0:0:0:
384,350,133620,2,0,L|313:363,1,72.3750027608873,2|0,0:0|0:0,0:0:0:0:
300,360,133793,5,2,0:0:0:0:
252,59,133965,6,0,P|288:61|323:71,1,72.3750027608873,0|0,0:0|0:0,0:0:0:0:
281,307,134137,6,0,P|244:304|209:294,1,72.3750027608873,2|0,0:0|0:0,0:0:0:0:
391,168,134482,6,0,P|388:204|378:239,1,72.3750027608873,8|0,0:0|0:0,0:0:0:0:
142,198,134655,2,0,P|144:161|154:126,1,72.3750027608873,0|0,0:0|0:0,0:0:0:0:
454,362,134827,6,0,P|417:359|382:349,1,72.3750027608873,0|0,0:0|0:0,0:0:0:0:
78,4,135000,2,0,P|114:6|149:16,1,72.3750027608873,0|0,0:0|0:0,0:0:0:0:
288,312,135172,6,0,B|254:273|254:224|254:224|238:270|197:296,1,188.174991386033,2|0,0:0|0:0,0:0:0:0:
226,144,135517,6,0,P|278:141|312:154,1,72.3750027608873,2|0,0:0|0:0,0:0:0:0:
218,375,135689,2,0,L|229:304,1,72.3750027608873,0|0,0:0|0:0,0:0:0:0:
246,298,135862,2,0,L|234:368,1,72.3750027608873,8|0,0:0|0:0,0:0:0:0:
79,231,136034,6,0,P|109:213|144:205,1,72.3750027608873,0|0,0:0|0:0,0:0:0:0:
433,282,136206,2,0,P|408:255|377:237,1,72.3750027608873,2|0,0:0|0:0,0:0:0:0:
298,4,136379,6,0,L|280:115,1,72.3750027608873,2|0,0:0|0:0,0:0:0:0:
246,302,136551,5,2,0:0:0:0:
249,287,136637,1,0,0:0:0:0:
252,272,136724,2,0,L|270:161,1,72.3750027608873,0|0,0:0|0:0,0:0:0:0:
302,14,136896,6,0,L|284:125,1,72.3750027608873,2|0,0:0|0:0,0:0:0:0:
116,148,137241,6,0,L|206:146,1,72.3750027608873,8|0,0:0|0:0,0:0:0:0:
508,142,137413,1,2,0:0:0:0:
435,143,137499,1,0,2:0:0:0:
363,145,137585,1,2,3:0:0:0:
168,234,137758,6,0,L|183:235,1,9.65,8|0,0:0|0:0,0:0:0:0:
257,210,137931,6,0,B|180:163|111:225|111:225|168:234,1,217.125008282662,2|0,0:0|0:0,0:0:0:0:
322,303,138275,6,0,L|236:291,1,72.3750027608873,2|0,0:0|0:0,0:0:0:0:
261,285,138448,2,0,L|332:295,1,72.3750027608873,0|0,0:0|0:0,0:0:0:0:
497,329,138620,6,0,L|411:317,1,72.3750027608873,8|0,0:0|0:0,0:0:0:0:
75,265,138793,2,0,L|147:276,1,72.3750027608873,0|0,0:0|0:0,0:0:0:0:
467,241,138965,6,0,L|381:229,1,72.3750027608873,2|0,0:0|0:0,0:0:0:0:
105,354,139137,2,0,L|191:366,1,72.3750027608873,2|0,3:0|2:0,0:0:0:0:
198,356,139310,5,2,0:0:0:0:
284,44,139482,2,0,P|319:49|350:67,1,72.3750027608873,0|0,0:0|0:0,0:0:0:0:
288,243,139655,6,0,P|252:237|221:219,1,72.3750027608873,2|0,0:0|0:0,0:0:0:0:
409,133,140000,6,0,L|377:219,1,72.3750027608873,8|0,0:0|0:0,0:0:0:0:
162,154,140172,2,0,L|193:67,1,72.3750027608873,0|0,0:0|0:0,0:0:0:0:
496,92,140344,6,0,P|502:145|487:186,1,72.3750027608873,2|0,0:0|0:0,0:0:0:0:
75,194,140517,2,0,P|68:140|83:99,1,72.3750027608873,0|0,0:0|0:0,0:0:0:0:
409,133,140689,6,0,L|360:129,1,48.25,2|0,0:0|0:0,0:0:0:0:
188,84,140862,2,0,L|236:80,1,48.25,0|0,0:0|0:0,0:0:0:0:
287,327,141034,6,0,L|285:231,1,72.3750027608873,2|0,0:0|0:0,0:0:0:0:
362,56,141206,2,0,L|360:152,1,72.3750027608873,0|0,0:0|0:0,0:0:0:0:
154,140,141379,6,0,L|226:138,1,72.3750027608873,8|0,0:0|0:0,0:0:0:0:
498,245,141551,2,0,L|426:244,1,72.3750027608873,0|0,0:0|0:0,0:0:0:0:
413,243,141724,1,2,0:0:0:0:
180,340,141896,2,0,P|184:288|204:256,1,72.3750027608873,2|0,0:0|0:0,0:0:0:0:
332,44,142068,6,0,P|328:96|308:128,1,86.8499973495484,2|0,3:0|0:0,0:0:0:0:
89,200,142241,2,0,P|127:179|170:178,1,86.8499973495484,2|0,3:0|0:0,0:0:0:0:
422,183,142413,2,0,P|384:204|341:205,1,86.8499973495484,2|0,3:0|0:0,0:0:0:0:
165,52,142586,2,0,P|202:74|225:111,1,86.8499973495484,2|0,3:0|0:0,0:0:0:0:
346,331,142931,5,0,3:0:0:0:
320,318,142988,1,0,3:2:0:0:
300,298,143045,1,0,3:2:0:0:
286,272,143103,1,0,1:0:0:0:
376,247,143275,1,0,0:0:0:0:
220,207,143448,6,0,B|153:192|153:192|214:321,1,188.174991386033,2|0,0:0|0:0,0:0:0:0:
212,125,143793,6,0,L|269:139,1,57.8999982330323,2|0,0:0|0:0,0:0:0:0:
493,191,143965,2,0,L|436:177,1,57.8999982330323,0|0,0:0|2:0,0:0:0:0:
371,74,144137,6,0,L|382:29,2,28.9499991165161,10|2|2,2:0|2:0|2:0,0:0:0:0:
332,241,144310,2,0,L|325:269,2,28.9499991165161,2|2|2,2:0|2:0|2:0,0:0:0:0:
266,127,144482,6,0,L|209:113,1,57.8999982330323,2|0,0:0|0:0,0:0:0:0:
112,89,144655,1,2,0:0:0:0:
183,164,144827,6,8,P|202:134|210:99,1,57.8999982330323,0|8,0:0|2:0,0:0:0:0:
15,112,145000,2,0,P|24:140|41:164,1,57.8999982330323,0|0,0:0|2:0,0:0:0:0:
208,112,145172,2,0,P|201:47|160:3,1,115.799996466065,2|0,0:0|0:0,0:0:0:0:
346,223,145517,6,0,P|351:194|344:166,1,57.8999982330323,8|0,0:0|0:0,0:0:0:0:
301,23,145689,2,0,P|294:51|299:80,1,57.8999982330323,0|0,2:0|0:0,0:0:0:0:
512,96,145862,2,0,B|396:96|396:96|451:130,1,173.699994699097,2|0,0:0|0:0,0:0:0:0:
346,223,146206,6,0,B|294:196|294:196|218:208,1,115.799996466065,0|0,0:0|0:0,0:0:0:0:
277,354,146551,2,0,L|277:288,1,57.8999982330323,0|0,0:0|0:0,0:0:0:0:
369,58,146724,2,0,L|369:124,1,57.8999982330323,0|0,0:0|0:0,0:0:0:0:
237,204,146896,2,0,L|237:153,2,28.9499991165161,10|2|2,2:0|2:0|2:0,0:0:0:0:
406,208,147068,2,0,L|406:259,2,28.9499991165161,2|2|2,2:0|2:0|2:0,0:0:0:0:
289,345,147241,1,2,0:0:0:0:
382,65,147413,2,0,L|382:131,1,57.8999982330323,2|0,0:0|2:0,0:0:0:0:
218,84,147586,6,0,P|247:83|275:91,1,57.8999982330323,0|0,0:0|0:0,0:0:0:0:
137,183,147758,2,0,P|109:190|80:189,1,57.8999982330323,0|0,0:0|2:0,0:0:0:0:
274,90,147931,2,0,B|301:119|301:119|289:203,1,115.799996466065,2|0,0:0|0:0,0:0:0:0:
252,347,148275,1,8,0:0:0:0:
44,288,148448,1,2,0:0:0:0:
101,282,148534,1,2,0:0:0:0:
158,276,148620,1,2,0:0:0:0:
388,252,148793,1,8,0:0:0:0:
274,133,148965,6,0,B|234:66|280:-5|280:-5|310:37|286:91,1,217.125008282662,2|0,0:0|2:0,0:0:0:0:
241,232,149310,6,0,P|201:215|178:187,1,57.8999982330323,2|0,0:0|2:0,0:0:0:0:
337,278,149482,2,0,P|359:260|387:251,1,57.8999982330323,0|0,0:0|0:0,0:0:0:0:
251,338,149655,2,0,L|251:367,2,28.9499991165161,10|2|2,2:0|2:0|2:0,0:0:0:0:
405,369,149827,2,0,L|405:341,2,28.9499991165161,2|2|2,2:0|2:0|2:0,0:0:0:0:
190,205,150000,6,0,L|118:208,1,57.8999982330323,2|0,0:0|0:0,0:0:0:0:
322,201,150172,1,2,0:0:0:0:
273,65,150344,6,0,B|264:93|264:93|269:129,1,57.8999982330323
376,121,150517,2,0,B|380:93|380:93|371:65,1,57.8999982330323,0|0,0:0|0:0,0:0:0:0:
269,283,150689,6,0,P|336:298|393:266,1,115.799996466065,2|0,0:0|0:0,0:0:0:0:
377,280,151034,2,0,P|327:299|226:214,1,173.699994699097,8|0,0:0|0:0,0:0:0:0:
377,280,151379,2,0,P|327:299|226:214,1,173.699994699097,0|0,0:0|0:0,0:0:0:0:
145,231,151724,6,0,P|169:196|178:164,1,57.8999982330323,2|0,0:0|0:0,0:0:0:0:
75,22,151896,2,0,P|86:48|103:71,1,57.8999982330323,0|0,0:0|0:0,0:0:0:0:
7,99,152068,5,2,0:0:0:0:
209,13,152241,1,0,0:0:0:0:
145,259,152413,2,0,L|144:221,2,28.9499991165161,10|2|2,2:0|2:0|2:0,0:0:0:0:
104,72,152586,2,0,L|103:110,2,28.9499991165161,2|2|2,2:0|2:0|2:0,0:0:0:0:
232,239,152758,1,2,0:0:0:0:
313,135,152931,2,0,P|275:129|243:134,1,57.8999982330323,2|0,0:0|0:0,0:0:0:0:
375,315,153103,6,0,P|401:267|390:198,1,96.5,8|0,0:0|0:0,0:0:0:0:
191,64,153275,2,0,P|219:110|284:135,1,96.5,2|0,0:0|0:0,0:0:0:0:
500,30,153448,2,0,P|445:31|391:75,1,96.5,2|0,0:0|0:0,0:0:0:0:
96,47,153620,6,0,B|103:95|103:95|156:180,1,96.5,8|0,0:0|0:0,0:0:0:0:
457,153,153793,2,0,B|411:135|411:135|311:138,1,96.5,2|0,0:0|0:0,0:0:0:0:
244,339,153965,1,2,0:0:0:0:
246,242,154051,1,2,0:0:0:0:
248,145,154137,1,8,0:0:0:0:
18,352,154310,5,6,0:0:0:0:
