osu file format v14

[General]
AudioFilename: audio.mp3
AudioLeadIn: 0
PreviewTime: 164656
Countdown: 0
SampleSet: Normal
StackLeniency: 0.3
Mode: 0
LetterboxInBreaks: 0
WidescreenStoryboard: 0

[Editor]
DistanceSpacing: 0.7
BeatDivisor: 4
GridSize: 8
TimelineZoom: 1.6

[Metadata]
Title:Virtual Riot - In My Head ft. PRXZM (Panda Eyes Remix)
TitleUnicode:Virtual Riot - In My Head ft. PRXZM (Panda Eyes Remix)
Artist:PandaEyes
ArtistUnicode:PandaEyes
Creator:MerinGD
Version:Unkown
Source:
Tags:
BeatmapID:2067177
BeatmapSetID:988165

[Difficulty]
HPDrainRate:4
CircleSize:4.3
OverallDifficulty:7
ApproachRate:9.1
SliderMultiplier:2.2
SliderTickRate:2

[Events]
//Background and Video events
//Break Periods
//Storyboard Layer 0 (Background)
//Storyboard Layer 1 (Fail)
//Storyboard Layer 2 (Pass)
//Storyboard Layer 3 (Foreground)
//Storyboard Sound Samples

[TimingPoints]
3875,468.75,4,1,0,100,1,0
3875,-133.333333333333,4,1,0,100,0,0
44656,-100,4,1,0,100,0,0
45125,-133.333333333333,4,1,0,100,0,0
48875,-100,4,1,0,100,0,0
78406,-66.6666666666667,4,1,0,100,0,0
80281,-133.333333333333,4,1,0,100,0,0
80750,-66.6666666666667,4,1,0,100,0,0
82625,-33.3333333333333,4,1,0,100,0,0
88250,-50,4,1,0,100,0,0
90125,-66.6666666666667,4,1,0,100,0,0
93875,-33.3333333333333,4,1,0,100,0,0
99851,-50,4,1,0,100,0,0
100203,-66.6666666666667,4,1,0,100,0,0
100554,-76.9230769230769,4,1,0,100,0,0
100906,-100,4,1,0,100,0,0
101375,-66.6666666666667,4,1,0,100,0,0
105125,-33.3333333333333,4,1,0,100,0,0
110750,-133.333333333333,4,1,0,100,0,0
111453,-45.4545454545455,4,1,0,100,0,0
111687,-133.333333333333,4,1,0,100,0,0
112625,-66.6666666666667,4,1,0,100,0,0
116375,-33.3333333333333,4,1,0,100,0,0
122000,-50,4,1,0,100,0,0
123875,-66.6666666666667,4,1,0,100,0,0
127625,-33.3333333333333,4,1,0,100,0,0
133250,-133.333333333333,4,1,0,100,0,0

[HitObjects]
96,131,3875,6,0,B|93:160|81:186|81:186|97:208|105:236|105:236|97:269|105:310,1,165.000006294251
195,269,4578,1,0,0:0:0:0:
226,351,4812,2,0,B|219:280|219:280|245:173,1,165.000006294251
335,226,5515,1,0,0:0:0:0:
371,304,5750,2,0,P|375:251|356:206,1,82.5000031471254
333,146,6218,1,0,0:0:0:0:
364,129,6453,1,0,0:0:0:0:
294,249,6687,2,0,P|290:196|309:151,1,82.5000031471254
438,80,7156,2,0,P|462:112|473:152,1,82.5000031471254
298,168,7625,6,0,P|259:142|199:140,1,82.5000031471254
186,149,8093,5,0,0:0:0:0:
171,247,8328,1,0,0:0:0:0:
248,210,8562,1,0,0:0:0:0:
106,188,8797,1,0,0:0:0:0:
161,307,9031,1,0,0:0:0:0:
195,88,9266,1,0,0:0:0:0:
106,188,9500,5,0,0:0:0:0:
121,286,9735,1,0,0:0:0:0:
186,227,9969,1,0,0:0:0:0:
43,249,10204,1,0,0:0:0:0:
130,346,10438,1,0,0:0:0:0:
96,127,10671,1,0,0:0:0:0:
43,249,10906,1,0,0:0:0:0:
186,227,11141,1,0,0:0:0:0:
314,265,11375,6,0,B|362:268|405:291|405:291|446:298|483:280,1,165.000006294251
472,181,12078,1,0,0:0:0:0:
348,141,12312,2,0,B|349:189|349:189|375:246|375:246|381:316,1,165.000006294251
472,181,13015,1,0,0:0:0:0:
333,101,13250,2,0,P|292:124|267:164,1,82.5000031471254
294,288,13718,2,0,P|324:315|363:327,1,82.5000031471254
396,32,14187,2,0,P|352:15|305:21,1,82.5000031471254
369,233,14655,2,0,P|408:220|438:192,1,82.5000031471254
353,130,15125,6,0,B|294:130|249:151|249:151|216:135|178:133,1,165.000006294251
86,153,15828,1,0,0:0:0:0:
172,237,16062,1,0,0:0:0:0:
231,56,16296,1,0,0:0:0:0:
140,90,16531,1,0,0:0:0:0:
280,147,16765,1,0,0:0:0:0:
409,70,17000,5,0,0:0:0:0:
493,156,17234,1,0,0:0:0:0:
312,215,17468,1,0,0:0:0:0:
346,124,17703,1,0,0:0:0:0:
403,264,17937,1,0,0:0:0:0:
312,215,18171,1,0,0:0:0:0:
502,222,18406,1,0,0:0:0:0:
466,343,18640,2,0,P|441:349|408:351,1,41.2500015735627
320,274,18875,6,0,P|279:268|231:279,1,82.5000031471254
104,336,19226,2,0,P|131:273|121:205,1,123.750004720688
126,219,19812,2,0,P|134:247|148:278,1,41.2500015735627
119,116,20164,2,0,P|60:143|25:204,1,123.750004720688
146,103,20750,2,0,P|116:103|79:112,1,41.2500015735627
228,161,21101,2,0,P|279:177|354:151,1,123.750004720688
446,59,21687,2,0,B|432:91|432:91|439:146,1,82.5000031471254
456,236,22039,2,0,B|465:299|465:299|434:361,1,123.750004720688
349,315,22625,6,0,L|283:311,1,41.2500015735627
205,349,22976,2,0,B|114:358|114:358|62:340,1,123.750004720688
133,189,23562,2,0,L|131:288,1,82.5000031471254
79,110,23914,2,0,P|120:97|162:97,1,82.5000031471254
159,96,24265,1,0,0:0:0:0:
265,119,24500,5,0,0:0:0:0:
279,238,24734,1,0,0:0:0:0:
371,120,24968,1,0,0:0:0:0:
252,134,25202,1,0,0:0:0:0:
279,238,25437,5,0,0:0:0:0:
265,357,25671,1,0,0:0:0:0:
173,239,25905,1,0,0:0:0:0:
292,253,26139,1,0,0:0:0:0:
424,331,26375,6,0,B|368:340,1,41.2500015735627
349,180,26726,2,0,L|477:215,1,123.750004720688
273,303,27312,2,0,L|201:313,1,61.875002360344
187,198,27664,2,0,P|197:241|171:296,1,103.125003933907
99,235,28250,1,0,0:0:0:0:
97,136,28425,1,0,0:0:0:0:
182,74,28601,2,0,L|187:200,1,123.750004720688
195,299,29187,5,0,0:0:0:0:
197,200,29362,1,0,0:0:0:0:
112,138,29538,2,0,L|107:264,1,123.750004720688
195,299,30125,5,0,0:0:0:0:
295,241,30359,1,0,0:0:0:0:
366,328,30593,1,0,0:0:0:0:
295,241,30828,1,0,0:0:0:0:
387,174,31062,1,0,0:0:0:0:
308,90,31296,1,0,0:0:0:0:
387,174,31531,1,0,0:0:0:0:
486,120,31765,2,0,B|525:98,1,41.2500015735627
486,120,32000,6,0,L|464:301,1,165.000006294251
467,283,32703,5,0,0:0:0:0:
476,201,32937,1,0,0:0:0:0:
486,120,33171,1,0,0:0:0:0:
467,283,33406,1,0,0:0:0:0:
476,201,33640,1,0,0:0:0:0:
457,371,33875,6,0,B|292:385|383:302|210:315,1,247.500009441376
147,344,34812,2,0,B|204:312|204:312|187:183,1,165.000006294251
61,165,35515,2,0,P|113:225|190:212,1,165.000006294251
142,144,36218,1,0,0:0:0:0:
61,165,36453,2,0,P|78:202|112:225,1,82.5000031471254
190,212,36921,1,0,0:0:0:0:
233,146,37155,1,0,0:0:0:0:
195,78,37389,1,0,0:0:0:0:
117,80,37625,6,0,B|126:137|170:164|227:149|227:149|266:92|339:100,1,247.500009441376
433,121,38562,2,0,P|394:189|315:194,1,165.000006294251
348,112,39265,2,0,B|375:166|375:166|355:272,1,165.000006294251
274,290,39968,1,0,0:0:0:0:
355,268,40203,2,0,P|338:230|304:208,1,82.5000031471254
226,222,40671,1,0,0:0:0:0:
183,287,40905,1,0,0:0:0:0:
221,355,41139,1,0,0:0:0:0:
274,290,41375,6,0,B|221:290|172:321|172:321|91:319|41:260,1,247.500009441376
178,82,42312,2,0,P|199:174|148:224,1,165.000006294251
117,143,43015,2,0,B|165:130|200:150|200:150|232:187|285:193,1,165.000006294251
297,108,43718,1,0,0:0:0:0:
216,130,43953,2,0,P|232:167|266:189,1,82.5000031471254
345,176,44421,1,0,0:0:0:0:
379,106,44656,2,0,L|215:129,1,165
154,55,45125,6,0,B|199:70|230:117|210:184|210:184|212:223|240:270,1,247.500009441376
443,240,46062,2,0,P|388:180|291:205,1,165.000006294251
360,263,46765,1,0,0:0:0:0:
434,361,47000,2,0,L|450:269,1,82.5000031471254
364,291,47468,1,0,0:0:0:0:
284,305,47703,2,0,L|269:223,1,82.5000031471254
156,181,48875,6,0,B|135:129|43:134|37:239|133:281,1,220
216,245,49812,2,0,B|248:210|241:151|241:151|214:114|215:70,1,165
328,32,50281,1,0,0:0:0:0:
381,33,50398,1,0,0:0:0:0:
395,84,50515,1,0,0:0:0:0:
351,113,50632,1,0,0:0:0:0:
308,82,50750,6,0,P|313:50|344:17,1,55
395,84,50984,2,0,P|389:115|358:148,1,55
308,82,51218,2,0,P|313:50|344:17,1,55
395,84,51452,2,0,P|389:115|358:148,1,55
301,181,51687,2,0,B|281:227|345:289|429:214|375:133,1,220
225,130,52625,6,0,B|194:184|218:250|218:250|284:248|326:298,1,220
155,279,53562,2,0,P|230:250|306:278,1,165
344,308,54031,1,0,0:0:0:0:
395,326,54148,1,0,0:0:0:0:
448,317,54265,1,0,0:0:0:0:
493,285,54382,1,0,0:0:0:0:
451,189,54500,6,0,L|445:120,1,55
401,273,54734,2,0,L|395:342,1,55
451,189,54968,2,0,L|445:120,1,55
401,273,55202,2,0,L|395:342,1,55
325,217,55437,2,0,B|332:149|332:149|334:83|258:53|217:90,1,220
169,204,56375,6,0,P|261:274|327:200,1,220
292,43,57312,2,0,B|269:89|269:89|266:119|279:149|279:149|253:170|244:211,1,165
324,216,57781,1,0,0:0:0:0:
376,229,57898,1,0,0:0:0:0:
424,205,58015,1,0,0:0:0:0:
446,156,58132,1,0,0:0:0:0:
430,104,58250,6,0,P|402:98|356:97,1,55
456,203,58484,2,0,P|484:196|530:195,1,55
430,104,58718,2,0,P|402:98|356:97,1,55
456,203,58952,2,0,P|484:196|530:195,1,55
413,307,59187,6,0,B|384:313|342:315|342:315|297:285|239:313|239:313|239:287|261:269,1,220
298,186,60125,5,0,0:0:0:0:
298,186,60359,1,0,0:0:0:0:
345,165,60476,1,0,0:0:0:0:
347,112,60593,1,0,0:0:0:0:
301,88,60710,1,0,0:0:0:0:
259,119,60827,1,0,0:0:0:0:
259,119,61062,5,0,0:0:0:0:
259,119,61296,1,0,0:0:0:0:
238,166,61413,1,0,0:0:0:0:
185,168,61530,1,0,0:0:0:0:
161,122,61647,1,0,0:0:0:0:
192,80,61765,1,0,0:0:0:0:
192,80,62000,5,0,0:0:0:0:
192,80,62234,1,0,0:0:0:0:
194,134,62351,1,0,0:0:0:0:
196,189,62468,1,0,0:0:0:0:
198,244,62585,1,0,0:0:0:0:
200,299,62702,1,0,0:0:0:0:
200,299,62937,5,0,0:0:0:0:
200,299,63171,1,0,0:0:0:0:
229,254,63288,1,0,0:0:0:0:
281,241,63405,1,0,0:0:0:0:
328,267,63522,1,0,0:0:0:0:
344,318,63639,1,0,0:0:0:0:
374,58,63875,5,0,0:0:0:0:
374,58,64343,1,0,0:0:0:0:
374,58,64812,1,0,0:0:0:0:
374,58,65281,1,0,0:0:0:0:
372,112,65398,1,0,0:0:0:0:
371,167,65515,1,0,0:0:0:0:
369,222,65632,1,0,0:0:0:0:
368,277,65750,6,0,P|330:310|303:315,1,55
203,256,65984,2,0,P|188:232|183:205,1,55
292,171,66218,2,0,P|292:220|279:244,1,55
193,342,66452,2,0,P|165:338|141:325,1,55
80,235,66687,1,0,0:0:0:0:
80,235,67156,1,0,0:0:0:0:
99,41,67625,5,0,0:0:0:0:
99,41,68093,1,0,0:0:0:0:
99,41,68562,1,0,0:0:0:0:
99,41,69031,1,0,0:0:0:0:
153,43,69148,1,0,0:0:0:0:
202,68,69265,1,0,0:0:0:0:
253,86,69382,1,0,0:0:0:0:
308,82,69500,6,0,P|339:75|367:60,1,55
247,155,69734,2,0,P|262:182|269:213,1,55
184,242,69968,2,0,P|152:247|120:244,1,55
256,299,70202,2,0,P|261:330|258:362,1,55
338,261,70437,1,0,0:0:0:0:
338,261,70906,1,0,0:0:0:0:
338,261,71375,6,0,P|408:278|436:317,1,110
259,219,71843,2,0,P|317:176|364:179,1,110
173,249,72312,2,0,P|177:177|211:142,1,110
145,334,72780,2,0,P|92:284|88:236,1,110
281,230,73250,6,0,L|164:250,1,110
358,101,73718,2,0,L|475:121,1,110
280,243,74187,2,0,L|163:263,1,110
362,90,74655,2,0,L|479:110,1,110
285,256,75125,5,0,0:0:0:0:
231,267,75242,1,0,0:0:0:0:
177,278,75359,1,0,0:0:0:0:
124,265,75476,1,0,0:0:0:0:
85,227,75593,1,0,0:0:0:0:
134,205,75710,1,0,0:0:0:0:
166,162,75828,1,0,0:0:0:0:
167,108,75945,1,0,0:0:0:0:
138,62,76062,1,0,0:0:0:0:
188,42,76179,1,0,0:0:0:0:
243,46,76296,1,0,0:0:0:0:
297,46,76414,1,0,0:0:0:0:
341,18,76531,1,0,0:0:0:0:
346,73,76648,1,0,0:0:0:0:
364,120,76765,1,0,0:0:0:0:
398,162,76882,1,0,0:0:0:0:
406,216,77000,5,0,0:0:0:0:
170,234,78406,5,0,0:0:0:0:
171,206,78523,1,0,0:0:0:0:
172,179,78640,1,0,0:0:0:0:
174,151,78757,1,0,0:0:0:0:
312,72,78875,6,0,L|393:104,1,82.5000031471254
324,154,79109,2,0,L|311:72,1,82.5000031471254
389,103,79343,2,0,L|324:154,1,82.5000031471254
312,72,79578,2,0,L|393:104,1,82.5000031471254
440,236,80281,5,0,0:0:0:0:
415,288,80398,1,0,0:0:0:0:
362,308,80515,1,0,0:0:0:0:
311,279,80632,1,0,0:0:0:0:
292,137,80750,6,0,P|290:88|297:51,1,82.5000031471254
173,216,80984,2,0,P|165:172|152:136,1,82.5000031471254
292,137,81218,2,0,L|290:51,1,82.5000031471254
173,216,81452,2,0,L|152:136,1,82.5000031471254
259,283,81687,2,0,P|256:321|247:368,1,82.5000031471254
208,367,81921,2,0,P|208:340|207:313,2,55.0000020980836
337,315,82156,1,0,0:0:0:0:
83,335,82390,1,0,0:0:0:0:
41,252,82546,1,0,0:0:0:0:
84,139,82625,6,0,L|91:90,26,41.2500015735627
201,244,83562,2,0,L|194:195,18,41.2500015735627
239,11,84265,2,0,P|304:-6|399:52,1,165.000006294251
435,233,84500,2,0,L|440:273,26,41.2500015735627
325,333,85437,2,0,L|324:375,18,41.2500015735627
196,260,86140,2,0,B|205:196|205:196|232:147|232:147|242:86,1,165.000006294251
417,49,86375,2,0,L|457:43,26,41.2500015735627
302,99,87312,2,0,L|262:93,18,41.2500015735627
480,217,88015,2,0,B|435:246|387:236|387:236|343:203|298:210,1,165.000006294251
89,230,88250,6,0,B|75:286|69:370|69:370|66:313|58:266,1,220
37,159,88601,2,0,B|93:122|162:168|162:168|208:177|255:159,1,220
218,0,88953,2,0,P|174:99|249:162,1,220
469,100,89304,2,0,B|439:72|400:62|400:62|250:79,1,220
114,250,89656,2,0,B|253:265|253:265|292:255|322:227,1,220
200,72,90125,6,0,L|119:104,1,82.5000031471254
188,154,90359,2,0,L|201:72,1,82.5000031471254
123,103,90593,2,0,L|188:154,1,82.5000031471254
200,72,90828,2,0,L|119:104,1,82.5000031471254
275,208,91062,2,0,L|296:28,1,165.000006294251
428,160,91531,5,0,0:0:0:0:
387,332,91648,1,0,0:0:0:0:
409,108,91765,5,0,0:0:0:0:
423,284,91882,1,0,0:0:0:0:
295,177,92000,6,0,P|253:184|202:203,1,82.5000031471254
266,75,92234,2,0,P|307:76|348:85,1,82.5000031471254
119,164,92468,6,0,P|77:165|37:173,1,82.5000031471254
90,265,92702,2,0,P|130:271|169:284,1,82.5000031471254
215,196,92937,2,0,L|201:90,1,82.5000031471254
323,219,93406,5,0,0:0:0:0:
342,86,93640,1,0,0:0:0:0:
391,310,93875,6,0,P|393:339|398:371,20,55.0000020980836
205,260,94812,2,0,L|159:263,18,41.2500015735627
414,182,95515,2,0,B|429:184|457:195|457:195|426:170|407:162|407:162|373:174|339:174,1,165.000006294251
84,157,95750,6,0,P|55:155|23:150,20,55.0000020980836
263,81,96687,2,0,L|266:35,18,41.2500015735627
266,271,97390,2,0,P|309:339|396:336,1,165.000006294251
266,271,97625,6,0,P|237:273|205:278,20,55.0000020980836
48,215,98562,2,0,L|6:217,18,41.2500015735627
204,155,99265,6,0,B|241:141|285:146|285:146|326:168|363:168,1,165.000006294251
402,16,99500,2,0,B|350:41|345:100|345:100|365:180|365:180|359:262|359:262|355:225|342:202,1,330.000012588501
204,283,99851,2,0,P|305:299|343:205,1,220
250,62,100203,2,0,B|240:91|240:127|240:127|262:175|264:234,1,165.000006294251
463,121,100554,2,0,L|317:107,1,142.99999345398
360,200,100906,2,0,P|357:146|319:107,1,110
145,45,101375,6,0,L|63:69,1,82.5000031471254
91,220,101609,2,0,L|172:244,1,82.5000031471254
161,256,101843,2,0,L|76:245,1,82.5000031471254
231,189,102078,2,0,P|253:222|258:269,1,82.5000031471254
232,189,102781,5,0,0:0:0:0:
369,57,102898,1,0,0:0:0:0:
312,195,103015,5,0,0:0:0:0:
310,0,103132,1,0,0:0:0:0:
383,161,103250,6,0,P|392:208|395:260,1,82.5000031471254
282,350,103484,2,0,P|290:310|295:269,1,82.5000031471254
152,294,103718,6,0,P|155:335|164:376,1,82.5000031471254
55,269,103952,2,0,P|58:228|67:188,1,82.5000031471254
216,15,104187,2,0,B|232:58|228:110|228:110|215:138|217:178,1,165.000006294251
216,176,104656,6,0,L|211:121,1,41.2500015735627
334,31,104890,2,0,L|329:86,1,41.2500015735627
89,285,105125,6,0,L|84:245,26,41.2500015735627
195,180,106062,2,0,L|201:140,18,41.2500015735627
239,373,106765,2,0,P|304:390|399:332,1,165.000006294251
437,165,107000,2,0,L|432:125,26,41.2500015735627
309,63,107937,2,0,L|310:21,18,41.2500015735627
196,124,108640,2,0,B|205:188|205:188|232:237|232:237|242:298,1,165.000006294251
31,326,108875,5,0,0:0:0:0:
64,147,108992,1,0,0:0:0:0:
54,359,109226,5,0,0:0:0:0:
30,176,109343,1,0,0:0:0:0:
120,39,109578,2,0,B|175:33|175:33|200:40|223:51|223:51|262:40|294:46,1,165.000006294251
454,88,109812,5,0,0:0:0:0:
425,258,109929,1,0,0:0:0:0:
279,80,110164,5,0,0:0:0:0:
449,109,110281,1,0,0:0:0:0:
259,98,110515,2,0,B|232:131|232:131|243:210,2,110.000004196167
308,240,110750,6,0,P|278:210|225:197,1,82.5000031471254
60,217,111101,2,0,P|100:206|138:166,1,82.5000031471254
200,15,111453,2,0,P|189:55|205:108,2,80.6666691284181
364,75,111687,6,0,L|276:61,1,82.5000031471254
361,187,112039,2,0,L|449:173,1,82.5000031471254
364,308,112390,2,0,L|300:298,1,41.2500015735627
127,210,112625,6,0,L|32:232,1,82.5000031471254
104,290,112859,2,0,L|132:196,1,82.5000031471254
46,228,113093,2,0,L|112:299,1,82.5000031471254
128,212,113328,2,0,L|33:234,1,82.5000031471254
179,363,113562,2,0,L|229:198,1,165.000006294251
160,128,114031,5,0,0:0:0:0:
393,180,114148,1,0,0:0:0:0:
140,158,114265,5,0,0:0:0:0:
378,136,114382,1,0,0:0:0:0:
506,8,114500,2,0,P|480:41|467:82,1,82.5000031471254
511,148,114734,2,0,P|494:109|465:77,1,82.5000031471254
355,116,114968,2,0,P|349:157|357:200,1,82.5000031471254
427,236,115202,2,0,P|393:210|352:196,1,82.5000031471254
255,301,115437,5,0,0:0:0:0:
148,191,115671,6,0,P|122:200|100:216,3,55.0000020980836
45,350,116140,1,0,0:0:0:0:
314,363,116296,1,0,0:0:0:0:
277,143,116375,6,0,L|268:82,20,55.0000020980836
136,20,117312,2,0,L|90:23,18,41.2500015735627
401,33,118015,2,0,B|433:74|433:74|439:218,1,165.000006294251
321,288,118250,6,0,L|258:293,20,55.0000020980836
106,205,119187,2,0,L|103:159,18,41.2500015735627
266,292,119890,2,0,B|253:239|253:239|251:211|259:183|259:183|254:154|235:127,1,165.000006294251
151,27,120125,6,0,L|88:32,20,55.0000020980836
365,74,121062,2,0,L|411:77,18,41.2500015735627
251,149,121765,2,0,B|232:184|235:232|235:232|255:267|255:267|254:324,1,165.000006294251
385,303,122000,6,0,P|365:251|331:209,1,110
51,286,122351,2,0,P|105:294|159:286,1,110
236,9,122703,2,0,P|201:51|181:102,1,110
385,303,123054,2,0,P|365:251|331:209,1,110
225,198,123406,1,0,0:0:0:0:
226,96,123875,6,0,L|145:128,1,82.5000031471254
312,252,124109,2,0,L|324:165,1,82.5000031471254
133,248,124343,2,0,L|201:302,1,82.5000031471254
226,96,124578,2,0,L|145:128,1,82.5000031471254
62,168,125281,5,0,0:0:0:0:
61,313,125398,1,0,0:0:0:0:
99,144,125515,5,0,0:0:0:0:
46,279,125632,1,0,0:0:0:0:
164,223,125750,6,0,P|206:230|257:249,1,82.5000031471254
193,121,125984,2,0,P|152:122|111:131,1,82.5000031471254
340,210,126218,6,0,P|382:211|422:219,1,82.5000031471254
369,311,126452,2,0,P|329:317|290:330,1,82.5000031471254
244,242,126687,2,0,L|258:136,1,82.5000031471254
209,40,126921,2,0,P|182:28|156:21,2,55.0000020980836
352,58,127156,5,0,0:0:0:0:
446,110,127390,1,0,0:0:0:0:
361,302,127546,1,0,0:0:0:0:
339,333,127625,6,0,L|381:335,8,41.2500015735627
108,173,128093,2,0,L|66:174,8,41.2500015735627
339,46,128562,2,0,L|380:47,8,41.2500015735627
339,46,129265,2,0,B|380:40|404:29|404:29|383:63|373:148,1,165.000006294251
372,292,129500,6,0,P|374:318|378:347,24,41.2500015735627
325,70,130437,2,0,P|323:44|319:15,8,41.2500015735627
112,312,131140,6,0,B|168:329|168:329|229:328|251:277|231:233,1,165.000006294251
140,111,131375,6,0,P|121:104|102:98,8,41.2500015735627
382,132,131843,2,0,P|399:119|414:105,8,41.2500015735627
244,331,132312,2,0,P|247:352|251:372,8,41.2500015735627
148,241,133015,6,0,P|131:253|116:267,4,41.2500015735627
266,74,133250,2,0,P|259:32|240:-4,1,82.5000031471254
352,259,133601,2,0,P|393:275|436:277,1,82.5000031471254
148,241,133953,2,0,P|112:271|86:310,1,82.5000031471254
266,74,134304,2,0,P|259:32|240:-4,1,82.5000031471254
352,259,134655,2,0,P|393:275|436:277,1,82.5000031471254
