osu file format v14

[General]
AudioFilename: audio.mp3
AudioLeadIn: 0
PreviewTime: 43164
Countdown: 0
SampleSet: None
StackLeniency: 0.7
Mode: 3
LetterboxInBreaks: 0
SpecialStyle: 0
WidescreenStoryboard: 0

[Editor]
Bookmarks: 46061,46474,48543
DistanceSpacing: 1
BeatDivisor: 8
GridSize: 4
TimelineZoom: 8

[Metadata]
Title:Wild Jungle Animal
TitleUnicode:Wild Jungle Animal
Artist:Panda Eyes
ArtistUnicode:Panda Eyes
Creator:ExKoi_
Version:Insane
Source:
Tags:panda eyes wild jungle animal
BeatmapID:3866247
BeatmapSetID:1878219

[Difficulty]
HPDrainRate:7
CircleSize:4
OverallDifficulty:6
ApproachRate:5
SliderMultiplier:1.4
SliderTickRate:1

[Events]
//Background and Video events
0,0,"Screenshot (21).png",0,0
//Break Periods
//Storyboard Layer 0 (Background)
//Storyboard Layer 1 (Fail)
//Storyboard Layer 2 (Pass)
//Storyboard Layer 3 (Foreground)
//Storyboard Layer 4 (Overlay)
//Storyboard Sound Samples

[TimingPoints]
130,413.793103448276,4,1,0,20,1,0
43164,-66.6666666666667,4,1,0,20,0,1
43216,-400,4,1,0,20,0,1
43267,-66.6666666666667,4,1,0,20,0,1
43319,-400,4,1,0,20,0,1
43371,-66.6666666666667,4,1,0,20,0,1
43423,-400,4,1,0,20,0,1
43474,-66.6666666666667,4,1,0,20,0,1
43526,-400,4,1,0,20,0,1
43578,-66.6666666666667,4,1,0,20,0,1
43630,-400,4,1,0,20,0,1
43681,-66.6666666666667,4,1,0,20,0,1
43733,-400,4,1,0,20,0,1
43785,-66.6666666666667,4,1,0,20,0,1
43836,-400,4,1,0,20,0,1
43888,-66.6666666666667,4,1,0,20,0,1
43940,-400,4,1,0,20,0,1
43992,-66.6666666666667,4,1,0,20,0,1
44043,-400,4,1,0,20,0,1
44095,-66.6666666666667,4,1,0,20,0,1
44147,-400,4,1,0,20,0,1
44198,-66.6666666666667,4,1,0,20,0,1
44250,-400,4,1,0,20,0,1
44302,-66.6666666666667,4,1,0,20,0,1
44354,-400,4,1,0,20,0,1
44405,-66.6666666666667,4,1,0,20,0,1
44457,-400,4,1,0,20,0,1
44509,-66.6666666666667,4,1,0,20,0,1
44561,-400,4,1,0,20,0,1
44612,-66.6666666666667,4,1,0,20,0,1
44664,-400,4,1,0,20,0,1
44716,-66.6666666666667,4,1,0,20,0,1
44767,-400,4,1,0,20,0,1
44819,-66.6666666666667,4,1,0,20,0,1
44871,-400,4,1,0,20,0,1
44923,-66.6666666666667,4,1,0,20,0,1
44974,-400,4,1,0,20,0,1
45026,-66.6666666666667,4,1,0,20,0,1
45078,-400,4,1,0,20,0,1
45130,-66.6666666666667,4,1,0,20,0,1
45181,-400,4,1,0,20,0,1
45233,-66.6666666666667,4,1,0,20,0,1
45285,-400,4,1,0,20,0,1
45336,-66.6666666666667,4,1,0,20,0,1
45388,-400,4,1,0,20,0,1
45440,-66.6666666666667,4,1,0,20,0,1
45492,-400,4,1,0,20,0,1
45543,-66.6666666666667,4,1,0,20,0,1
45595,-400,4,1,0,20,0,1
45647,-66.6666666666667,4,1,0,20,0,1
45698,-400,4,1,0,20,0,1
45750,-66.6666666666667,4,1,0,20,0,1
45802,-400,4,1,0,20,0,1
45854,-66.6666666666667,4,1,0,20,0,1
45905,-400,4,1,0,20,0,1
45957,-66.6666666666667,4,1,0,20,0,1
46009,-400,4,1,0,20,0,1
46061,-100,4,1,0,20,0,1
46474,-66.6666666666667,4,1,0,20,0,1
46526,-400,4,1,0,20,0,1
46578,-66.6666666666667,4,1,0,20,0,1
46630,-400,4,1,0,20,0,1
46681,-66.6666666666667,4,1,0,20,0,1
46733,-400,4,1,0,20,0,1
46785,-66.6666666666667,4,1,0,20,0,1
46836,-400,4,1,0,20,0,1
46888,-66.6666666666667,4,1,0,20,0,1
46940,-400,4,1,0,20,0,1
46992,-66.6666666666667,4,1,0,20,0,1
47043,-400,4,1,0,20,0,1
47095,-66.6666666666667,4,1,0,20,0,1
47147,-400,4,1,0,20,0,1
47198,-66.6666666666667,4,1,0,20,0,1
47250,-400,4,1,0,20,0,1
47302,-66.6666666666667,4,1,0,20,0,1
47354,-400,4,1,0,20,0,1
47405,-66.6666666666667,4,1,0,20,0,1
47457,-400,4,1,0,20,0,1
47509,-66.6666666666667,4,1,0,20,0,1
47561,-400,4,1,0,20,0,1
47612,-66.6666666666667,4,1,0,20,0,1
47664,-400,4,1,0,20,0,1
47716,-66.6666666666667,4,1,0,20,0,1
47767,-400,4,1,0,20,0,1
47819,-66.6666666666667,4,1,0,20,0,1
47871,-400,4,1,0,20,0,1
47923,-66.6666666666667,4,1,0,20,0,1
47974,-400,4,1,0,20,0,1
48026,-66.6666666666667,4,1,0,20,0,1
48078,-400,4,1,0,20,0,1
48130,-66.6666666666667,4,1,0,20,0,1
48181,-400,4,1,0,20,0,1
48233,-66.6666666666667,4,1,0,20,0,1
48285,-400,4,1,0,20,0,1
48336,-66.6666666666667,4,1,0,20,0,1
48388,-400,4,1,0,20,0,1
48440,-66.6666666666667,4,1,0,20,0,1
48492,-400,4,1,0,20,0,1
48543,-1000,4,1,0,20,0,1
48595,-80,4,1,0,20,0,1
48647,-66.6666666666667,4,1,0,20,0,1
48698,-57.1428571428571,4,1,0,20,0,1
48750,-50,4,1,0,20,0,1
49371,-100,4,1,0,20,0,1
66336,-100,4,1,0,20,0,0
115992,-100,4,1,0,20,0,1
139164,-100,4,1,0,20,0,0

[HitObjects]
448,192,43164,5,0,0:0:0:0:
64,192,43164,1,0,0:0:0:0:
192,192,43164,1,0,0:0:0:0:
64,192,43267,1,0,0:0:0:0:
448,192,43267,1,0,0:0:0:0:
192,192,43371,1,0,0:0:0:0:
448,192,43371,1,0,0:0:0:0:
320,192,43474,1,0,0:0:0:0:
64,192,43474,1,0,0:0:0:0:
448,192,43578,1,0,0:0:0:0:
64,192,43578,1,0,0:0:0:0:
192,192,43681,1,0,0:0:0:0:
448,192,43681,1,0,0:0:0:0:
448,192,43785,1,0,0:0:0:0:
64,192,43785,1,0,0:0:0:0:
320,192,43888,1,0,0:0:0:0:
64,192,43888,1,0,0:0:0:0:
192,192,43992,1,0,0:0:0:0:
448,192,43992,1,0,0:0:0:0:
448,192,44095,1,0,0:0:0:0:
64,192,44095,1,0,0:0:0:0:
64,192,44198,1,0,0:0:0:0:
320,192,44198,1,0,0:0:0:0:
64,192,44302,1,0,0:0:0:0:
448,192,44302,1,0,0:0:0:0:
192,192,44405,1,0,0:0:0:0:
448,192,44405,1,0,0:0:0:0:
320,192,44509,1,0,0:0:0:0:
64,192,44509,1,0,0:0:0:0:
448,192,44612,1,0,0:0:0:0:
64,192,44612,1,0,0:0:0:0:
192,192,44716,1,0,0:0:0:0:
448,192,44716,1,0,0:0:0:0:
448,192,44819,1,0,0:0:0:0:
64,192,44819,1,0,0:0:0:0:
320,192,44923,1,0,0:0:0:0:
64,192,44923,1,0,0:0:0:0:
192,192,45026,1,0,0:0:0:0:
448,192,45026,1,0,0:0:0:0:
448,192,45130,1,0,0:0:0:0:
64,192,45130,1,0,0:0:0:0:
64,192,45233,1,0,0:0:0:0:
320,192,45233,1,0,0:0:0:0:
448,192,45233,1,0,0:0:0:0:
448,192,45336,1,0,0:0:0:0:
64,192,45336,1,0,0:0:0:0:
448,192,45440,1,0,0:0:0:0:
192,192,45440,1,0,0:0:0:0:
64,192,45543,1,0,0:0:0:0:
320,192,45543,1,0,0:0:0:0:
64,192,45647,1,0,0:0:0:0:
448,192,45647,1,0,0:0:0:0:
448,192,45750,1,0,0:0:0:0:
192,192,45750,1,0,0:0:0:0:
64,192,45854,1,0,0:0:0:0:
448,192,45854,1,0,0:0:0:0:
64,192,45957,1,0,0:0:0:0:
320,192,45957,1,0,0:0:0:0:
192,192,46474,5,0,0:0:0:0:
64,192,46474,1,0,0:0:0:0:
448,192,46474,1,0,0:0:0:0:
448,192,46578,1,0,0:0:0:0:
64,192,46578,1,0,0:0:0:0:
448,192,46681,1,0,0:0:0:0:
192,192,46681,1,0,0:0:0:0:
64,192,46785,1,0,0:0:0:0:
320,192,46785,1,0,0:0:0:0:
64,192,46888,1,0,0:0:0:0:
448,192,46888,1,0,0:0:0:0:
448,192,46992,1,0,0:0:0:0:
192,192,46992,1,0,0:0:0:0:
64,192,47095,1,0,0:0:0:0:
448,192,47095,1,0,0:0:0:0:
64,192,47198,1,0,0:0:0:0:
320,192,47198,1,0,0:0:0:0:
448,192,47302,1,0,0:0:0:0:
192,192,47302,1,0,0:0:0:0:
64,192,47405,1,0,0:0:0:0:
448,192,47405,1,0,0:0:0:0:
320,192,47509,1,0,0:0:0:0:
64,192,47509,1,0,0:0:0:0:
448,192,47612,1,0,0:0:0:0:
64,192,47612,1,0,0:0:0:0:
448,192,47716,1,0,0:0:0:0:
192,192,47716,1,0,0:0:0:0:
64,192,47819,1,0,0:0:0:0:
320,192,47819,1,0,0:0:0:0:
64,192,47923,1,0,0:0:0:0:
448,192,47923,1,0,0:0:0:0:
448,192,48026,1,0,0:0:0:0:
192,192,48026,1,0,0:0:0:0:
64,192,48130,1,0,0:0:0:0:
448,192,48130,1,0,0:0:0:0:
64,192,48233,1,0,0:0:0:0:
320,192,48233,1,0,0:0:0:0:
448,192,48336,1,0,0:0:0:0:
192,192,48336,1,0,0:0:0:0:
64,192,48440,1,0,0:0:0:0:
448,192,48440,1,0,0:0:0:0:
320,192,48543,128,0,48647:0:0:0:0:
192,192,48543,128,0,48647:0:0:0:0:
64,192,48647,128,0,48750:0:0:0:0:
448,192,48647,128,0,48750:0:0:0:0:
320,192,48750,1,0,0:0:0:0:
192,192,48750,1,0,0:0:0:0:
64,192,48802,1,0,0:0:0:0:
192,192,48854,1,0,0:0:0:0:
448,192,48854,1,0,0:0:0:0:
320,192,48905,1,0,0:0:0:0:
64,192,48957,1,0,0:0:0:0:
192,192,49009,1,0,0:0:0:0:
448,192,49009,1,0,0:0:0:0:
320,192,49061,1,0,0:0:0:0:
64,192,49112,1,0,0:0:0:0:
192,192,49164,1,0,0:0:0:0:
448,192,49164,1,0,0:0:0:0:
320,192,49216,1,0,0:0:0:0:
64,192,49267,1,0,0:0:0:0:
192,192,49319,1,0,0:0:0:0:
448,192,49319,1,0,0:0:0:0:
320,192,49371,1,0,0:0:0:0:
