osu file format v14

[General]
AudioFilename: audio.mp3
AudioLeadIn: 0
PreviewTime: 67669
Countdown: 0
SampleSet: Soft
StackLeniency: 0.5
Mode: 0
LetterboxInBreaks: 0
WidescreenStoryboard: 0

[Editor]
DistanceSpacing: 0.7
BeatDivisor: 4
GridSize: 4
TimelineZoom: 1.9

[Metadata]
Title:One Smile (feat. Azuria Sky)
TitleUnicode:One Smile (feat. Azuria Sky)
Artist:Panda Eyes
ArtistUnicode:Panda Eyes
Creator:MegaMK
Version:Emotions
Source:
Tags:Dubstep Electro Azuria Sky Panda Eyes One Smile
BeatmapID:1322281
BeatmapSetID:627485

[Difficulty]
HPDrainRate:5
CircleSize:4
OverallDifficulty:8
ApproachRate:9
SliderMultiplier:1.4
SliderTickRate:1

[Events]
//Background and Video events
0,0,"forsmile2.jpg",0,0
//Break Periods
//Storyboard Layer 0 (Background)
//Storyboard Layer 1 (Fail)
//Storyboard Layer 2 (Pass)
//Storyboard Layer 3 (Foreground)
//Storyboard Sound Samples

[TimingPoints]
10,425.531914893617,4,2,1,100,1,0
10,-200,4,2,1,10,0,0
13627,-133.333333333333,4,2,1,27,0,0
15648,-133.333333333333,4,2,1,20,0,0
15967,-133.333333333333,4,2,1,14,0,0
16180,-200,4,2,1,8,0,0
17031,-133.333333333333,4,2,1,27,0,0
19052,-133.333333333333,4,2,1,20,0,0
19371,-133.333333333333,4,2,1,14,0,0
19584,-200,4,2,1,8,0,0
20435,-133.333333333333,4,2,1,27,0,0
22988,-200,4,2,1,8,0,0
23839,-133.333333333333,4,2,1,27,0,0
25861,-133.333333333333,4,2,1,20,0,0
26180,-133.333333333333,4,2,1,14,0,0
26392,-200,4,2,1,8,0,0
27244,-133.333333333333,4,2,1,27,0,0
29265,-133.333333333333,4,2,1,20,0,0
29584,-133.333333333333,4,2,1,14,0,0
29797,-200,4,2,1,8,0,0
30648,-133.333333333333,4,2,1,27,0,0
32669,-133.333333333333,4,2,1,20,0,0
32988,-133.333333333333,4,2,1,14,0,0
33201,-200,4,2,1,8,0,0
34052,-133.333333333333,4,2,1,27,0,0
40861,-111.111111111111,4,2,1,40,0,0
49797,-111.111111111111,4,2,1,30,0,0
50222,-111.111111111111,4,2,1,20,0,0
50861,-111.111111111111,4,2,1,30,0,0
51073,-111.111111111111,4,2,1,40,0,0
56180,-111.111111111111,4,2,1,30,0,0
56605,-111.111111111111,4,2,1,20,0,0
57031,-111.111111111111,4,2,1,10,0,0
57456,-111.111111111111,4,2,1,25,0,0
57882,-111.111111111111,4,2,1,40,0,0
60009,-111.111111111111,4,2,1,30,0,0
60435,-111.111111111111,4,2,1,20,0,0
60861,-111.111111111111,4,2,1,30,0,0
61286,-111.111111111111,4,2,1,40,0,0
64690,-142.857142857143,4,2,1,40,0,0
68946,-80,4,2,1,60,0,1
74903,-133.333333333333,4,2,1,60,0,1
75754,-80,4,2,1,60,0,1
81712,-133.333333333333,4,2,1,60,0,1
82563,-80,4,2,1,60,0,1
88520,-133.333333333333,4,2,1,60,0,1
89371,-80,4,2,1,60,0,1
91924,-71.4285714285714,4,2,1,40,0,0
95329,-125,4,2,1,40,0,0
96180,-66.6666666666667,4,2,1,70,0,1
102137,-125,4,2,1,70,0,1
102988,-66.6666666666667,4,2,1,70,0,1
108946,-125,4,2,1,70,0,1
109797,-66.6666666666667,4,2,1,70,0,1
115754,-125,4,2,1,70,0,1
116605,-66.6666666666667,4,2,1,70,0,1
119158,-153.846153846154,4,2,1,40,0,0
120861,-153.846153846154,4,2,1,30,0,0
121286,-153.846153846154,4,2,1,20,0,0
121712,-153.846153846154,4,2,1,10,0,0
122137,-153.846153846154,4,2,1,5,0,0

[Colours]
Combo1 : 219,181,209
Combo2 : 255,108,182
Combo3 : 154,27,165
Combo4 : 177,5,79

[HitObjects]
165,135,10,6,0,P|196:132|229:138,4,52.5
108,255,1712,6,0,P|105:224|111:191,4,52.5
217,319,3414,6,0,P|186:322|153:316,4,52.5
274,199,5116,6,0,P|277:230|271:263,4,52.5
301,117,6818,6,0,L|366:122,1,52.5
408,200,7456,2,0,L|343:195,1,52.5
281,189,8095,1,0,0:0:0:0:
141,86,8520,6,0,L|141:29,1,52.5
217,73,9158,2,0,L|217:139,1,52.5
143,171,9797,1,0,0:0:0:0:
56,321,10222,6,0,P|88:316|111:301,1,52.5
184,339,10861,2,0,P|190:307|184:280,1,52.5
279,244,11499,1,0,0:0:0:0:
502,167,11924,6,0,P|470:172|447:187,1,52.5
374,149,12563,2,0,P|367:180|373:207,1,52.5
279,244,13201,1,0,0:0:0:0:
377,331,13627,6,0,L|366:221,1,105.000004005432
366,226,14265,1,0,0:0:0:0:
437,171,14478,2,0,P|394:142|320:152,1,105.000004005432
246,260,15116,2,0,L|282:260,1,26.2500010013581
369,225,15329,2,0,P|376:256|361:318,2,78.7500030040742
301,188,16180,2,0,L|222:184,1,70
158,256,17031,6,0,L|272:261,1,105.000004005432
285,177,17669,1,0,0:0:0:0:
301,332,17882,2,0,P|336:292|331:225,1,105.000004005432
205,163,18520,2,0,L|205:208,1,26.2500010013581
166,93,18733,2,0,P|232:88|257:102,2,78.7500030040742
205,233,19584,2,0,L|205:150,1,70
361,162,20435,6,0,P|295:167|270:153,1,78.7500030040742
266,142,20861,1,0,0:0:0:0:
331,34,21073,2,0,L|326:95,1,52.5000020027161
448,196,21499,2,0,L|443:143,1,52.5000020027161
266,142,21924,1,0,0:0:0:0:
396,247,22137,2,0,B|348:272|348:272|287:253,1,105.000004005432
240,128,22988,6,0,L|248:205,1,70
308,72,23839,6,0,L|317:154,1,78.7500030040742
308,168,24265,1,0,0:0:0:0:
136,129,24478,2,0,P|184:146|249:122,1,105.000004005432
189,62,25116,1,0,0:0:0:0:
136,186,25329,2,0,L|136:141,1,26.2500010013581
108,51,25541,2,0,P|74:71|55:110,2,78.7500030040742
89,178,26392,2,0,P|49:188|15:175,1,70
172,185,27244,6,0,P|183:209|173:284,1,105.000004005432
69,319,27882,1,0,0:0:0:0:
90,222,28095,2,0,L|90:151,1,52.5000020027161
197,127,28520,1,0,0:0:0:0:
267,239,28733,2,0,L|267:280,1,26.2500010013581
344,197,28946,2,0,L|344:294,2,78.7500030040742
441,210,29797,2,0,L|524:210,1,70
488,138,30648,6,0,L|376:138,1,105.000004005432
326,204,31286,1,0,0:0:0:0:
291,88,31499,2,0,L|231:88,1,52.5000020027161
352,26,31924,1,0,0:0:0:0:
410,163,32137,2,0,L|449:163,1,26.2500010013581
352,26,32350,2,0,P|345:88|368:117,2,78.7500030040742
386,178,33201,2,0,P|353:185|312:174,1,70
162,120,34052,6,0,P|203:112|240:120,1,78.7500030040742
259,146,34478,1,0,0:0:0:0:
82,20,34690,2,0,L|92:76,1,52.5000020027161
189,243,35116,2,0,L|198:191,1,52.5000020027161
95,307,35541,2,0,P|126:344|160:357,1,78.7500030040742
281,172,35967,2,0,P|254:146|236:139,1,52.5000020027161
189,243,36392,1,0,0:0:0:0:
383,244,36605,2,0,L|383:185,1,52.5000020027161
283,72,37031,2,0,P|305:65|276:34,1,78.7500030040742
283,72,37456,6,0,P|332:96|367:93,1,78.7500030040742
437,21,37882,1,0,0:0:0:0:
328,158,38095,1,0,0:0:0:0:
157,76,38307,2,0,L|143:3,1,52.5000020027161
275,44,38733,1,0,0:0:0:0:
87,222,38946,2,0,P|93:254|117:278,1,52.5000020027161
139,112,39371,2,0,P|109:126|92:155,1,52.5000020027161
186,306,39797,1,0,0:0:0:0:
435,213,40861,6,0,L|309:221,1,125.999996154785
238,259,41499,2,0,P|230:228|238:189,1,62.9999980773926
351,312,41924,2,0,P|306:317|276:300,1,62.9999980773926
295,141,42350,1,0,0:0:0:0:
319,237,42563,6,0,P|364:226|416:240,2,94.499997116089
280,33,43414,2,0,L|289:111,1,62.9999980773926
201,175,43839,2,0,B|242:148|272:196|329:169,1,125.999996154785
0,62,45116,5,0,0:0:0:0:
125,69,45329,2,0,P|140:105|118:204,1,125.999996154785
162,262,45967,2,0,P|102:268|53:238,2,94.499997116089
260,268,46818,1,0,0:0:0:0:
323,226,47031,1,0,0:0:0:0:
282,163,47244,1,0,0:0:0:0:
218,204,47456,1,0,0:0:0:0:
395,250,47669,6,0,B|384:232|384:218|386:199|395:187|400:182|409:167|413:153|418:140|416:126|412:113|406:98|393:88|393:88|391:120|371:145,1,220.499993270874
313,156,48520,2,0,L|236:156,1,62.9999980773926
179,81,48946,2,0,L|256:81,1,62.9999980773926
228,233,49371,6,0,P|187:234|156:254,1,62.9999980773926
61,232,49797,2,0,P|82:267|115:283,1,62.9999980773926
141,378,50222,2,0,P|160:341|158:305,1,62.9999980773926
76,135,50648,5,0,0:0:0:0:
155,192,50861,1,0,0:0:0:0:
248,160,51073,2,0,P|263:119|239:50,1,94.499997116089
121,115,51499,2,0,L|192:107,1,62.9999980773926
276,234,51924,2,0,L|205:226,1,62.9999980773926
121,115,52350,5,0,0:0:0:0:
160,350,52563,1,0,0:0:0:0:
160,350,52775,2,0,P|140:314|149:253,1,94.499997116089
256,144,53414,2,0,P|306:133|262:161,1,125.999996154785
214,212,54052,1,0,0:0:0:0:
337,135,54265,1,0,0:0:0:0:
349,319,54478,6,0,B|369:329|387:329|404:320|411:307|416:286|410:269|390:256|367:257|341:259|320:273|308:284|286:291|266:288|230:278|219:273,1,251.999992309571
238,279,55541,1,0,0:0:0:0:
299,213,55754,1,0,0:0:0:0:
271,353,55967,1,0,0:0:0:0:
160,259,56180,2,0,P|215:261|244:281,1,62.9999980773926
298,254,56605,2,0,P|287:224|266:201,1,62.9999980773926
375,260,57031,2,0,P|367:290|349:315,1,62.9999980773926
360,155,57456,5,0,0:0:0:0:
454,326,57669,1,0,0:0:0:0:
466,117,57882,2,0,B|426:161|426:161|340:152,1,125.999996154785
262,90,58520,2,0,L|341:82,1,62.9999980773926
385,230,58946,2,0,L|305:221,1,62.9999980773926
196,141,59371,2,0,L|196:94,1,31.4999990386963
282,186,59584,2,0,P|259:222|220:235,1,62.9999980773926
191,47,60009,2,0,P|233:48|264:76,1,62.9999980773926
120,193,60435,2,0,P|100:155|108:114,1,62.9999980773926
196,141,60861,5,0,0:0:0:0:
360,212,61073,1,0,0:0:0:0:
326,136,61286,2,0,L|339:273,1,125.999996154785
430,310,61924,2,0,L|423:246,1,62.9999980773926
250,220,62350,2,0,L|244:293,1,62.9999980773926
377,124,62775,6,0,P|417:118|495:159,1,125.999996154785
411,216,63414,2,0,P|438:252|440:298,1,62.9999980773926
357,293,63839,2,0,P|339:334|300:359,1,62.9999980773926
260,292,64265,2,0,P|267:257|269:288,1,94.499997116089
177,322,64690,5,0,0:0:0:0:
116,259,64903,1,0,0:0:0:0:
177,201,65116,1,0,0:0:0:0:
116,136,65329,1,0,0:0:0:0:
52,200,65541,1,0,0:0:0:0:
135,224,65754,1,0,0:0:0:0:
198,162,65967,1,0,0:0:0:0:
176,77,66180,1,0,0:0:0:0:
96,59,66392,6,0,L|166:54,1,48.9999985046387
331,132,66818,2,0,L|282:128,1,48.9999985046387
172,209,67244,6,0,L|207:206,1,24.4999992523194
273,324,67456,2,0,L|248:322,1,24.4999992523194
282,128,67669,1,0,0:0:0:0:
485,162,68095,6,0,B|501:128|477:62|477:62|479:104|469:126,1,146.999995513916
389,132,68946,1,0,0:0:0:0:
248,47,69158,1,0,0:0:0:0:
333,202,69371,1,0,0:0:0:0:
350,42,69584,1,0,0:0:0:0:
152,147,69797,5,0,0:0:0:0:
305,127,70010,1,0,0:0:0:0:
208,242,70222,1,0,0:0:0:0:
206,55,70435,1,0,0:0:0:0:
130,205,70648,1,0,0:0:0:0:
68,109,70861,1,0,0:0:0:0:
229,168,71073,1,0,0:0:0:0:
104,303,71286,1,0,0:0:0:0:
324,229,71499,6,0,L|417:223,2,87.5
228,177,72137,1,0,0:0:0:0:
116,240,72350,2,0,P|150:285|184:297,1,87.5
138,88,72775,2,0,P|105:134|104:170,1,87.5
188,259,73201,5,0,0:0:0:0:
243,117,73414,1,0,0:0:0:0:
303,211,73627,1,0,0:0:0:0:
147,111,73839,1,0,0:0:0:0:
143,296,74052,1,0,0:0:0:0:
303,211,74265,1,0,0:0:0:0:
118,207,74478,1,0,0:0:0:0:
273,303,74690,1,0,0:0:0:0:
229,16,74903,6,0,B|224:73|224:73|243:105|243:105|238:178,1,157.500006008148
89,69,75754,1,0,0:0:0:0:
336,96,75967,1,0,0:0:0:0:
107,96,76180,1,0,0:0:0:0:
357,78,76392,1,0,0:0:0:0:
223,219,76605,5,0,0:0:0:0:
304,1,76818,1,0,0:0:0:0:
124,152,77031,1,0,0:0:0:0:
378,71,77244,1,0,0:0:0:0:
176,19,77456,1,0,0:0:0:0:
342,165,77669,1,0,0:0:0:0:
119,239,77882,1,0,0:0:0:0:
176,19,78095,1,0,0:0:0:0:
105,137,78307,6,0,P|161:144|193:169,1,87.5
183,281,78733,1,0,0:0:0:0:
25,272,78946,1,0,0:0:0:0:
374,192,79158,2,0,L|270:181,1,87.5
233,92,79584,1,0,0:0:0:0:
303,304,79797,1,0,0:0:0:0:
374,192,80010,6,0,P|409:150|464:141,1,87.5
451,224,80435,1,0,0:0:0:0:
263,227,80648,1,0,0:0:0:0:
263,227,80754,1,0,0:0:0:0:
263,227,80861,1,0,0:0:0:0:
335,307,81073,1,0,0:0:0:0:
312,107,81286,1,0,0:0:0:0:
260,355,81499,1,0,0:0:0:0:
113,51,81712,6,0,B|138:63|151:148|151:148|158:115|185:93,1,157.500006008148
348,147,82563,1,0,0:0:0:0:
196,115,82775,1,0,0:0:0:0:
197,235,82988,1,0,0:0:0:0:
265,17,83201,1,0,0:0:0:0:
284,198,83414,5,0,0:0:0:0:
100,70,83627,1,0,0:0:0:0:
87,273,83839,1,0,0:0:0:0:
207,82,84052,1,0,0:0:0:0:
25,145,84265,1,0,0:0:0:0:
263,166,84478,1,0,0:0:0:0:
135,18,84690,1,0,0:0:0:0:
97,255,84903,1,0,0:0:0:0:
267,273,85116,6,0,P|314:263|365:278,1,87.5
258,360,85541,1,0,0:0:0:0:
181,202,85754,1,0,0:0:0:0:
352,81,85967,2,0,L|341:171,1,87.5
254,108,86392,1,0,0:0:0:0:
457,147,86605,1,0,0:0:0:0:
300,200,86818,6,0,P|253:210|202:195,1,87.5
168,73,87244,1,0,0:0:0:0:
312,0,87456,1,0,0:0:0:0:
299,290,87669,1,0,0:0:0:0:
312,96,87882,1,0,0:0:0:0:
446,195,88095,1,0,0:0:0:0:
186,167,88307,1,0,0:0:0:0:
280,204,88520,6,0,B|224:212|183:166|183:166|188:194|211:227,1,157.500006008148
264,118,89371,5,0,0:0:0:0:
455,144,89584,1,0,0:0:0:0:
246,288,89797,1,0,0:0:0:0:
437,131,90010,1,0,0:0:0:0:
125,82,90222,5,0,0:0:0:0:
381,148,90435,1,0,0:0:0:0:
65,227,90648,1,0,0:0:0:0:
261,52,90861,1,0,0:0:0:0:
241,264,91073,1,0,0:0:0:0:
125,82,91286,1,0,0:0:0:0:
160,325,91499,1,0,0:0:0:0:
210,25,91712,1,0,0:0:0:0:
111,250,91924,5,0,0:0:0:0:
256,192,92137,12,0,93627,0:0:0:0:
256,192,93733,12,0,95222,0:0:0:0:
221,201,95329,6,0,P|290:203|223:177,1,196
255,304,96180,5,0,0:0:0:0:
341,103,96392,1,0,0:0:0:0:
140,230,96605,1,0,0:0:0:0:
367,227,96818,1,0,0:0:0:0:
168,52,97031,5,0,0:0:0:0:
254,212,97244,1,0,0:0:0:0:
293,17,97456,1,0,0:0:0:0:
94,191,97669,1,0,0:0:0:0:
294,144,97882,1,0,0:0:0:0:
149,79,98095,1,0,0:0:0:0:
421,59,98307,1,0,0:0:0:0:
306,281,98520,1,0,0:0:0:0:
168,283,98733,6,0,L|277:267,1,105.000004005432
346,345,99158,1,0,0:0:0:0:
269,114,99371,1,0,0:0:0:0:
71,146,99584,2,0,P|75:219|106:260,1,105.000004005432
177,179,100010,1,0,0:0:0:0:
123,357,100222,1,0,0:0:0:0:
266,221,100435,5,0,0:0:0:0:
390,249,100648,1,0,0:0:0:0:
311,124,100861,1,0,0:0:0:0:
187,152,101074,1,0,0:0:0:0:
436,151,101286,1,0,0:0:0:0:
392,43,101499,1,0,0:0:0:0:
231,44,101712,1,0,0:0:0:0:
187,152,101925,1,0,0:0:0:0:
292,290,102137,6,0,B|268:246|287:176|287:176|296:208|313:235,1,168
428,212,102988,1,0,0:0:0:0:
254,53,103201,1,0,0:0:0:0:
212,215,103414,1,0,0:0:0:0:
379,45,103627,1,0,0:0:0:0:
345,336,103839,5,0,0:0:0:0:
346,101,104052,1,0,0:0:0:0:
153,163,104265,1,0,0:0:0:0:
417,225,104478,1,0,0:0:0:0:
216,45,104690,1,0,0:0:0:0:
216,274,104903,1,0,0:0:0:0:
37,173,105116,1,0,0:0:0:0:
299,99,105329,1,0,0:0:0:0:
138,300,105541,6,0,P|144:224|179:196,1,105.000004005432
295,195,105967,1,0,0:0:0:0:
222,367,106180,1,0,0:0:0:0:
144,136,106392,2,0,L|129:22,1,105.000004005432
14,74,106818,1,0,0:0:0:0:
261,69,107031,1,0,0:0:0:0:
317,199,107244,6,0,P|257:215|197:186,1,105.000004005432
261,69,107669,1,0,0:0:0:0:
332,280,107882,1,0,0:0:0:0:
332,280,107988,1,0,0:0:0:0:
332,280,108095,1,0,0:0:0:0:
217,202,108307,1,0,0:0:0:0:
431,162,108520,1,0,0:0:0:0:
268,355,108733,1,0,0:0:0:0:
131,143,108946,6,0,B|149:92|119:32|119:32|122:73|107:96,1,168
241,123,109797,1,0,0:0:0:0:
39,64,110010,1,0,0:0:0:0:
127,213,110222,1,0,0:0:0:0:
224,31,110435,1,0,0:0:0:0:
271,123,110648,5,0,0:0:0:0:
473,64,110861,1,0,0:0:0:0:
385,213,111073,1,0,0:0:0:0:
288,31,111286,1,0,0:0:0:0:
171,90,111499,1,0,0:0:0:0:
407,132,111712,1,0,0:0:0:0:
123,206,111924,1,0,0:0:0:0:
302,60,112137,1,0,0:0:0:0:
301,256,112350,6,0,P|312:194|292:137,1,105.000004005432
123,132,112775,1,0,0:0:0:0:
223,347,112988,1,0,0:0:0:0:
402,156,113201,2,0,P|350:142|297:156,1,105.000004005432
320,285,113627,1,0,0:0:0:0:
402,156,113839,1,0,0:0:0:0:
186,170,114052,5,0,0:0:0:0:
468,217,114265,1,0,0:0:0:0:
288,318,114478,1,0,0:0:0:0:
297,57,114690,1,0,0:0:0:0:
432,175,114903,1,0,0:0:0:0:
123,221,115116,1,0,0:0:0:0:
410,273,115329,1,0,0:0:0:0:
216,46,115541,1,0,0:0:0:0:
246,333,115754,6,0,B|278:317|328:330|328:330|293:285|308:243,1,168
204,241,116605,1,0,0:0:0:0:
436,99,116818,1,0,0:0:0:0:
476,296,117031,1,0,0:0:0:0:
351,69,117244,1,0,0:0:0:0:
251,337,117456,5,0,0:0:0:0:
141,42,117669,1,0,0:0:0:0:
313,152,117882,1,0,0:0:0:0:
94,294,118095,1,0,0:0:0:0:
348,243,118307,1,0,0:0:0:0:
0,186,118520,1,0,0:0:0:0:
250,30,118733,1,0,0:0:0:0:
234,354,118946,1,0,0:0:0:0:
331,64,119158,5,0,0:0:0:0:
392,176,119371,2,0,L|382:122,1,45.4999979171754
297,98,119797,1,0,0:0:0:0:
207,180,120010,1,0,0:0:0:0:
219,208,120222,1,0,0:0:0:0:
335,288,120435,1,0,0:0:0:0:
350,257,120648,1,0,0:0:0:0:
267,108,120861,6,0,P|235:87|209:86,1,45.4999979171754
308,220,121286,2,0,P|306:181|292:159,1,45.4999979171754
237,320,121712,2,0,P|267:297|277:273,1,45.4999979171754
117,335,122137,2,0,P|153:347|178:341,1,45.4999979171754
