osu file format v14

[General]
AudioFilename: audio.mp3
AudioLeadIn: 0
PreviewTime: 66576
Countdown: 0
SampleSet: Soft
StackLeniency: 0.4
Mode: 0
LetterboxInBreaks: 0
EpilepsyWarning: 1
WidescreenStoryboard: 1

[Editor]
Bookmarks: 455,11490,22524,33558,44593,55627,61145,66662,77696,88731,99765,110800
DistanceSpacing: 0.8
BeatDivisor: 4
GridSize: 4
TimelineZoom: 2.599999

[Metadata]
Title:On My Own
TitleUnicode:On My Own
Artist:Panda Eyes
ArtistUnicode:Panda Eyes
Creator:Plaudible
Version:Yamicchi's Insane
Source:
Tags:dnb drum and bass cut short ver yamicchi hobbes2 hokichi mrsergio
BeatmapID:1074427
BeatmapSetID:504958

[Difficulty]
HPDrainRate:6
CircleSize:4
OverallDifficulty:8
ApproachRate:9
SliderMultiplier:1.7
SliderTickRate:1

[Events]
//Background and Video events
0,0,"bg.jpg",0,0
//Break Periods
2,33775,42630
//Storyboard Layer 0 (Background)
//Storyboard Layer 1 (Fail)
//Storyboard Layer 2 (Pass)
//Storyboard Layer 3 (Foreground)
Sprite,Foreground,Centre,"SB\cre\yami.png",320,240 S,0,39075,,0.5 C,0,39075,,255,150,100 P,0,39075,,A F,0,39075,39284,0,1 MX,0,39075,39284,200,300 MX,0,39284,41834,300,340 F,0,41834,42006,1,0 MX,0,41834,42006,340,440
//Storyboard Sound Samples

[TimingPoints]
498,344.827586206897,4,2,10,50,1,0
498,-200,4,2,10,50,0,0
541,-200,4,2,1,50,0,0
3213,-200,4,2,10,50,0,0
3299,-200,4,2,1,50,0,0
5972,-200,4,2,10,50,0,0
6058,-200,4,2,1,50,0,0
8730,-200,4,2,10,50,0,0
8817,-200,4,2,1,50,0,0
11317,-200,4,2,1,5,0,0
11506,344.827586206897,4,2,1,75,1,0
11506,-111.111111111111,4,2,1,75,0,0
33575,-111.111111111111,4,2,10,75,0,0
44437,-111.111111111111,4,2,1,5,0,0
44609,-133.333333333333,4,2,1,75,0,0
54954,-166.666666666667,4,2,1,75,0,0
55644,-111.111111111111,4,2,1,75,0,0
63920,-83.3333333333333,4,2,1,75,0,0
66678,-83.3333333333333,4,1,1,100,0,1
88058,-133.333333333333,4,1,1,100,0,1
88402,-100,4,1,1,100,0,0
88747,-90.9090909090909,4,1,1,100,0,1
88748,-100,4,1,1,100,0,1
110816,-100,4,1,10,100,0,0

[Colours]
Combo1 : 224,193,255
Combo2 : 255,150,100
Combo3 : 0,255,255

[HitObjects]
136,152,498,6,0,B|184:128|232:152|232:152|256:136|256:136|280:152|280:152|328:128|376:152,1,255,4|0,0:0|0:0,0:0:0:0:
374,148,3256,6,0,B|390:188|374:228|374:228|390:260|374:316|374:316|308:300|302:260,1,255,4|0,0:0|0:0,0:0:0:0:
305,273,6015,6,0,B|273:277|245:257|245:257|213:281|177:273|177:273|125:217|169:149,1,255,4|0,0:0|0:0,0:0:0:0:
160,163,8773,6,0,P|192:123|96:147,1,255,4|0,0:0|0:0,0:0:0:0:
256,192,9894,12,0,11360,0:0:0:0:
192,168,11506,6,0,L|184:80,1,76.4999976654054,2|0,0:1|0:1,0:1:0:0:
368,16,11851,1,8,0:1:0:0:
336,136,12023,1,0,0:1:0:0:
320,144,12109,1,0,0:1:0:0:
304,152,12196,2,0,L|256:144,2,38.2499988327027,0|0|2,0:1|0:1|0:1,0:1:0:0:
480,192,12540,1,8,0:1:0:0:
352,128,12713,1,2,0:1:0:0:
312,264,12885,6,0,L|304:352,1,76.4999976654054,2|0,0:1|0:1,0:1:0:0:
288,160,13230,1,8,0:1:0:0:
208,296,13403,1,0,0:1:0:0:
192,292,13489,1,0,0:1:0:0:
176,288,13575,1,0,0:1:0:0:
160,284,13661,1,0,0:0:0:0:
144,280,13747,1,2,0:0:0:0:
48,104,13920,2,0,L|148:128,1,76.4999976654054,8|0,0:1|0:1,0:1:0:0:
288,160,14265,5,2,0:1:0:0:
152,200,14437,1,0,0:1:0:0:
272,80,14609,2,0,P|320:84|352:108,1,76.4999976654054,8|0,0:1|0:1,0:1:0:0:
360,120,14868,1,0,0:1:0:0:
368,144,14954,1,0,0:1:0:0:
368,168,15040,1,0,0:1:0:0:
360,192,15127,1,2,0:1:0:0:
152,200,15299,1,8,0:1:0:0:
288,160,15472,1,2,0:1:0:0:
196,284,15644,6,0,L|88:296,1,76.4999976654054,2|0,0:1|0:1,0:1:0:0:
320,348,15989,2,0,L|428:360,1,76.4999976654054,8|0,0:1|0:1,0:1:0:0:
424,360,16247,1,0,0:1:0:0:
448,356,16334,1,0,0:1:0:0:
472,344,16420,1,0,0:1:0:0:
488,328,16506,1,2,0:1:0:0:
292,256,16678,1,8,0:1:0:0:
272,240,17023,6,0,L|264:152,1,76.4999976654054,2|0,0:1|0:1,0:1:0:0:
424,56,17368,2,0,L|416:144,1,76.4999976654054,8|0,0:1|0:1,0:1:0:0:
416,156,17627,1,0,0:1:0:0:
416,176,17713,1,0,0:1:0:0:
416,196,17799,1,0,0:0:0:0:
416,216,17885,1,0,0:0:0:0:
332,100,18058,1,8,0:1:0:0:
252,224,18230,1,2,0:1:0:0:
364,308,18403,6,0,L|456:312,1,76.4999976654054,2|0,0:1|0:1,0:1:0:0:
232,208,18747,1,8,0:1:0:0:
156,336,18920,1,0,0:1:0:0:
132,344,19006,1,0,0:1:0:0:
108,344,19092,1,0,0:1:0:0:
84,340,19178,1,0,0:0:0:0:
64,328,19264,1,0,0:0:0:0:
208,192,19437,2,0,L|296:188,1,76.4999976654054,8|0,0:1|0:1,0:1:0:0:
144,252,19782,6,0,P|124:220|124:168,1,76.4999976654054,2|0,0:1|0:1,0:1:0:0:
300,108,20127,1,8,0:1:0:0:
372,224,20299,1,0,0:1:0:0:
368,248,20385,1,0,0:1:0:0:
364,272,20472,2,0,L|356:316,2,38.2499988327027,0|0|2,0:1|0:1|0:1,0:1:0:0:
404,44,20816,1,8,0:1:0:0:
432,176,20989,1,2,0:1:0:0:
296,204,21161,6,0,P|256:208|212:200,1,76.4999976654054,2|0,0:1|0:1,0:1:0:0:
24,100,21506,2,0,P|64:96|108:104,1,76.4999976654054,8|0,0:1|0:1,0:1:0:0:
120,116,21765,1,0,0:1:0:0:
132,136,21851,1,0,0:1:0:0:
136,160,21937,1,0,0:1:0:0:
132,184,22023,1,2,0:1:0:0:
8,356,22196,1,8,0:1:0:0:
108,260,22368,1,0,0:1:0:0:
228,384,22540,6,0,L|312:376,1,76.4999976654054,2|0,0:1|0:1,0:1:0:0:
444,264,22885,1,8,0:1:0:0:
376,368,23058,1,0,0:1:0:0:
364,212,23230,1,0,0:1:0:0:
368,336,23403,1,2,0:1:0:0:
448,172,23575,1,8,0:1:0:0:
360,304,23747,1,2,0:1:0:0:
320,128,23920,6,0,P|284:116|240:124,1,76.4999976654053,2|0,0:1|0:1,0:1:0:0:
104,184,24265,1,8,0:1:0:0:
276,208,24437,1,0,0:1:0:0:
148,104,24609,2,0,P|112:92|68:100,1,76.4999976654053,0|2,0:1|0:1,0:1:0:0:
60,264,24954,2,0,P|96:276|140:268,1,76.4999976654053,8|0,0:1|0:1,0:1:0:0:
276,208,25299,5,2,0:1:0:0:
360,304,25472,1,0,0:1:0:0:
288,172,25644,1,8,0:1:0:0:
408,220,25816,1,0,0:1:0:0:
300,136,25989,1,0,0:1:0:0:
428,128,26161,1,2,0:1:0:0:
220,88,26334,1,8,0:1:0:0:
264,240,26506,1,2,0:1:0:0:
316,100,26678,6,0,L|404:108,1,76.4999976654053,2|0,0:1|0:1,0:1:0:0:
208,184,27023,1,8,0:1:0:0:
124,76,27196,1,0,0:1:0:0:
80,232,27368,2,0,L|88:328,1,76.4999976654053,0|2,0:1|0:1,0:1:0:0:
252,360,27713,2,0,L|260:264,1,76.4999976654053,8|0,0:1|0:1,0:1:0:0:
272,124,28058,6,0,P|312:120|360:132,1,76.4999976654053,2|0,0:1|0:1,0:1:0:0:
488,256,28403,1,8,0:1:0:0:
420,152,28574,1,0,0:1:0:0:
408,308,28748,1,0,0:1:0:0:
412,184,28919,1,2,0:1:0:0:
492,348,29093,1,8,0:1:0:0:
404,216,29265,1,2,0:1:0:0:
320,348,29437,6,0,P|284:360|228:344,1,76.4999976654053,2|0,0:1|0:1,0:1:0:0:
152,208,29782,1,8,0:1:0:0:
276,264,29954,1,0,0:1:0:0:
124,340,30127,2,0,L|32:348,1,76.4999976654053,0|2,0:1|0:1,0:1:0:0:
75,201,30472,2,0,L|167:209,1,76.4999976654053,8|0,0:1|0:1,0:1:0:0:
288,184,30816,6,0,P|300:148|288:96,1,76.4999976654053,2|0,0:1|0:1,0:1:0:0:
100,32,31161,1,8,0:1:0:0:
208,140,31334,1,0,0:1:0:0:
73,43,31506,1,0,0:1:0:0:
136,176,31678,1,2,0:1:0:0:
48,48,31851,1,8,0:1:0:0:
56,188,32023,1,2,0:1:0:0:
204,60,32196,6,0,P|240:64|280:104,1,76.4999976654053,2|0,0:1|0:1,0:1:0:0:
328,272,32540,2,0,L|412:268,2,76.4999976654053,8|0|0,0:1|0:1|0:1,0:1:0:0:
192,284,33058,1,2,0:1:0:0:
364,184,33230,1,8,0:1:0:0:
364,184,33575,5,4,0:0:0:0:
256,192,43230,12,0,44437,0:1:0:0:
296,232,44609,6,0,L|384:236,1,63.7500024318696,4|0,0:0|0:1,0:1:0:0:
472,136,44954,2,0,L|384:140,1,63.7500024318696,0|0,0:1|0:1,0:1:0:0:
264,144,45299,2,0,P|216:180|208:264,1,127.500004863739,2|0,0:1|0:1,0:1:0:0:
256,320,45816,1,0,0:1:0:0:
356,160,45989,6,0,P|356:124|336:84,1,63.7500024318696,2|0,0:1|0:1,0:1:0:0:
388,244,46334,2,0,P|419:262|463:264,1,63.7500024318696,0|0,0:1|0:1,0:1:0:0:
296,232,46678,2,0,L|152:244,1,127.500004863739,2|0,0:1|0:1,0:1:0:0:
88,208,47196,1,0,0:1:0:0:
264,144,47368,6,0,P|272:112|268:80,1,63.7500024318696,4|0,0:0|0:1,0:1:0:0:
136,40,47713,2,0,P|128:72|132:104,1,63.7500024318696,0|0,0:1|0:1,0:1:0:0:
204,216,48058,2,0,P|272:240|336:200,1,127.500004863739,2|0,0:1|0:1,0:1:0:0:
360,136,48575,1,0,0:1:0:0:
440,308,48747,6,0,L|436:384,1,63.7500024318696,2|0,0:1|0:1,0:1:0:0:
323,282,49092,2,0,L|319:206,1,63.7500024318696,0|0,0:1|0:1,0:1:0:0:
443,180,49437,2,0,L|439:316,1,127.500004863739,2|0,0:1|0:1,0:1:0:0:
364,368,49954,1,0,0:1:0:0:
360,136,50127,6,0,P|376:108|416:88,1,63.7500024318696,4|0,0:0|0:1,0:1:0:0:
364,228,50472,2,0,L|288:236,1,63.7500024318696,0|0,0:1|0:1,0:1:0:0:
236,358,50816,2,0,L|392:370,1,127.500004863739,2|0,0:1|0:1,0:1:0:0:
452,372,51334,1,0,0:1:0:0:
240,264,51506,6,0,P|204:268|168:296,1,63.7500024318696,2|0,0:1|0:1,0:1:0:0:
72,364,51851,2,0,P|108:360|144:332,1,63.7500024318696,0|0,0:1|0:1,0:1:0:0:
152,212,52196,2,0,B|160:172|160:172|148:128|148:128|160:76,1,127.500004863739,2|0,0:1|0:1,0:1:0:0:
184,4,52713,1,0,0:1:0:0:
296,176,52885,6,0,B|328:184|328:184|360:184,1,63.7500024318696,4|0,0:0|0:1,0:1:0:0:
464,88,53230,2,0,B|432:80|432:80|400:80,1,63.7500024318696,0|0,0:1|0:1,0:1:0:0:
288,168,53575,2,0,L|304:304,1,127.500004863739,2|0,0:1|0:1,0:1:0:0:
312,384,54092,1,0,0:1:0:0:
384,168,54265,6,0,P|416:165|462:181,1,63.7500024318696,2|0,0:1|0:1,0:1:0:0:
296,120,54609,2,0,P|277:92|268:44,1,63.7500024318696,0|0,0:1|0:1,0:1:0:0:
296,216,54954,6,0,B|264:232|224:216|224:216|184:200|144:216,1,152.999995330811,2|0,0:1|0:1,0:1:0:0:
324,308,55644,6,0,P|356:292|388:240,1,76.4999976654053,4|0,0:0|0:1,0:1:0:0:
264,128,55989,1,0,0:1:0:0:
184,304,56161,1,0,0:1:0:0:
344,344,56334,2,0,L|428:348,1,76.4999976654053,0|0,0:1|0:1,0:1:0:0:
224,216,56678,1,4,0:0:0:0:
248,384,56851,1,0,0:1:0:0:
320,208,57023,5,0,0:1:0:0:
236,372,57196,1,0,0:1:0:0:
396,268,57368,1,0,0:1:0:0:
224,360,57540,1,0,0:1:0:0:
128,216,57713,2,0,P|136:172|156:144,1,76.4999976654053,4|0,0:0|0:1,0:1:0:0:
153,146,57972,1,0,0:1:0:0:
153,146,58058,1,0,0:1:0:0:
276,300,58230,1,0,0:1:0:0:
412,172,58403,6,0,P|428:136|428:100,1,76.4999976654053,4|0,0:0|0:1,0:1:0:0:
264,124,58747,1,0,0:1:0:0:
396,268,58920,1,0,0:1:0:0:
224,360,59092,2,0,L|136:368,1,76.4999976654053,0|0,0:1|0:1,0:1:0:0:
319,261,59437,2,0,L|407:269,1,76.4999976654053,4|0,0:0|0:1,0:1:0:0:
180,248,59782,5,0,0:1:0:0:
328,180,59954,1,0,0:1:0:0:
148,164,60127,1,0,0:1:0:0:
216,332,60299,1,0,0:1:0:0:
148,164,60472,2,0,L|160:80,1,76.4999976654053,4|0,0:0|0:1,0:1:0:0:
158,88,60730,1,0,0:1:0:0:
158,88,60816,1,0,0:1:0:0:
252,212,60989,1,0,0:1:0:0:
392,112,61161,5,4,0:0:0:0:
504,224,61334,1,2,0:1:0:0:
328,180,61506,1,2,0:1:0:0:
456,48,61678,1,2,0:1:0:0:
416,200,61851,1,2,0:1:0:0:
480,136,62023,1,2,0:1:0:0:
440,288,62196,1,2,0:1:0:0:
392,112,62368,1,2,0:1:0:0:
240,160,62540,5,4,0:0:0:0:
392,112,62713,1,2,0:1:0:0:
352,264,62885,1,2,0:1:0:0:
304,88,63058,1,2,0:1:0:0:
480,136,63230,1,2,0:1:0:0:
416,200,63403,1,2,0:1:0:0:
368,24,63575,1,2,0:1:0:0:
328,176,63747,1,2,0:1:0:0:
188,80,63920,6,0,L|184:20,1,50.9999984436036,8|0,0:0|0:0,0:0:0:0:
184,224,64092,2,0,L|180:284,1,50.9999984436036,2|0,0:1|0:0,0:0:0:0:
88,88,64265,2,0,L|84:28,1,50.9999984436036,8|0,0:0|0:0,0:0:0:0:
80,232,64437,2,0,L|76:292,1,50.9999984436036,2|0,0:1|0:0,0:0:0:0:
176,104,64609,6,0,L|172:44,1,50.9999984436036,8|0,0:0|0:0,0:0:0:0:
168,216,64782,2,0,L|164:276,1,50.9999984436036,2|0,0:1|0:0,0:0:0:0:
104,112,64954,2,0,L|100:52,1,50.9999984436036,8|0,0:0|0:0,0:0:0:0:
96,208,65127,2,0,L|92:268,1,50.9999984436036,2|0,0:1|0:0,0:0:0:0:
248,156,65299,5,8,0:1:0:0:
248,156,65385,1,0,0:1:0:0:
248,156,65472,2,0,L|304:160,1,50.9999984436036,0|0,0:1|0:1,0:1:0:0:
484,216,65644,5,8,0:1:0:0:
484,216,65730,1,0,0:1:0:0:
484,216,65817,2,0,L|428:220,1,50.9999984436036,0|0,0:1|0:1,0:1:0:0:
204,328,65989,5,8,0:1:0:0:
256,336,66161,1,2,0:1:0:0:
308,344,66334,1,2,0:1:0:0:
360,352,66506,1,2,0:1:0:0:
152,320,66678,6,0,L|48:304,1,101.999996887207,4|0,0:2|0:0,0:0:0:0:
296,260,67023,2,0,L|400:240,2,101.999996887207,8|0|0,0:0|0:0|0:0,0:0:0:0:
128,228,67540,1,0,0:0:0:0:
360,144,67713,2,0,P|416:136|472:168,1,101.999996887207,8|0,0:0|0:0,0:0:0:0:
296,260,68058,6,0,L|284:156,1,101.999996887207,2|0,0:0|0:0,0:0:0:0:
64,108,68403,1,8,0:0:0:0:
48,272,68575,2,0,P|82:308|132:317,1,101.999996887207
204,180,68920,1,2,0:0:0:0:
352,332,69092,2,0,L|468:336,1,101.999996887207,8|0,0:0|0:0,0:0:0:0:
292,172,69437,5,2,0:0:0:0:
260,344,69609,1,0,0:0:0:0:
116,184,69782,2,0,P|124:136|180:96,2,101.999996887207,8|0|0,0:0|0:0|0:0,0:0:0:0:
296,260,70299,1,2,0:0:0:0:
448,104,70472,2,0,L|336:100,1,101.999996887207,8|0,0:0|0:0,0:0:0:0:
384,260,70816,6,0,L|485:256,1,101.999996887207,2|0,0:0|0:0,0:0:0:0:
292,172,71161,1,8,0:0:0:0:
340,340,71334,2,0,L|448:336,1,101.999996887207
380,172,71678,1,2,0:0:0:0:
208,264,71851,2,0,L|100:268,1,101.999996887207,8|0,0:0|0:0,0:0:0:0:
64,72,72196,5,4,0:2:0:0:
176,184,72368,1,0,0:0:0:0:
288,32,72540,2,0,P|336:16|396:32,2,101.999996887207,8|0|0,0:0|0:0|0:0,0:0:0:0:
160,144,73058,1,2,0:0:0:0:
380,172,73230,1,8,0:0:0:0:
192,224,73403,1,0,0:0:0:0:
292,368,73575,6,0,L|400:376,1,101.999996887207,2|0,0:0|0:0,0:0:0:0:
144,328,73920,2,0,L|36:336,2,101.999996887207,8|0|0,0:0|0:0|0:0,0:0:0:0:
296,276,74437,1,2,0:0:0:0:
112,176,74609,2,0,L|8:184,1,101.999996887207,8|0,0:0|0:0,0:0:0:0:
208,260,74954,5,2,0:0:0:0:
272,96,75127,1,0,0:0:0:0:
128,252,75299,1,8,0:0:0:0:
292,364,75472,2,0,L|404:368,1,101.999996887207
268,192,75816,1,2,0:0:0:0:
72,308,75989,1,8,0:0:0:0:
268,376,76161,1,0,0:0:0:0:
176,188,76334,6,0,P|128:172|80:188,1,101.999996887207,2|0,0:0|0:0,0:0:0:0:
312,276,76678,2,0,P|360:292|408:276,2,101.999996887207,8|0|0,0:0|0:0|0:0,0:0:0:0:
228,128,77196,1,2,0:0:0:0:
136,360,77368,2,0,L|160:252,1,101.999996887207,8|0,0:0|0:0,0:0:0:0:
360,208,77713,5,4,0:2:0:0:
260,340,77885,1,0,0:0:0:0:
312,136,78058,2,0,P|364:120|428:152,2,101.999996887207,8|0|0,0:0|0:0|0:0,0:0:0:0:
176,188,78575,1,2,0:0:0:0:
360,304,78747,2,0,L|464:312,1,101.999996887207,8|0,0:0|0:0,0:0:0:0:
276,212,79092,5,2,0:0:0:0:
152,336,79265,1,0,0:0:0:0:
80,148,79437,2,0,P|108:108|176:84,2,101.999996887207,8|0|0,0:0|0:0|0:0,0:0:0:0:
200,268,79954,1,2,0:0:0:0:
236,84,80127,2,0,P|220:36|176:8,1,101.999996887207,8|0,0:0|0:0,0:0:0:0:
276,212,80472,6,0,L|392:216,1,101.999996887207,2|0,0:0|0:0,0:0:0:0:
152,336,80816,2,0,L|36:340,2,101.999996887207,8|0|0,0:0|0:0|0:0,0:0:0:0:
312,332,81334,1,2,0:0:0:0:
116,260,81506,1,8,0:0:0:0:
276,212,81678,1,2,0:0:0:0:
357,383,81851,6,0,L|256:380,1,101.999996887207,2|0,0:0|0:0,0:0:0:0:
116,260,82196,2,0,L|15:257,2,101.999996887207,8|0|0,0:0|0:0|0:0,0:0:0:0:
224,136,82713,1,2,0:0:0:0:
372,288,82885,2,0,P|424:292|476:268,1,101.999996887207,8|0,0:0|0:0,0:0:0:0:
312,128,83230,5,4,0:2:0:0:
188,216,83403,1,0,0:0:0:0:
408,196,83575,2,0,P|428:144|420:84,2,101.999996887207,8|0|0,0:0|0:0|0:0,0:0:0:0:
276,308,84092,1,2,0:0:0:0:
136,144,84265,2,0,P|144:96|184:56,1,101.999996887207,8|0,0:0|0:0,0:0:0:0:
307,210,84609,6,0,L|413:194,1,101.999996887207,2|0,0:0|0:0,0:0:0:0:
136,144,84954,1,8,0:0:0:0:
276,308,85127,1,0,0:0:0:0:
240,132,85299,1,0,0:0:0:0:
88,240,85472,1,2,0:0:0:0:
276,308,85644,2,0,L|396:296,1,101.999996887207,8|0,0:0|0:0,0:0:0:0:
200,232,85989,5,2,0:0:0:0:
80,348,86161,1,0,0:0:0:0:
28,152,86334,2,0,P|32:100|68:52,1,101.999996887207,8|0,0:0|0:0,0:0:0:0:
240,132,86678,1,0,0:0:0:0:
88,240,86851,1,2,0:0:0:0:
184,48,87023,1,8,0:0:0:0:
200,232,87196,1,2,0:0:0:0:
28,152,87368,6,0,L|140:160,1,101.999996887207,2|0,0:0|0:0,0:0:0:0:
276,308,87713,2,0,L|164:316,1,101.999996887207,8|0,0:0|0:0,0:0:0:0:
307,210,88058,6,2,B|343:198|375:206|375:206|407:214|439:206,1,127.500004863739,0|2,0:0|0:0,0:1:0:0:
432,207,88575,1,2,0:0:0:0:
276,308,88747,6,0,B|228:292|228:292|124:316,1,140.25000428009,4|0,0:2|0:0,0:0:0:0:
104,288,89092,2,0,L|196:268,1,85,8|0,0:0|0:0,0:0:0:0:
372,288,89437,1,0,0:0:0:0:
224,196,89609,1,2,0:0:0:0:
84,368,89782,2,0,L|176:348,1,85,8|0,0:0|0:0,0:0:0:0:
316,212,90127,6,0,P|304:144|236:104,1,127.5,2|0,0:0|0:0,0:0:0:0:
220,108,90472,2,0,L|136:126,1,85,8|0,0:0|0:0,0:0:0:0:
44,232,90816,1,0,0:0:0:0:
224,196,90989,1,2,0:0:0:0:
20,312,91161,2,0,L|120:316,1,85,8|0,0:0|0:0,0:0:0:0:
316,212,91506,6,0,B|332:252|316:284|316:284|332:316|316:356,1,127.5,2|0,0:0|0:0,0:0:0:0:
324,380,91851,2,0,P|376:384|412:364,1,85,8|0,0:0|0:0,0:0:0:0:
236,252,92196,2,0,P|184:248|148:268,1,85,0|2,0:0|0:0,0:0:0:0:
399,287,92540,2,0,P|404:236|388:176,1,85,8|0,0:0|0:0,0:0:0:0:
260,88,92885,6,0,P|208:120|128:96,1,127.5,2|0,0:0|0:0,0:0:0:0:
104,104,93230,2,0,P|120:144|112:208,1,85,8|0,0:0|0:0,0:0:0:0:
32,320,93575,1,0,0:0:0:0:
116,200,93747,1,2,0:0:0:0:
192,360,93920,2,0,L|296:368,1,85,8|0,0:0|0:0,0:0:0:0:
456,256,94265,6,0,L|320:264,1,127.5,2|0,0:0|0:0,0:0:0:0:
284,268,94609,2,0,P|264:228|268:176,2,85,8|0|0,0:0|0:0|0:0,0:0:0:0:
428,344,95127,1,2,0:0:0:0:
352,148,95299,2,0,P|324:112|256:92,1,85,8|0,0:0|0:0,0:0:0:0:
136,195,95644,6,0,L|276:187,1,127.5,2|0,0:0|0:0,0:0:0:0:
296,216,95989,2,0,P|312:256|304:304,2,85,8|0|0,0:0|0:0|0:0,0:0:0:0:
184,100,96506,1,2,0:0:0:0:
88,288,96678,2,0,L|192:280,1,85,8|0,0:0|0:0,0:0:0:0:
428,344,97023,6,0,L|292:336,1,127.5,2|0,0:0|0:0,0:0:0:0:
260,332,97368,2,0,P|252:292|268:240,1,85,8|0,0:0|0:0,0:0:0:0:
432,164,97713,1,0,0:0:0:0:
352,292,97885,1,2,0:0:0:0:
364,96,98058,1,8,0:0:0:0:
500,232,98230,1,2,0:0:0:0:
292,160,98403,6,0,P|268:108|292:32,1,127.5,2|0,0:0|0:0,0:0:0:0:
324,24,98747,2,0,L|408:28,2,85,8|0|0,0:0|0:0|0:0,0:0:0:0:
176,68,99265,1,2,0:0:0:0:
380,184,99437,1,8,0:0:0:0:
380,184,99609,1,2,0:0:0:0:
184,172,99782,6,0,L|172:328,1,127.5,4|0,0:2|0:0,0:0:0:0:
184,344,100127,1,8,0:0:0:0:
260,220,100299,1,0,0:0:0:0:
108,216,100472,2,0,L|12:224,1,85,0|2,0:0|0:0,0:0:0:0:
256,308,100816,2,0,L|352:316,1,85,8|0,0:0|0:0,0:0:0:0:
512,224,101161,6,0,L|364:236,1,127.5,2|0,0:0|0:0,0:0:0:0:
344,224,101506,1,8,0:0:0:0:
476,140,101678,1,0,0:0:0:0:
500,312,101851,2,0,L|392:320,1,85,0|2,0:0|0:0,0:0:0:0:
248,212,102196,1,8,0:0:0:0:
264,192,102540,6,0,B|272:128|272:128|256:56,1,127.5,2|0,0:0|0:0,0:0:0:0:
248,24,102885,1,8,0:0:0:0:
348,140,103058,1,0,0:0:0:0:
164,176,103230,2,0,P|120:180|68:168,1,85,0|2,0:0|0:0,0:0:0:0:
280,172,103575,2,0,L|276:264,1,85,8|0,0:0|0:0,0:0:0:0:
392,372,103920,6,0,L|388:236,1,127.5,2|0,0:0|0:0,0:0:0:0:
400,204,104265,1,8,0:0:0:0:
488,340,104437,1,0,0:0:0:0:
476,172,104609,2,0,L|484:84,1,85,0|2,0:0|0:0,0:0:0:0:
280,172,104954,1,8,0:0:0:0:
280,172,105127,1,2,0:0:0:0:
128,360,105299,6,0,L|112:224,1,127.5,2|0,0:0|0:0,0:0:0:0:
108,188,105644,1,8,0:0:0:0:
232,316,105816,1,0,0:0:0:0:
364,172,105989,2,0,P|356:132|312:92,1,85,0|2,0:0|0:0,0:0:0:0:
248,268,106334,2,0,P|286:281|343:262,1,85,8|0,0:0|0:0,0:0:0:0:
220,116,106678,6,0,L|76:112,1,127.5,2|0,0:0|0:0,0:0:0:0:
48,112,107023,1,8,0:0:0:0:
196,196,107196,1,0,0:0:0:0:
120,24,107368,1,0,0:0:0:0:
10,176,107540,1,2,0:0:0:0:
176,200,107713,1,8,0:0:0:0:
156,204,108058,6,0,P|136:264|156:328,1,127.5,2|0,0:0|0:0,0:0:0:0:
188,352,108403,2,0,L|284:348,1,85,8|0,0:0|0:0,0:0:0:0:
472,320,108747,2,0,L|376:316,1,85,0|2,0:0|0:0,0:0:0:0:
216,192,109092,1,8,0:0:0:0:
369,315,109265,1,0,0:0:0:0:
432,132,109437,6,0,P|420:72|364:28,1,127.5,2|0,0:0|0:0,0:0:0:0:
328,24,109782,1,8,0:0:0:0:
176,92,109954,1,0,0:0:0:0:
336,120,110127,1,0,0:0:0:0:
184,80,110299,1,2,0:0:0:0:
164,296,110472,1,8,0:0:0:0:
164,296,110816,5,4,0:2:0:0:
