osu file format v14

[General]
AudioFilename: audio.mp3
AudioLeadIn: 0
PreviewTime: 66576
Countdown: 0
SampleSet: Soft
StackLeniency: 0.7
Mode: 0
LetterboxInBreaks: 0
EpilepsyWarning: 1
WidescreenStoryboard: 1

[Editor]
Bookmarks: 455,11490,22524,33558,44593,55627,61145,66662,77696,88731,99765,110800
DistanceSpacing: 1
BeatDivisor: 4
GridSize: 4
TimelineZoom: 1

[Metadata]
Title:On My Own
TitleUnicode:On My Own
Artist:Panda Eyes
ArtistUnicode:Panda Eyes
Creator:Plaudible
Version:Normal
Source:
Tags:dnb drum and bass cut short ver yamicchi hobbes2 hokichi mrsergio
BeatmapID:1074250
BeatmapSetID:504958

[Difficulty]
HPDrainRate:4
CircleSize:3.5
OverallDifficulty:4
ApproachRate:5
SliderMultiplier:1.3
SliderTickRate:1

[Events]
//Background and Video events
0,0,"bg.jpg",0,0
//Break Periods
2,33774,43409
//Storyboard Layer 0 (Background)
//Storyboard Layer 1 (Fail)
//Storyboard Layer 2 (Pass)
//Storyboard Layer 3 (Foreground)
Sprite,Foreground,Centre,"SB\cre\plau.png",320,240 S,0,39075,,0.5 C,0,39075,,255,150,100 P,0,39075,,A F,0,39075,39284,0,1 MX,0,39075,39284,200,300 MX,0,39284,41834,300,340 F,0,41834,42006,1,0 MX,0,41834,42006,340,440
//Storyboard Sound Samples

[TimingPoints]
498,344.827586206897,4,2,1,25,1,0
498,-133.333333333333,4,2,1,25,0,0
11506,344.827586206897,4,2,1,75,1,0
11506,-133.333333333333,4,2,1,75,0,0
33575,-133.333333333333,4,2,1,75,0,0
44609,-133.333333333333,4,2,1,75,0,0
61161,-133.333333333333,4,2,1,75,0,0
66678,-117.647058823529,4,1,1,100,0,1
88402,-117.647058823529,4,1,1,100,0,0
88747,-117.647058823529,4,1,1,100,0,1
110816,-133.333333333333,4,1,1,100,0,0

[Colours]
Combo1 : 224,193,255
Combo2 : 255,150,100
Combo3 : 0,255,255

[HitObjects]
112,240,498,6,4,B|256:192|256:300|400:236,1,292.50001115799,4|2,0:1|0:3,0:1:0:0:
396,237,3256,6,0,P|355:290|471:264,1,292.50001115799,4|2,0:1|0:3,0:1:0:0:
475,274,6015,6,0,B|435:254|387:274|387:274|327:266|327:266|252:312|175:258,1,292.50001115799,4|2,0:1|0:3,0:1:0:0:
194,269,8773,6,0,B|188:180|276:176|276:176|348:116|296:40,1,292.50001115799,4|2,0:1|0:3,0:1:0:0:
300,48,11506,6,0,L|188:56,1,97.50000371933,6|8,0:1|0:1,0:1:0:0:
160,80,12023,2,0,P|140:120|140:184,1,97.50000371933,0|2,0:1|0:1,0:1:0:0:
160,216,12540,2,0,L|164:268,2,48.750001859665,8|0|2,0:1|0:1|0:1,0:1:0:0:
236,156,13230,2,0,B|292:152|292:152|328:128|328:128|392:124,1,146.250005578995,8|2,0:1|0:1,0:1:0:0:
424,124,13919,1,8,0:1:0:0:
456,216,14264,6,0,P|456:280|436:316,1,97.50000371933,2|8,0:1|0:1,0:1:0:0:
404,340,14781,2,0,L|284:336,1,97.50000371933,0|2,0:1|0:1,0:1:0:0:
260,348,15299,2,0,L|256:284,2,48.750001859665,8|0|2,0:1|0:1|0:1,0:1:0:0:
172,308,15988,2,0,L|183:162,1,146.250005578995,8|2,0:1|0:1,0:1:0:0:
188,112,16678,1,8,0:1:0:0:
272,60,17023,6,0,P|316:56|372:72,1,97.50000371933,2|8,0:1|0:1,0:1:0:0:
392,112,17540,2,0,L|384:216,1,97.50000371933,0|2,0:1|0:1,0:1:0:0:
396,256,18057,2,0,L|400:320,2,48.750001859665,8|0|2,0:1|0:1|0:1,0:1:0:0:
300,276,18747,2,0,P|212:288|176:240,1,146.250005578995,8|2,0:1|0:1,0:1:0:0:
140,220,19437,1,8,0:1:0:0:
136,124,19781,6,0,L|240:116,1,97.50000371933,2|8,0:1|0:1,0:1:0:0:
276,144,20299,2,0,L|376:172,1,97.50000371933,0|2,0:1|0:1,0:1:0:0:
396,212,20816,2,0,L|452:248,2,48.750001859665,8|0|2,0:1|0:1|0:1,0:1:0:0:
320,276,21506,2,0,B|253:305|253:253|177:281,1,146.250005578995,8|2,0:1|0:1,0:1:0:0:
132,304,22195,1,8,0:1:0:0:
116,208,22540,6,0,B|104:104,1,97.50000371933,6|8,0:1|0:1,0:1:0:0:
128,68,23057,1,0,0:1:0:0:
224,84,23402,1,2,0:1:0:0:
224,84,23574,2,0,L|288:88,2,48.750001859665,8|0|2,0:1|0:1|0:1,0:1:0:0:
260,176,24264,2,0,B|356:184|356:184|392:228,1,146.250005578995,8|2,0:1|0:1,0:1:0:0:
412,264,24954,1,8,0:1:0:0:
332,324,25299,6,0,B|300:284|300:284|240:276,1,97.50000371933,2|8,0:1|0:1,0:1:0:0:
204,272,25816,1,0,0:1:0:0:
108,268,26161,1,2,0:1:0:0:
108,268,26333,2,0,L|56:272,2,48.750001859665,8|0|2,0:1|0:1|0:1,0:1:0:0:
204,272,27023,2,0,B|212:220|212:220|196:176|196:176|208:116,1,146.250005578995,8|2,0:1|0:1,0:1:0:0:
212,84,27712,1,8,0:1:0:0:
308,60,28057,6,0,P|360:56|424:76,1,97.50000371933,2|8,0:1|0:1,0:1:0:0:
444,92,28574,1,0,0:1:0:0:
468,188,28919,1,2,0:1:0:0:
468,188,29092,2,0,L|472:240,2,48.750001859665,8|0|2,0:1|0:1|0:1,0:1:0:0:
376,220,29781,2,0,B|284:248|284:248|224:228,1,146.250005578995,8|2,0:1|0:1,0:1:0:0:
192,212,30471,1,8,0:1:0:0:
96,216,30816,6,0,L|103:313,1,97.50000371933,2|8,0:1|0:1,0:1:0:0:
120,360,31333,1,0,0:1:0:0:
216,356,31678,1,2,0:1:0:0:
216,356,31850,2,0,L|219:307,2,48.750001859665,8|0|2,0:1|0:1|0:1,0:1:0:0:
312,336,32540,2,0,P|376:272|360:224,1,146.250005578995,8|2,0:1|0:1,0:1:0:0:
340,184,33230,1,8,0:1:0:0:
360,88,33574,5,4,0:1:0:0:
194,267,44609,6,0,B|190:315|190:315|166:335|162:375,2,97.50000371933,4|0|2,0:0|0:0|0:0,0:0:0:0:
256,192,45643,1,0,0:0:0:0:
352,207,45988,2,0,L|460:203,2,97.50000371933,2|0|2,0:0|0:0|0:0,0:0:0:0:
160,169,47368,6,0,B|148:117|148:117|160:61,2,97.50000371933,4|0|2,0:0|0:0|0:0,0:0:0:0:
256,192,48402,1,0,0:0:0:0:
289,283,48747,2,0,L|277:384,2,97.50000371933,2|0|2,0:0|0:0|0:0,0:0:0:0:
215,102,50126,6,0,P|185:76|132:36,2,97.50000371933,4|0|2,0:0|0:0|0:0,0:0:0:0:
256,192,51161,1,0,0:0:0:0:
194,267,51506,2,0,L|95:260,2,97.50000371933,2|0|2,0:0|0:0|0:0,0:0:0:0:
320,118,52885,6,0,B|374:104|374:104|429:116,2,97.50000371933,4|0|2,0:0|0:0|0:0,0:0:0:0:
256,192,53919,1,0,0:0:0:0:
311,272,54264,2,0,L|327:376,2,97.50000371933,2|0|2,0:0|0:0|0:0,0:0:0:0:
200,112,55643,6,0,L|204:56,1,48.750001859665,4|0,0:0|0:0,0:0:0:0:
228,24,55988,2,0,P|276:24|319:46,1,97.50000371933
394,110,56678,2,0,P|449:122|502:106,2,97.50000371933,4|0|0,0:0|0:0|0:0,0:0:0:0:
320,47,57712,1,4,0:0:0:0:
128,24,58402,6,0,L|122:72,1,48.750001859665,4|0,0:0|0:0,0:0:0:0:
156,108,58747,2,0,B|106:107|106:107|64:128,1,97.50000371933
104,216,59437,1,4,0:0:0:0:
104,216,59609,2,0,L|106:281,2,48.750001859665
147,238,60126,2,0,B|201:247|201:247|263:233,1,97.50000371933,0|4,0:0|0:0,0:0:0:0:
427,132,61161,6,0,L|421:189,1,48.750001859665,4|0,0:0|0:0,0:0:0:0:
388,215,61506,2,0,L|393:263,2,48.750001859665,2|0|2,0:0|0:0|0:0,0:0:0:0:
291,199,62195,2,0,L|236:194,1,48.750001859665,2|0,0:0|0:0,0:0:0:0:
200,169,62540,2,0,L|151:173,2,48.750001859665,4|0|2,0:0|0:0|0:0,0:0:0:0:
212,121,63057,2,0,P|215:74|214:62,1,48.750001859665,0|2,0:0|0:0,0:0:0:0:
117,71,63574,1,2,0:0:0:0:
44,136,63919,6,0,L|37:244,1,97.50000371933,10|8,0:1|0:1,0:1:0:0:
63,275,64437,1,0,0:1:0:0:
63,275,64609,2,0,B|114:297|114:297|173:294,1,97.50000371933,8|8,0:1|0:1,0:1:0:0:
197,269,65126,1,0,0:1:0:0:
197,269,65299,2,0,L|257:274,1,48.750001859665,10|0,0:1|0:1,0:1:0:0:
289,251,65643,2,0,L|349:256,1,48.750001859665,8|0,0:1|0:1,0:1:0:0:
384,240,65988,1,8,0:1:0:0:
431,75,66678,6,0,L|315:79,1,110.50000210762,4|8,0:2|0:0,0:0:0:0:
269,100,67195,1,0,0:0:0:0:
269,100,67368,1,0,0:0:0:0:
178,162,67712,2,0,P|181:210|178:240,1,55.2500010538101,8|0,0:0|0:0,0:0:0:0:
149,262,68057,2,0,L|283:258,1,110.50000210762,2|8,0:0|0:0,0:0:0:0:
305,288,68574,1,0,0:0:0:0:
305,288,68747,2,0,P|365:296|425:282,1,110.50000210762,0|8,0:0|0:0,0:0:0:0:
466,189,69437,6,0,B|468:113|468:113|444:85,1,110.50000210762,2|8,0:0|0:0,0:0:0:0:
399,55,69954,1,0,0:0:0:0:
399,55,70126,2,0,P|345:63|285:62,1,110.50000210762,0|8,0:0|0:0,0:0:0:0:
184,97,70816,2,0,L|126:94,2,55.2500010538101,2|0|8,0:0|0:0|0:0,0:0:0:0:
205,148,71333,1,0,0:0:0:0:
205,148,71506,2,0,P|213:201|202:264,1,110.50000210762,0|8,0:0|0:0,0:0:0:0:
257,353,72195,6,0,B|309:355|309:355|336:348|336:348|372:349,1,110.50000210762,4|8,0:2|0:0,0:0:0:0:
421,356,72712,1,0,0:0:0:0:
421,356,72885,1,0,0:0:0:0:
399,247,73230,2,0,L|398:188,1,55.2500010538101,8|0,0:0|0:0,0:0:0:0:
427,144,73574,2,0,P|373:154|300:143,1,110.50000210762,2|8,0:0|0:0,0:0:0:0:
262,142,74092,1,0,0:0:0:0:
262,142,74264,2,0,P|207:136|153:146,1,110.50000210762,0|8,0:0|0:0,0:0:0:0:
90,238,74954,6,0,B|149:250|149:250|199:240,1,110.50000210762,2|8,0:0|0:0,0:0:0:0:
252,251,75471,1,0,0:0:0:0:
252,251,75643,2,0,P|279:296|283:361,1,110.50000210762,0|8,0:0|0:0,0:0:0:0:
393,335,76333,2,0,L|463:338,2,55.2500010538101,2|0|8,0:0|0:0|0:0,0:0:0:0:
361,289,76850,1,0,0:0:0:0:
361,289,77023,2,0,P|365:234|393:187,1,110.50000210762,0|8,0:0|0:0,0:0:0:0:
387,76,77712,6,0,B|348:61|313:63|313:63|291:73|268:73,1,110.50000210762,4|8,0:2|0:0,0:0:0:0:
226,89,78230,1,0,0:0:0:0:
226,89,78402,1,0,0:0:0:0:
131,146,78747,2,0,L|180:188,1,55.2500010538101,8|0,0:0|0:0,0:0:0:0:
192,234,79092,2,0,L|313:280,1,110.50000210762,2|8,0:0|0:0,0:0:0:0:
325,319,79609,1,0,0:0:0:0:
325,319,79781,2,0,L|455:321,1,110.50000210762,0|8,0:0|0:0,0:0:0:0:
470,215,80471,6,0,P|476:156|465:102,1,110.50000210762,2|8,0:0|0:0,0:0:0:0:
422,72,80988,1,0,0:0:0:0:
422,72,81161,2,0,L|290:71,1,110.50000210762,0|8,0:0|0:0,0:0:0:0:
215,125,81850,2,0,L|155:127,2,55.2500010538101,2|0|8,0:0|0:0|0:0,0:0:0:0:
233,177,82368,1,0,0:0:0:0:
233,177,82540,2,0,P|227:230|236:303,1,110.50000210762,0|8,0:0|0:0,0:0:0:0:
130,329,83230,6,0,B|61:322|61:322|34:286,1,110.50000210762,4|8,0:2|0:0,0:0:0:0:
7,241,83747,1,0,0:0:0:0:
7,241,83919,1,0,0:0:0:0:
63,146,84264,2,0,L|139:153,1,55.2500010538101,8|0,0:0|0:0,0:0:0:0:
161,185,84609,2,0,L|282:178,1,110.50000210762,2|8,0:0|0:0,0:0:0:0:
320,152,85126,1,0,0:0:0:0:
320,152,85299,2,0,L|430:158,1,110.50000210762,0|8,0:0|0:0,0:0:0:0:
379,256,85988,6,0,L|265:263,1,110.50000210762,2|8,0:0|0:0,0:0:0:0:
213,255,86506,1,0,0:0:0:0:
213,255,86678,2,0,P|190:189|202:148,1,110.50000210762,0|8,0:0|0:0,0:0:0:0:
288,85,87368,2,0,L|288:30,2,55.2500010538101,2|0|8,0:0|0:0|0:0,0:0:0:0:
337,109,87885,1,0,0:0:0:0:
337,109,88057,2,2,P|412:120|454:103,1,110.50000210762,0|0,0:0|0:0,0:1:0:0:
477,214,88747,6,0,L|465:329,1,110.50000210762,4|8,0:2|0:0,0:0:0:0:
431,367,89264,1,0,0:0:0:0:
431,367,89437,2,0,P|364:378|305:363,1,110.50000210762,0|8,0:0|0:0,0:0:0:0:
270,352,89954,1,2,0:0:0:0:
270,352,90126,2,0,P|215:343|161:355,1,110.50000210762,2|8,0:0|0:0,0:0:0:0:
107,364,90643,1,0,0:0:0:0:
107,364,90816,2,0,L|108:297,2,55.2500010538101,0|2|8,0:0|0:0|0:0,0:0:0:0:
13,305,91506,6,0,L|11:172,1,110.50000210762,2|8,0:0|0:0,0:0:0:0:
38,146,92023,1,0,0:0:0:0:
38,146,92195,2,0,L|37:86,2,55.2500010538101,0|2|8,0:0|0:0|0:0,0:0:0:0:
148,141,92885,2,0,P|218:149|271:131,1,110.50000210762,2|8,0:0|0:0,0:0:0:0:
309,124,93402,1,0,0:0:0:0:
309,124,93574,2,0,L|311:62,2,55.2500010538101,0|2|8,0:0|0:0|0:0,0:0:0:0:
269,227,94264,6,0,B|274:317|274:317|300:340,1,110.50000210762,4|8,0:2|0:0,0:0:0:0:
332,365,94781,1,0,0:0:0:0:
332,365,94954,2,0,L|445:360,1,110.50000210762,0|8,0:0|0:0,0:0:0:0:
491,335,95471,1,0,0:0:0:0:
491,335,95643,2,0,P|489:268|457:214,1,110.50000210762,2|8,0:0|0:0,0:0:0:0:
425,196,96161,1,0,0:0:0:0:
425,196,96333,2,0,L|423:132,2,55.2500010538101,0|2|8,0:0|0:0|0:0,0:0:0:0:
322,152,97023,6,0,L|185:147,1,110.50000210762,2|8,0:0|0:0,0:0:0:0:
160,168,97540,1,0,0:0:0:0:
160,168,97712,2,0,L|93:174,2,55.2500010538101,0|2|8,0:0|0:0|0:0,0:0:0:0:
245,238,98402,2,0,P|250:286|226:345,1,110.50000210762,2|8,0:0|0:0,0:0:0:0:
178,369,98919,1,0,0:0:0:0:
178,369,99092,2,0,L|112:372,2,55.2500010538101,0|2|8,0:0|0:0|0:0,0:0:0:0:
116,277,99781,6,0,L|119:164,1,110.50000210762,4|8,0:2|0:0,0:0:0:0:
140,114,100299,1,0,0:0:0:0:
140,114,100471,2,0,L|137:45,2,55.2500010538101,0|2|8,0:0|0:0|0:0,0:0:0:0:
246,143,101161,2,0,P|319:153|375:136,1,110.50000210762,2|8,0:0|0:0,0:0:0:0:
406,127,101678,1,0,0:0:0:0:
406,127,101850,2,0,B|442:205|442:205|436:241,1,110.50000210762,0|8,0:0|0:0,0:0:0:0:
346,291,102540,6,0,P|282:281|225:300,1,110.50000210762,2|8,0:0|0:0,0:0:0:0:
198,331,103057,1,0,0:0:0:0:
198,331,103230,2,0,P|144:343|90:332,1,110.50000210762,0|8,0:0|0:0,0:0:0:0:
50,293,103747,1,0,0:0:0:0:
50,293,103919,2,0,L|53:172,1,110.50000210762,2|8,0:0|0:0,0:0:0:0:
77,132,104437,1,0,0:0:0:0:
77,132,104609,2,0,L|77:65,2,55.2500010538101,0|2|8,0:0|0:0|0:0,0:0:0:0:
169,193,105299,6,0,P|224:209|284:194,1,110.50000210762,4|8,0:2|0:0,0:0:0:0:
327,181,105816,1,0,0:0:0:0:
327,181,105988,2,0,P|374:261|366:289,1,110.50000210762,0|8,0:0|0:0,0:0:0:0:
339,317,106506,1,0,0:0:0:0:
339,317,106678,2,0,P|270:323|220:322,1,110.50000210762,2|8,0:0|0:0,0:0:0:0:
176,304,107195,1,0,0:0:0:0:
176,304,107368,2,0,P|131:304|102:308,1,55.2500010538101,0|2,0:0|0:0,0:0:0:0:
68,320,107712,1,8,0:0:0:0:
105,215,108057,6,0,B|111:136|111:136|148:103,1,110.50000210762,2|8,0:0|0:0,0:0:0:0:
181,86,108574,1,0,0:0:0:0:
181,86,108747,2,0,L|186:22,2,55.2500010538101,0|2|8,0:0|0:0|0:0,0:0:0:0:
265,157,109437,2,0,P|328:177|391:156,1,110.50000210762,2|8,0:0|0:0,0:0:0:0:
422,149,109954,1,0,0:0:0:0:
422,149,110126,2,0,L|427:211,2,55.2500010538101,0|2|8,0:0|0:0|0:0,0:0:0:0:
380,60,110816,5,4,0:1:0:0:
