osu file format v14

[General]
AudioFilename: audio.mp3
AudioLeadIn: 0
PreviewTime: 66576
Countdown: 0
SampleSet: Normal
StackLeniency: 0.7
Mode: 0
LetterboxInBreaks: 0
EpilepsyWarning: 1
WidescreenStoryboard: 1

[Editor]
Bookmarks: 455,11490,22524,33558,44593,55627,61145,66662,77696,88731,99765,110800
DistanceSpacing: 1.6
BeatDivisor: 4
GridSize: 4
TimelineZoom: 1

[Metadata]
Title:On My Own
TitleUnicode:On My Own
Artist:Panda Eyes
ArtistUnicode:Panda Eyes
Creator:Plaudible
Version:MrSergio's Hard
Source:
Tags:dnb drum and bass cut short ver yamicchi hobbes2 hokichi mrsergio
BeatmapID:1074248
BeatmapSetID:504958

[Difficulty]
HPDrainRate:5.5
CircleSize:4
OverallDifficulty:6
ApproachRate:7.7
SliderMultiplier:1.2
SliderTickRate:1

[Events]
//Background and Video events
0,0,"bg.jpg",0,0
//Break Periods
2,33775,43814
//Storyboard Layer 0 (Background)
//Storyboard Layer 1 (Fail)
//Storyboard Layer 2 (Pass)
//Storyboard Layer 3 (Foreground)
Sprite,Foreground,Centre,"SB\cre\mr.png",320,240 S,0,39075,,0.5 C,0,39075,,255,150,100 P,0,39075,,A F,0,39075,39284,0,1 MX,0,39075,39284,200,300 MX,0,39284,41834,300,340 F,0,41834,42006,1,0 MX,0,41834,42006,340,440
//Storyboard Sound Samples

[TimingPoints]
498,344.827586206897,4,2,10,50,1,0
11506,344.827586206897,4,2,1,75,1,0
11506,-100,4,2,1,75,0,0
33575,-100,4,2,10,75,0,0
44437,-100,4,2,1,5,0,0
44609,-133.333333333333,4,2,1,75,0,0
55644,-117.647058823529,4,2,1,75,0,0
61161,-100,4,2,1,75,0,0
66678,-83.3333333333333,4,1,1,100,0,1
88402,-100,4,1,1,100,0,0
88747,-83.3333333333333,4,1,1,100,0,1
110816,-100,4,1,10,100,0,0

[Colours]
Combo1 : 224,193,255
Combo2 : 255,150,100
Combo3 : 0,255,255

[HitObjects]
132,53,11506,5,6,0:1:0:0:
314,115,11851,1,8,0:1:0:0:
246,185,12023,1,0,0:1:0:0:
243,191,12109,1,0,0:1:0:0:
240,197,12196,2,0,L|196:200,2,30,0|0|2,0:1|0:1|0:1,0:0:0:0:
328,234,12540,1,8,0:1:0:0:
246,285,12713,1,2,0:1:0:0:
246,285,12885,6,0,B|215:286|215:286|162:314|162:314|118:317,1,120,2|8,0:1|0:1,0:0:0:0:
47,271,13403,2,0,L|6:279,4,30,0|0|0|0|2,0:1|0:1|0:1|0:1|0:1,0:0:0:0:
126,217,13920,1,8,0:1:0:0:
279,332,14265,5,2,0:1:0:0:
318,144,14609,1,8,0:1:0:0:
377,219,14782,1,0,0:1:0:0:
381,223,14868,1,0,0:1:0:0:
385,227,14954,2,0,L|436:230,2,30,0|0|2,0:1|0:1|0:1,0:0:0:0:
318,144,15299,1,8,0:1:0:0:
276,231,15472,1,2,0:1:0:0:
276,231,15644,6,0,P|232:214|150:236,1,120,2|8,0:1|0:1,0:0:0:0:
99,300,16161,2,0,L|104:345,4,30,0|0|0|0|2,0:1|0:1|0:1|0:1|0:1,0:0:0:0:
69,208,16678,1,8,0:1:0:0:
196,351,17023,5,2,0:1:0:0:
271,174,17368,1,8,0:1:0:0:
326,252,17540,1,0,0:1:0:0:
329,256,17627,1,0,0:1:0:0:
332,260,17713,2,0,L|318:303,2,30,0|0|2,0:1|0:1|0:1,0:0:0:0:
360,167,18058,1,8,0:1:0:0:
266,188,18230,1,2,0:1:0:0:
266,188,18403,6,0,L|126:178,1,120,2|8,0:1|0:1,0:0:0:0:
60,136,18920,2,0,L|20:143,4,30,0|0|0|0|2,0:1|0:1|0:1|0:1|0:1,0:0:0:0:
143,87,19437,1,8,0:1:0:0:
60,260,19782,5,2,0:1:0:0:
60,260,20127,2,0,P|103:273|135:263,1,60,8|0,0:1|0:1,0:0:0:0:
128,280,20385,1,0,0:1:0:0:
140,288,20472,2,0,L|191:282,2,30,0|0|2,0:1|0:1|0:1,0:0:0:0:
62,344,20816,1,8,0:1:0:0:
152,377,20989,1,2,0:1:0:0:
152,377,21161,6,0,L|298:359,1,120,2|8,0:1|0:1,0:0:0:0:
308,273,21678,2,0,L|300:236,4,30,0|0|0|0|2,0:1|0:1|0:1|0:1|0:1,0:0:0:0:
370,346,22196,1,8,0:1:0:0:
432,164,22540,6,0,L|428:84,1,60,6|0,0:1|0:1,0:0:0:0:
345,152,22885,1,8,0:1:0:0:
345,152,23058,1,0,0:1:0:0:
250,167,23230,2,0,L|254:87,1,60,0|2,0:1|0:1,0:0:0:0:
193,31,23575,1,8,0:1:0:0:
162,121,23747,1,2,0:1:0:0:
162,121,23920,6,0,L|164:180,1,60,2|0,0:1|0:1,0:0:0:0:
109,316,24265,2,0,L|111:256,1,60,8|0,0:1|0:1,0:0:0:0:
207,263,24609,2,0,L|240:252,3,30,0|0|2|0,0:1|0:0|0:1|0:0,0:0:0:0:
260,271,24954,2,0,L|333:279,1,60,8|0,0:1|0:1,0:0:0:0:
389,216,25299,6,0,L|340:183,1,60,2|0,0:1|0:1,0:0:0:0:
420,125,25644,1,8,0:1:0:0:
420,125,25816,1,0,0:1:0:0:
388,34,25989,2,0,L|327:75,1,60,0|2,0:1|0:1,0:0:0:0:
245,41,26334,1,8,0:1:0:0:
273,132,26506,1,2,0:1:0:0:
273,132,26678,6,0,L|251:193,1,60,2|0,0:1|0:1,0:0:0:0:
176,246,27023,1,8,0:1:0:0:
79,244,27196,1,0,0:1:0:0:
14,172,27368,2,0,L|4:133,3,30,0|0|2|0,0:1|0:0|0:1|0:0,0:0:0:0:
36,111,27713,2,0,L|45:38,1,60,8|0,0:1|0:1,0:0:0:0:
128,96,28058,6,0,L|196:97,1,60,2|0,0:1|0:1,0:0:0:0:
279,67,28403,1,8,0:1:0:0:
279,67,28575,1,0,0:1:0:0:
325,150,28747,2,0,L|257:151,1,60,0|0,0:1|0:0,0:0:0:0:
187,96,29092,1,8,0:1:0:0:
187,195,29265,1,2,0:1:0:0:
187,195,29437,6,0,L|255:196,1,60,2|0,0:1|0:1,0:0:0:0:
325,251,29782,2,0,L|369:252,4,30,8|0|0|0|0,0:1|0:0|0:1|0:0|0:1,0:0:0:0:
246,195,30299,1,2,0:1:0:0:
210,284,30472,2,0,L|142:285,1,60,8|0,0:1|0:1,0:0:0:0:
81,217,30816,6,0,P|87:183|75:138,1,60,2|0,0:1|0:1,0:0:0:0:
101,63,31161,2,0,P|97:92|103:121,1,60,8|0,0:1|0:1,0:0:0:0:
192,85,31506,2,0,L|222:71,3,30,0|0|2|0,0:1|0:0|0:1|0:0,0:0:0:0:
266,84,31851,2,0,P|269:113|263:142,1,60,8|2,0:1|0:1,0:0:0:0:
255,238,32196,6,0,P|251:267|257:296,1,60,2|0,0:1|0:1,0:0:0:0:
324,365,32540,1,8,0:1:0:0:
389,293,32713,1,0,0:1:0:0:
478,326,32885,2,0,P|483:296|480:267,1,60,0|2,0:1|0:1,0:0:0:0:
389,293,33230,1,8,0:1:0:0:
252,158,33575,5,4,0:0:0:0:
284,172,44609,6,0,P|254:164|232:145,1,45.0000017166138,4|0,0:0|0:1,0:0:0:0:
173,179,44954,2,0,P|151:158|141:130,1,45.0000017166138,0|0,0:1|0:1,0:0:0:0:
75,149,45299,1,2,0:1:0:0:
58,292,45644,2,0,L|70:344,1,45.0000017166138,0|0,0:1|0:1,0:0:0:0:
139,344,45989,6,0,P|172:335|200:340,1,45.0000017166138,2|0,0:1|0:1,0:0:0:0:
231,282,46334,2,0,P|263:291|285:309,1,45.0000017166138,0|0,0:1|0:1,0:0:0:0:
330,254,46678,2,0,P|365:270|463:262,1,135.000005149841,2|0,0:1|0:1,0:0:0:0:
431,197,47368,6,0,L|443:145,1,45.0000017166138,4|0,0:0|0:1,0:0:0:0:
375,123,47713,2,0,L|402:76,1,45.0000017166138,0|0,0:1|0:1,0:0:0:0:
348,30,48058,1,2,0:1:0:0:
220,100,48403,2,0,P|188:100|163:91,1,45.0000017166138,0|0,0:1|0:1,0:0:0:0:
115,135,48747,6,0,L|129:187,1,45.0000017166138,2|0,0:1|0:1,0:0:0:0:
68,220,49092,2,0,L|109:265,1,45.0000017166138,0|0,0:1|0:1,0:0:0:0:
62,316,49437,2,0,L|153:359,1,90.0000034332277,2|0,0:1|0:1,0:0:0:0:
281,311,50127,6,0,P|288:283|283:255,1,45.0000017166138,4|0,0:0|0:1,0:0:0:0:
248,205,50472,1,0,0:1:0:0:
248,205,50644,1,0,0:1:0:0:
314,260,50816,2,0,L|421:253,1,90.0000034332277,2|0,0:1|0:1,0:0:0:0:
425,184,51334,1,0,0:1:0:0:
383,125,51506,6,0,P|364:145|337:154,1,45.0000017166138,2|0,0:1|0:1,0:0:0:0:
246,147,51851,2,0,P|265:127|292:118,1,45.0000017166138,0|0,0:1|0:1,0:0:0:0:
348,151,52196,1,2,0:1:0:0:
199,307,52713,1,0,0:1:0:0:
148,256,52885,6,0,L|87:260,1,45.0000017166138,4|0,0:0|0:1,0:0:0:0:
24,223,53230,2,0,L|85:227,1,45.0000017166138,0|0,0:1|0:1,0:0:0:0:
184,179,53575,2,0,L|85:185,1,90.0000034332277,2|0,0:1|0:1,0:0:0:0:
69,116,54092,1,0,0:1:0:0:
120,65,54265,6,0,L|148:104,1,45.0000017166138,2|0,0:1|0:1,0:0:0:0:
214,78,54609,2,0,L|264:103,1,45.0000017166138,0|0,0:1|0:1,0:0:0:0:
320,69,54954,1,2,0:1:0:0:
369,279,55472,1,0,0:1:0:0:
317,216,55644,6,0,L|263:228,1,51.0000009727478,4|0,0:0|0:1,0:0:0:0:
193,192,55989,2,0,L|139:204,1,51.0000009727478,0|0,0:1|0:1,0:0:0:0:
66,174,56334,1,0,0:1:0:0:
66,174,56506,1,0,0:1:0:0:
22,242,56678,2,0,L|28:315,1,51.0000009727478,4|0,0:0|0:1,0:0:0:0:
66,174,57023,6,0,L|70:123,1,51.0000009727478,0|0,0:1|0:1,0:0:0:0:
152,123,57368,2,0,L|156:72,1,51.0000009727478,0|0,0:1|0:1,0:0:0:0:
237,83,57713,1,4,0:0:0:0:
237,83,57885,1,0,0:1:0:0:
301,133,58058,2,0,P|336:140|361:132,1,51.0000009727478,0|0,0:1|0:1,0:0:0:0:
445,202,58403,6,0,P|410:195|385:203,1,51.0000009727478,4|0,0:0|0:1,0:0:0:0:
431,281,58747,2,0,P|454:291|472:310,1,51.0000009727478,0|0,0:1|0:1,0:0:0:0:
415,368,59092,1,0,0:1:0:0:
415,368,59265,1,0,0:1:0:0:
342,331,59437,2,0,L|349:261,1,51.0000009727478,4|0,0:0|0:1,0:0:0:0:
269,305,59782,6,0,B|239:317|239:317|214:317,1,51.0000009727478,0|0,0:1|0:1,0:0:0:0:
206,236,60127,2,0,B|174:231|174:231|152:218,1,51.0000009727478,0|0,0:1|0:1,0:0:0:0:
197,150,60472,1,4,0:0:0:0:
197,150,60644,1,0,0:1:0:0:
247,85,60816,2,0,B|221:65|221:65|209:43,1,51.0000009727478,0|0,0:1|0:1,0:0:0:0:
291,15,61161,5,4,0:0:0:0:
291,15,61334,1,2,0:1:0:0:
291,15,61506,2,0,P|326:23|371:17,1,60,2|2,0:1|0:1,0:0:0:0:
439,95,61851,1,2,0:1:0:0:
439,95,62024,1,2,0:1:0:0:
439,95,62196,2,0,P|404:103|359:97,1,60,2|2,0:1|0:1,0:0:0:0:
255,152,62540,6,0,P|290:160|335:154,1,60,4|2,0:0|0:1,0:0:0:0:
227,236,62885,2,0,P|201:221|180:201,1,60,2|2,0:1|0:1,0:0:0:0:
87,197,63230,2,0,P|95:226|111:252,1,60,2|2,0:1|0:1,0:0:0:0:
4,209,63575,2,0,P|4:179|12:151,1,60,2|2,0:1|0:1,0:0:0:0:
60,64,63920,6,0,L|132:84,1,60,8|2,0:0|0:1,0:0:0:0:
248,128,64265,2,0,L|190:144,1,60,8|2,0:0|0:1,0:0:0:0:
104,220,64609,2,0,L|161:236,1,60,8|2,0:0|0:1,0:0:0:0:
288,288,64954,2,0,L|230:304,1,60,8|2,0:0|0:1,0:0:0:0:
140,340,65299,6,0,L|104:336,3,30,8|0|0|0,0:1|0:1|0:1|0:1,0:0:0:0:
80,308,65644,2,0,L|44:316,3,30,8|0|0|0,0:1|0:1|0:1|0:1,0:0:0:0:
8,336,65989,6,0,L|20:256,1,60,8|2,0:1|0:1,0:0:0:0:
8,180,66334,1,2,0:1:0:0:
92,228,66506,1,2,0:1:0:0:
88,132,66678,6,0,P|92:96|80:48,2,71.9999978027344,4|0|8,0:2|0:0|0:0,0:0:0:0:
8,180,67196,1,0,0:0:0:0:
112,148,67368,2,0,P|152:140|206:166,1,71.9999978027344,0|0,0:0|0:0,0:0:0:0:
252,209,67713,1,8,0:0:0:0:
252,209,67885,1,0,0:0:0:0:
340,245,68058,6,0,B|357:212|329:210|348:153,1,71.9999978027344,2|0,0:0|0:0,0:0:0:0:
252,209,68403,2,0,B|235:242|263:244|244:301,1,71.9999978027344,8|0,0:0|0:0,0:0:0:0:
158,261,68747,2,0,P|114:249|18:279,1,143.999995605469,0|8,0:0|0:0,0:0:0:0:
22,276,69265,1,0,0:0:0:0:
92,214,69437,6,0,P|112:169|113:129,1,71.9999978027344,2|0,0:0|0:0,0:0:0:0:
208,160,69782,2,0,P|202:111|183:75,1,71.9999978027344,8|0,0:0|0:0,0:0:0:0:
289,54,70127,2,0,P|269:24|241:1,2,71.9999978027344,0|2|8,0:0|0:0|0:0,0:0:0:0:
346,134,70644,1,0,0:0:0:0:
346,134,70816,6,0,L|434:146,1,71.9999978027344,2|0,0:0|0:0,0:0:0:0:
336,220,71161,2,0,L|248:232,1,71.9999978027344,8|0,0:0|0:0,0:0:0:0:
320,304,71506,2,0,L|472:324,1,143.999995605469,0|8,0:0|0:0,0:0:0:0:
462,322,72023,1,0,0:0:0:0:
392,260,72196,6,0,B|384:224|384:224|400:172,1,71.9999978027344,4|0,0:2|0:0,0:0:0:0:
472,136,72540,1,8,0:0:0:0:
394,190,72713,1,0,0:0:0:0:
320,136,72885,2,0,B|286:125|286:125|250:133,1,71.9999978027344,0|2,0:0|0:0,0:0:0:0:
180,196,73230,1,8,0:0:0:0:
180,196,73403,1,0,0:0:0:0:
100,152,73575,6,0,L|104:64,1,71.9999978027344,2|0,0:0|0:0,0:0:0:0:
180,196,73920,2,0,L|184:284,1,71.9999978027344,8|0,0:0|0:0,0:0:0:0:
72,248,74265,2,0,L|75:176,2,71.9999978027344,0|2|8,0:0|0:0|0:0,0:0:0:0:
32,332,74782,1,0,0:0:0:0:
32,332,74954,6,0,P|64:328|112:344,1,71.9999978027344,2|0,0:0|0:0,0:0:0:0:
212,331,75299,2,0,P|192:305|182:255,1,71.9999978027344,8|0,0:0|0:0,0:0:0:0:
288,262,75644,2,0,P|351:228|388:168,1,143.999995605469,0|8,0:0|0:0,0:0:0:0:
387,168,76161,1,0,0:0:0:0:
328,96,76334,6,0,B|304:80|304:80|228:80,1,71.9999978027344,2|0,0:0|0:0,0:0:0:0:
184,172,76678,2,0,L|288:172,1,71.9999978027344,8|0,0:0|0:0,0:0:0:0:
172,80,77023,2,0,B|128:80|128:80|104:96,2,71.9999978027344,0|2|8,0:0|0:0|0:0,0:0:0:0:
228,260,77713,6,0,L|316:260,1,71.9999978027344,4|0,0:2|0:0,0:0:0:0:
364,192,78058,1,8,0:0:0:0:
300,260,78230,1,0,0:0:0:0:
356,336,78403,2,0,L|444:336,2,71.9999978027344,0|2|8,0:0|0:0|0:0,0:0:0:0:
300,260,78920,1,0,0:0:0:0:
208,252,79092,6,0,L|128:216,1,71.9999978027344,2|0,0:0|0:0,0:0:0:0:
208,156,79437,2,0,L|184:76,1,71.9999978027344,8|0,0:0|0:0,0:0:0:0:
288,88,79782,2,0,B|304:16|304:16|332:92,1,143.999995605469,0|8,0:0|0:0,0:0:0:0:
420,64,80299,1,0,0:0:0:0:
338,111,80472,6,0,P|336:148|356:181,1,71.9999978027344,2|0,0:0|0:0,0:0:0:0:
320,264,80816,2,0,P|289:245|269:213,1,71.9999978027344,8|0,0:0|0:0,0:0:0:0:
257,332,81161,2,0,P|286:351|396:327,1,143.999995605469,0|8,0:0|0:0,0:0:0:0:
457,272,81678,1,2,0:0:0:0:
457,272,81851,6,0,L|463:181,1,71.9999978027344,2|0,0:0|0:0,0:0:0:0:
388,141,82196,2,0,L|394:50,1,71.9999978027344,8|0,0:0|0:0,0:0:0:0:
303,97,82540,2,0,L|221:92,2,71.9999978027344,0|2|8,0:0|0:0|0:0,0:0:0:0:
392,69,83058,1,0,0:0:0:0:
312,118,83230,6,0,L|312:208,1,71.9999978027344,4|0,0:2|0:0,0:0:0:0:
257,266,83575,1,8,0:0:0:0:
216,181,83747,1,0,0:0:0:0:
257,266,83920,2,0,L|257:356,1,71.9999978027344,0|2,0:0|0:0,0:0:0:0:
174,293,84265,2,0,P|135:285|76:305,1,71.9999978027344,8|0,0:0|0:0,0:0:0:0:
257,338,84609,6,0,P|296:346|355:326,1,71.9999978027344,2|0,0:0|0:0,0:0:0:0:
378,262,84954,2,0,P|339:254|280:274,1,71.9999978027344,8|0,0:0|0:0,0:0:0:0:
422,342,85299,2,0,B|449:314|449:314|463:188,1,143.999995605469,0|8,0:0|0:0,0:0:0:0:
460,209,85816,1,0,0:0:0:0:
386,150,85989,6,0,B|350:143|350:143|308:152,1,71.9999978027344,2|0,0:0|0:0,0:0:0:0:
270,232,86334,2,0,B|306:239|306:239|340:231,1,71.9999978027344,8|0,0:0|0:0,0:0:0:0:
386,150,86678,2,0,B|393:114|393:114|385:79,2,71.9999978027344,0|2|8,0:0|0:0|0:0,0:0:0:0:
297,116,87196,1,2,0:0:0:0:
213,157,87368,6,0,L|140:160,1,71.9999978027344,2|0,0:0|0:0,0:0:0:0:
159,67,87713,2,0,L|86:70,1,71.9999978027344,8|0,0:0|0:0,0:0:0:0:
42,152,88058,2,2,B|10:224|76:224|37:305,1,143.999995605469,0|2,0:0|0:0,0:1:0:0:
42,291,88575,1,2,0:0:0:0:
115,347,88747,6,0,L|264:356,1,143.999995605469,4|8,0:2|0:0,0:0:0:0:
354,333,89265,1,0,0:0:0:0:
354,333,89437,2,0,L|205:342,1,143.999995605469,0|8,0:0|0:0,0:0:0:0:
142,270,89954,1,0,0:0:0:0:
142,270,90127,6,0,B|176:256|176:256|215:138,1,143.999995605469,2|8,0:0|0:0,0:0:0:0:
280,214,90643,1,0,0:0:0:0:
280,214,90816,2,0,B|246:200|246:200|207:82,1,143.999995605469,0|8,0:0|0:0,0:0:0:0:
186,7,91334,1,0,0:0:0:0:
275,34,91506,6,0,B|342:69|349:18|438:67,1,143.999995605469,2|8,0:0|0:0,0:0:0:0:
470,131,92023,1,0,0:0:0:0:
470,131,92196,2,0,B|403:166|396:115|307:164,1,143.999995605469,0|8,0:0|0:0,0:0:0:0:
272,226,92713,1,0,0:0:0:0:
272,226,92885,6,0,P|238:198|118:182,1,143.999995605469,2|8,0:0|0:0,0:0:0:0:
51,202,93403,1,0,0:0:0:0:
51,202,93575,2,0,P|89:178|136:76,1,143.999995605469,0|8,0:0|0:0,0:0:0:0:
60,35,94092,1,0,0:0:0:0:
134,92,94265,6,0,L|284:78,1,143.999995605469,2|8,0:0|0:0,0:0:0:0:
328,157,94782,1,0,0:0:0:0:
328,157,94954,2,0,L|178:143,1,143.999995605469,0|8,0:0|0:0,0:0:0:0:
131,221,95472,1,0,0:0:0:0:
131,221,95644,6,0,B|204:225|204:225|281:207,1,143.999995605469,2|8,0:0|0:0,0:0:0:0:
330,283,96161,1,0,0:0:0:0:
330,283,96333,2,0,B|257:287|257:287|180:269,1,143.999995605469,0|8,0:0|0:0,0:0:0:0:
103,312,96851,1,0,0:0:0:0:
13,337,97023,6,0,P|26:291|22:168,1,143.999995605469,2|8,0:0|0:0,0:0:0:0:
62,108,97540,1,0,0:0:0:0:
62,108,97713,2,0,P|60:179|76:249,1,143.999995605469,0|8,0:0|0:0,0:0:0:0:
140,318,98230,1,2,0:0:0:0:
140,318,98403,6,0,B|133:266|133:266|158:160,1,143.999995605469,2|8,0:0|0:0,0:0:0:0:
194,92,98920,1,0,0:0:0:0:
194,92,99092,2,0,B|187:144|187:144|212:250,1,143.999995605469,0|8,0:0|0:0,0:0:0:0:
244,319,99609,1,2,0:0:0:0:
208,233,99782,6,0,P|161:228|53:248,1,143.999995605469,4|8,0:2|0:0,0:0:0:0:
136,181,100299,1,0,0:0:0:0:
220,136,100472,2,0,P|267:131|375:151,1,143.999995605469,0|8,0:0|0:0,0:0:0:0:
289,86,100989,1,0,0:0:0:0:
206,41,101161,6,0,L|55:56,1,143.999995605469,2|8,0:0|0:0,0:0:0:0:
145,100,101678,1,0,0:0:0:0:
232,134,101851,2,0,L|226:42,2,71.9999978027344,0|2|8,0:0|0:0|0:0,0:0:0:0:
232,134,102540,6,0,L|220:282,1,143.999995605469,2|8,0:0|0:0,0:0:0:0:
142,331,103058,1,0,0:0:0:0:
230,300,103230,2,0,L|400:314,1,143.999995605469,0|8,0:0|0:0,0:0:0:0:
453,360,103747,1,0,0:0:0:0:
391,288,103920,6,0,B|383:217|383:217|399:128,1,143.999995605469,2|8,0:0|0:0,0:0:0:0:
418,54,104437,1,0,0:0:0:0:
329,82,104609,1,0,0:0:0:0:
243,43,104782,1,2,0:0:0:0:
243,43,104954,2,0,L|223:134,1,71.9999978027344,8|2,0:0|0:0,0:0:0:0:
189,199,105299,6,0,L|167:43,1,143.999995605469,2|8,0:0|0:0,0:0:0:0:
132,143,105816,1,0,0:0:0:0:
99,231,105989,2,0,L|119:373,1,143.999995605469,0|8,0:0|0:0,0:0:0:0:
161,289,106506,1,0,0:0:0:0:
204,206,106678,6,0,P|256:190|368:219,1,143.999995605469,2|8,0:0|0:0,0:0:0:0:
413,267,107196,1,0,0:0:0:0:
479,332,107368,2,0,P|496:299|496:257,2,71.9999978027344,0|2|8,0:0|0:0|0:0,0:0:0:0:
479,332,108058,6,0,B|442:322|442:322|378:341|378:341|327:329,1,143.999995605469,2|8,0:0|0:0,0:0:0:0:
255,291,108575,1,0,0:0:0:0:
255,291,108747,2,0,B|292:281|292:281|356:300|356:300|407:288,1,143.999995605469,0|8,0:0|0:0,0:0:0:0:
477,246,109265,1,0,0:0:0:0:
392,205,109437,6,0,B|356:215|356:215|245:181,1,143.999995605469,2|8,0:0|0:0,0:0:0:0:
252,89,109954,1,0,0:0:0:0:
252,89,110127,2,0,L|342:121,1,71.9999978027344,0|2,0:0|0:0,0:0:0:0:
408,83,110472,1,8,0:0:0:0:
251,185,110816,5,4,0:2:0:0:
