osu file format v14

[General]
AudioFilename: audio.mp3
AudioLeadIn: 0
PreviewTime: 66576
Countdown: 0
SampleSet: Soft
StackLeniency: 0.7
Mode: 0
LetterboxInBreaks: 0
EpilepsyWarning: 1
WidescreenStoryboard: 1

[Editor]
Bookmarks: 455,11490,22524,33558,44593,55627,61145,66662,77696,88731,99765,110800
DistanceSpacing: 0.28
BeatDivisor: 4
GridSize: 4
TimelineZoom: 1

[Metadata]
Title:On My Own
TitleUnicode:On My Own
Artist:Panda Eyes
ArtistUnicode:Panda Eyes
Creator:Plaudible
Version:Hobbes2's Light Insane
Source:
Tags:dnb drum and bass cut short ver yamicchi hobbes2 hokichi mrsergio
BeatmapID:1074249
BeatmapSetID:504958

[Difficulty]
HPDrainRate:6
CircleSize:4
OverallDifficulty:7
ApproachRate:8.6
SliderMultiplier:1.6
SliderTickRate:1

[Events]
//Background and Video events
0,0,"bg.jpg",0,0
//Break Periods
2,33774,43950
//Storyboard Layer 0 (Background)
//Storyboard Layer 1 (Fail)
//Storyboard Layer 2 (Pass)
//Storyboard Layer 3 (Foreground)
Sprite,Foreground,Centre,"SB\cre\hob.png",320,240 S,0,39075,,0.5 C,0,39075,,255,150,100 P,0,39075,,A F,0,39075,39284,0,1 MX,0,39075,39284,200,300 MX,0,39284,41834,300,340 F,0,41834,42006,1,0 MX,0,41834,42006,340,440
//Storyboard Sound Samples

[TimingPoints]
498,344.827586206897,4,2,1,25,1,0
498,-153.846153846153,4,2,1,25,0,0
11506,344.827586206897,4,2,1,75,1,0
11506,-111.111111111111,4,2,1,75,0,0
33574,-133.333333333333,4,2,1,75,0,0
63919,-133.333333333333,4,1,1,50,0,0
64092,-133.333333333333,4,1,1,60,0,0
64264,-133.333333333333,4,1,1,70,0,0
64437,-133.333333333333,4,1,1,80,0,0
64609,-133.333333333333,4,1,1,90,0,0
64954,-133.333333333333,4,1,1,100,0,0
65988,-153.846153846154,4,2,1,75,0,0
66678,-100,4,1,1,100,0,1
88402,-100,4,1,1,100,0,0
88747,-100,4,1,1,100,0,1
110816,-100,4,1,1,100,0,0

[Colours]
Combo1 : 224,193,255
Combo2 : 255,150,100
Combo3 : 0,255,255

[HitObjects]
112,192,498,6,0,B|256:120|256:264|424:192,1,311.999985717774,4|2,0:1|0:3,0:0:0:0:
256,48,3256,2,0,B|328:192|184:192|256:360,1,311.999985717774,4|2,0:1|0:3,0:0:0:0:
256,100,6015,6,0,P|180:160|320:192,1,311.999985717774,4|2,0:1|0:3,0:0:0:0:
256,100,8773,2,0,P|332:160|192:192,1,311.999985717774,4|2,0:1|0:3,0:0:0:0:
84,256,11506,6,0,P|109:231|128:201,1,71.9999978027344,6|0,0:1|0:1,0:1:0:0:
108,96,11851,1,8,0:1:0:0:
196,132,12023,1,0,0:1:0:0:
196,132,12109,1,0,0:1:0:0:
196,132,12196,1,0,0:1:0:0:
128,200,12368,1,2,0:1:0:0:
256,188,12540,2,0,P|276:148|272:108,1,71.9999978027344,8|0,0:1|0:1,0:1:0:0:
188,256,12885,6,0,P|260:284|330:249,1,143.999995605469,2|8,0:1|0:1,0:1:0:0:
382,191,13403,1,0,0:1:0:0:
384,180,13489,1,0,0:1:0:0:
386,169,13575,2,0,L|394:121,2,35.9999989013672,0|0|2,0:1|0:1|0:1,0:1:0:0:
323,42,13920,2,0,L|313:113,1,71.9999978027344,8|0,0:1|0:1,0:1:0:0:
401,235,14265,6,0,P|393:177|348:152,1,71.9999978027344,2|0,0:1|0:1,0:1:0:0:
277,209,14609,1,8,0:1:0:0:
322,296,14782,1,0,0:1:0:0:
322,296,14868,1,0,0:1:0:0:
322,296,14954,1,0,0:1:0:0:
234,329,15127,1,2,0:1:0:0:
197,187,15299,2,0,P|228:142|260:128,1,71.9999978027344,8|0,0:1|0:1,0:1:0:0:
234,329,15644,5,2,0:1:0:0:
334,116,15989,1,8,0:1:0:0:
380,196,16161,1,0,0:1:0:0:
381,206,16247,1,0,0:1:0:0:
383,216,16334,1,0,0:1:0:0:
386,226,16420,1,0,0:1:0:0:
390,235,16506,1,2,0:1:0:0:
450,300,16678,2,0,P|414:340|374:364,1,71.9999978027344,8|0,0:1|0:0,0:0:0:0:
469,214,17023,6,0,P|481:143|464:74,1,143.999995605469,2|8,0:1|0:1,0:1:0:0:
337,86,17540,1,0,0:0:0:0:
332,95,17626,1,0,0:0:0:0:
329,106,17712,1,0,0:0:0:0:
481,143,17885,2,0,P|479:179|469:214,2,71.9999978027344,2|8|0,0:1|0:1|0:1,0:1:0:0:
329,106,18403,6,0,P|354:131|384:151,1,71.9999978027344,2|0,0:1|0:1,0:1:0:0:
284,16,18747,1,8,0:1:0:0:
226,98,18920,1,0,0:1:0:0:
228,108,19006,1,0,0:1:0:0:
231,118,19092,1,0,0:1:0:0:
235,127,19178,1,0,0:1:0:0:
239,136,19265,2,0,P|251:169|272:198,2,71.9999978027344,2|8|0,0:1|0:1|0:1,0:1:0:0:
369,193,19782,6,0,P|358:246|256:293,1,143.999995605469,2|8,0:1|0:1,0:1:0:0:
197,275,20299,1,0,0:0:0:0:
197,275,20385,1,0,0:0:0:0:
197,275,20472,2,0,P|201:333|234:366,1,71.9999978027344,0|2,0:1|0:1,0:1:0:0:
169,170,20816,1,8,0:1:0:0:
272,198,20989,1,0,0:1:0:0:
197,275,21161,6,0,P|137:275|67:208,1,143.999995605469,2|8,0:1|0:1,0:1:0:0:
151,161,21678,1,0,0:1:0:0:
161,165,21765,1,0,0:1:0:0:
169,170,21851,2,0,P|201:190|204:196,2,35.9999989013672,0|0|2,0:1|0:1|0:1,0:1:0:0:
197,275,22196,2,0,P|249:262|279:228,1,71.9999978027344,8|0,0:1|0:1,0:1:0:0:
340,164,22540,5,6,0:1:0:0:
395,88,22713,1,0,0:1:0:0:
497,121,22885,1,8,0:1:0:0:
442,196,23058,1,0,0:1:0:0:
442,196,23143,1,0,0:0:0:0:
442,196,23230,2,0,P|449:246|465:270,1,71.9999978027344,0|0,0:1|0:1,0:1:0:0:
340,164,23574,2,0,P|355:131|357:96,1,71.9999978027344,8|2,0:1|0:1,0:1:0:0:
289,246,23920,5,2,0:1:0:0:
318,334,24092,1,0,0:1:0:0:
261,241,24265,1,8,0:1:0:0:
290,329,24437,1,0,0:1:0:0:
233,236,24609,2,0,P|188:223|157:229,1,71.9999978027344,0|2,0:1|0:1,0:1:0:0:
346,339,24954,2,0,P|391:352|422:346,1,71.9999978027344,8|0,0:1|0:1,0:1:0:0:
389,139,25299,6,0,P|332:180|313:252,1,143.999995605469,2|8,0:1|0:1,0:1:0:0:
436,247,25816,1,0,0:1:0:0:
436,247,25902,1,0,0:0:0:0:
436,247,25988,2,0,P|493:241|520:220,1,71.9999978027344,0|0,0:1|0:1,0:1:0:0:
500,60,26333,2,0,L|512:144,1,71.9999978027344,8|0,0:1|0:0,0:0:0:0:
389,139,26678,5,2,0:1:0:0:
352,225,26851,1,0,0:1:0:0:
473,333,27023,1,8,0:1:0:0:
436,247,27196,1,0,0:1:0:0:
353,348,27368,2,0,P|291:355|259:342,1,71.9999978027344,0|2,0:1|0:1,0:1:0:0:
136,370,27712,2,0,P|198:363|230:376,1,71.9999978027344,8|0,0:1|0:1,0:1:0:0:
208,209,28058,6,0,P|185:256|264:265,1,143.999995605469,2|8,0:1|0:1,0:1:0:0:
266,108,28575,1,0,0:0:0:0:
273,129,28661,1,0,0:0:0:0:
280,149,28747,1,0,0:0:0:0:
287,170,28833,1,0,0:0:0:0:
294,190,28919,1,0,0:0:0:0:
353,90,29092,2,0,P|397:69|429:68,1,71.9999978027344,8|0,0:1|0:1,0:1:0:0:
353,250,29437,6,0,P|309:271|277:272,1,71.9999978027344,2|0,0:1|0:1,0:1:0:0:
267,109,29782,1,8,0:1:0:0:
295,191,29954,1,0,0:1:0:0:
194,171,30127,1,0,0:1:0:0:
194,171,30213,1,0,0:1:0:0:
194,171,30299,1,2,0:1:0:0:
353,250,30472,2,0,P|309:271|277:272,1,71.9999978027344,8|0,0:1|0:1,0:1:0:0:
138,235,30816,6,0,P|108:182|137:107,1,143.999995605469,2|8,0:1|0:1,0:1:0:0:
275,153,31333,1,0,0:0:0:0:
256,164,31419,1,0,0:0:0:0:
236,171,31506,1,0,0:0:0:0:
214,173,31591,1,0,0:0:0:0:
193,170,31678,1,0,0:0:0:0:
188,44,31850,2,0,B|234:27|276:30,1,71.9999978027344,8|0,0:1|0:1,0:1:0:0:
22,46,32196,6,0,L|22:131,1,71.9999978027344,2|0,0:1|0:1,0:1:0:0:
28,225,32540,1,8,0:1:0:0:
108,172,32713,1,0,0:1:0:0:
118,168,32799,1,0,0:1:0:0:
128,166,32885,2,0,P|159:162|178:164,2,35.9999989013672,0|0|2,0:1|0:1|0:1,0:1:0:0:
123,284,33230,1,8,0:1:0:0:
123,284,33574,5,4,0:1:0:0:
282,201,44609,6,0,L|273:261,1,60.0000022888184,4|0,0:0|0:0,0:0:0:0:
366,305,44954,2,0,L|366:233,1,60.0000022888184
450,201,45299,2,0,L|459:261,1,60.0000022888184,2|0,0:0|0:0,0:0:0:0:
368,156,45644,1,0,0:0:0:0:
366,245,45816,1,0,0:0:0:0:
282,201,45989,6,0,P|254:145|258:125,1,60.0000022888184,2|0,0:0|0:0,0:0:0:0:
340,105,46334,2,0,P|368:161|364:181,1,60.0000022888184
284,288,46678,2,0,B|196:376|196:376|212:320,1,180.000006866455,2|0,0:0|0:0,0:0:0:0:
368,316,47368,6,0,L|320:364,1,60.0000022888184,4|0,0:0|0:0,0:0:0:0:
336,226,47712,2,0,L|379:184,1,60.0000022888184
250,204,48058,2,0,L|207:246,1,60.0000022888184,2|0,0:0|0:0,0:0:0:0:
337,227,48403,1,0,0:0:0:0:
310,142,48575,1,0,0:0:0:0:
137,211,48747,6,0,P|131:268|139:286,1,60.0000022888184,2|0,0:0|0:0,0:0:0:0:
250,204,49092,2,0,P|203:170|184:168,1,60.0000022888184
78,334,49437,2,0,P|163:346|214:277,1,180.000006866455,2|0,0:0|0:0,0:0:0:0:
137,211,50127,6,0,P|131:268|139:286,1,60.0000022888184,4|0,0:0|0:0,0:0:0:0:
218,169,50472,1,0,0:0:0:0:
139,125,50644,1,0,0:0:0:0:
131,269,50816,1,2,0:0:0:0:
212,77,51161,1,0,0:0:0:0:
139,125,51334,1,0,0:0:0:0:
290,103,51506,6,0,P|292:55|282:29,1,60.0000022888184,2|0,0:0|0:0,0:0:0:0:
218,169,51851,2,0,P|216:217|226:243,1,60.0000022888184
123,304,52196,2,0,L|139:113,1,180.000006866455,2|0,0:0|0:0,0:0:0:0:
77,7,52885,6,0,P|82:52|103:76,1,60.0000022888184,4|0,0:0|0:0,0:0:0:0:
222,69,53230,2,0,P|180:50|149:57,1,60.0000022888184
47,179,53575,1,2,0:0:0:0:
138,124,53747,1,0,0:0:0:0:
36,25,53920,2,0,P|41:70|62:94,1,60.0000022888184
150,180,54265,6,0,P|145:135|124:111,1,60.0000022888184,2|0,0:0|0:0,0:0:0:0:
47,179,54609,2,0,P|34:205|34:235,1,60.0000022888184
132,370,54954,2,0,P|169:350|110:262,1,180.000006866455,2|0,0:0|0:0,0:0:0:0:
232,224,55644,6,0,L|276:176,1,60.0000022888184,4|0,0:0|0:0,0:0:0:0:
216,72,55989,2,0,L|204:136,1,60.0000022888184
292,104,56334,2,0,L|332:59,1,60.0000022888184
231,223,56678,2,0,L|221:282,1,60.0000022888184,4|0,0:0|0:0,0:0:0:0:
300,328,57023,5,0,0:0:0:0:
300,328,57196,1,0,0:0:0:0:
391,357,57368,1,0,0:0:0:0:
391,357,57540,1,0,0:0:0:0:
452,240,57713,2,0,P|468:192|456:120,1,120.000004577637,4|0,0:0|0:0,0:0:0:0:
412,48,58230,1,0,0:0:0:0:
300,130,58403,6,0,L|360:124,1,60.0000022888184,4|0,0:0|0:0,0:0:0:0:
324,40,58747,2,0,L|264:46,1,60.0000022888184
188,32,59092,1,0,0:0:0:0:
116,68,59265,1,0,0:0:0:0:
112,180,59437,1,4,0:0:0:0:
184,144,59610,1,0,0:0:0:0:
44,140,59782,6,0,P|32:192|40:216,1,60.0000022888184
102,316,60127,2,0,P|102:286|90:258,1,60.0000022888184
184,144,60472,2,0,L|188:284,1,120.000004577637,4|0,0:0|0:0,0:0:0:0:
102,316,60989,1,0,0:0:0:0:
248,312,61161,5,4,0:0:0:0:
256,320,61334,1,2,0:0:0:0:
264,328,61506,2,2,P|312:344|344:340,1,60.0000022888184
312,240,61851,1,2,0:0:0:0:
304,232,62024,1,2,0:0:0:0:
296,224,62196,2,2,P|248:208|216:212,1,60.0000022888184
160,248,62540,5,6,0:0:0:0:
152,256,62713,1,2,0:0:0:0:
144,264,62885,2,2,L|108:344,1,60.0000022888184
120,172,63230,1,2,0:0:0:0:
128,164,63403,1,2,0:0:0:0:
136,156,63575,2,2,L|172:76,1,60.0000022888184
288,64,63920,6,0,P|248:116|240:120,1,60.0000022888184,8|0,0:0|0:0,0:0:0:0:
140,16,64265,2,0,P|205:24|212:29,1,60.0000022888184,8|0,0:0|0:0,0:0:0:0:
136,156,64609,1,8,0:0:0:0:
40,104,64782,1,0,0:0:0:0:
88,232,64954,1,8,0:0:0:0:
30,96,65127,1,0,0:0:0:0:
140,68,65299,5,8,0:0:0:0:
169,72,65385,1,0,0:0:0:0:
195,87,65471,1,0,0:0:0:0:
214,110,65557,1,0,0:0:0:0:
223,138,65644,2,0,P|231:159|231:191,3,30.0000011444092,8|0|0|0,0:0|0:0|0:0|0:0,0:0:0:0:
252,208,65989,6,0,L|316:208,3,51.999997619629,8|2|2|2,0:1|0:0|0:0|0:0,0:0:0:0:
408,208,66678,6,0,P|448:176|464:128,1,80,6|0,0:0|0:0,0:0:0:0:
432,8,67023,1,8,0:0:0:0:
356,80,67196,1,0,0:0:0:0:
268,24,67368,2,0,P|200:32|140:112,1,160,0|8,0:0|0:0,0:0:0:0:
128,204,67885,1,0,0:0:0:0:
252,248,68058,6,0,P|264:196|256:156,1,80,2|0,0:0|0:0,0:0:0:0:
128,204,68403,2,0,P|116:256|124:296,2,80,8|0|0,0:0|0:0|0:0,0:0:0:0:
188,120,68920,1,2,0:0:0:0:
252,248,69092,1,8,0:0:0:0:
192,332,69265,1,0,0:0:0:0:
320,332,69437,6,0,P|359:336|397:323,1,80,2|0,0:0|0:0,0:0:0:0:
284,177,69782,2,0,P|260:208|252:247,2,80,8|0|0,0:0|0:0|0:0,0:0:0:0:
384,204,70299,1,2,0:0:0:0:
276,84,70472,1,8,0:0:0:0:
377,111,70644,1,0,0:0:0:0:
198,143,70816,6,0,P|160:175|147:220,1,80,2|0,0:0|0:0,0:0:0:0:
259,299,71161,1,8,0:0:0:0:
229,222,71333,1,0,0:0:0:0:
60,312,71506,2,0,P|127:339|164:276,1,160,0|8,0:0|0:0,0:0:0:0:
127,177,72023,1,0,0:0:0:0:
271,185,72196,6,0,L|366:188,1,80,2|0,0:0|0:0,0:0:0:0:
408,92,72540,1,8,0:0:0:0:
271,185,72712,1,0,0:0:0:0:
432,177,72885,1,0,0:0:0:0:
442,186,73230,2,0,P|445:231|431:271,1,80,8|0,0:0|0:0,0:0:0:0:
289,249,73575,5,2,0:0:0:0:
353,330,73747,1,0,0:0:0:0:
289,249,73920,1,8,0:0:0:0:
353,330,74092,1,0,0:0:0:0:
324,171,74265,1,0,0:0:0:0:
324,171,74437,2,0,P|313:111|323:75,2,80,2|8|0,0:0|0:0|0:0,0:0:0:0:
475,256,74954,5,2,0:0:0:0:
359,340,75127,1,0,0:0:0:0:
403,205,75299,1,8,0:0:0:0:
447,340,75472,1,0,0:0:0:0:
332,256,75644,1,0,0:0:0:0:
331,255,75816,2,0,P|295:240|268:211,2,80,2|8|0,0:0|0:0|0:0,0:0:0:0:
239,124,76334,6,0,P|197:150|175:196,1,80,2|0,0:0|0:0,0:0:0:0:
147,308,76678,2,0,P|189:282|211:236,1,80,8|0,0:0|0:0,0:0:0:0:
78,70,77023,2,0,L|107:236,1,160,0|8,0:0|0:0,0:0:0:0:
204,256,77540,1,0,0:0:0:0:
180,128,77713,5,6,0:0:0:0:
105,227,77885,1,0,0:0:0:0:
280,164,78057,1,8,0:0:0:0:
180,128,78230,1,0,0:0:0:0:
204,256,78403,1,0,0:0:0:0:
204,256,78747,2,0,P|223:297|263:316,1,80,8|0,0:0|0:0,0:0:0:0:
362,235,79092,5,2,0:0:0:0:
397,333,79265,1,0,0:0:0:0:
480,162,79437,1,8,0:0:0:0:
445,260,79610,1,0,0:0:0:0:
313,152,79782,2,0,P|267:221|290:299,1,160,0|8,0:0|0:0,0:0:0:0:
179,286,80299,1,0,0:0:0:0:
179,286,80472,5,2,0:0:0:0:
80,319,80644,1,0,0:0:0:0:
127,195,80816,1,8,0:0:0:0:
226,162,80988,1,0,0:0:0:0:
394,249,81161,2,0,B|342:314|342:314|251:345,1,160,0|8,0:0|0:0,0:0:0:0:
179,286,81678,1,0,0:0:0:0:
179,286,81851,5,2,0:0:0:0:
218,189,82023,1,0,0:0:0:0:
341,347,82196,1,8,0:0:0:0:
300,251,82368,1,0,0:0:0:0:
474,182,82540,2,0,P|476:272|416:332,1,160,0|8,0:0|0:0,0:0:0:0:
341,347,83058,1,0,0:0:0:0:
218,189,83230,6,0,P|214:141|230:92,1,80,2|0,0:0|0:0,0:0:0:0:
377,33,83575,2,0,P|381:81|365:130,1,80,8|0,0:0|0:0,0:0:0:0:
300,251,83920,1,0,0:0:0:0:
300,251,84265,1,8,0:0:0:0:
182,333,84437,1,0,0:0:0:0:
108,259,84609,6,0,P|94:208|102:168,1,80,2|0,0:0|0:0,0:0:0:0:
225,84,84954,2,0,P|227:123|214:161,2,80,8|0|0,0:0|0:0|0:0,0:0:0:0:
135,29,85471,1,2,0:0:0:0:
321,22,85644,1,8,0:0:0:0:
225,84,85816,1,0,0:0:0:0:
411,77,85988,6,0,P|456:38|466:8,1,80,2|0,0:0|0:0,0:0:0:0:
281,163,86334,2,0,L|275:262,2,80,8|0|0,0:0|0:0|0:0,0:0:0:0:
226,52,86851,1,2,0:0:0:0:
184,202,87023,1,8,0:0:0:0:
142,97,87196,1,0,0:0:0:0:
100,247,87368,6,0,L|94:337,1,80,2|0,0:0|0:0,0:0:0:0:
202,377,87713,2,0,L|196:297,1,80,8|0,0:0|0:0,0:0:0:0:
302,106,88057,2,2,L|290:273,1,160,0|2,0:0|0:0,1:0:0:0:
291,266,88574,1,0,0:0:0:0:
298,274,88747,6,0,B|173:306|173:306|191:284|235:262,1,160,6|8,0:0|0:0,0:0:0:0:
277,178,89265,1,0,0:0:0:0:
366,80,89437,2,0,B|371:81|389:59|389:59|264:91,1,160,0|8,0:0|0:0,0:0:0:0:
277,178,89955,1,0,0:0:0:0:
356,284,90127,6,0,P|404:208|392:112,1,160,2|8,0:0|0:0,0:0:0:0:
277,178,90643,1,0,0:0:0:0:
150,215,90816,2,0,P|153:136|198:72,1,160,0|8,0:0|0:0,0:0:0:0:
277,178,91333,1,0,0:0:0:0:
356,284,91506,6,0,B|361:298|384:310|384:310|327:310|266:287,1,160,2|8,0:0|0:0,0:0:0:0:
176,192,92023,1,0,0:0:0:0:
200,64,92195,2,0,B|261:41|318:41|318:41|295:53|290:68,1,160,0|8,0:0|0:0,0:0:0:0:
367,172,92712,1,2,0:0:0:0:
508,168,92885,6,0,P|412:200|360:164,1,160,2|8,0:0|0:0,0:0:0:0:
256,56,93403,1,0,0:0:0:0:
144,172,93575,2,0,P|73:202|4:168,1,160,0|8,0:0|0:0,0:0:0:0:
144,172,94092,1,0,0:0:0:0:
256,56,94265,6,0,L|424:56,1,160,2|8,0:0|0:0,0:0:0:0:
476,188,94782,1,0,0:0:0:0:
416,328,94954,2,0,L|256:328,1,160,0|8,0:0|0:0,0:0:0:0:
416,328,95472,1,0,0:0:0:0:
336,208,95644,6,0,B|304:128|364:128|336:52,1,160,2|8,0:0|0:0,0:0:0:0:
200,4,96161,1,0,0:0:0:0:
64,52,96334,2,0,B|36:128|96:128|64:208,1,160,0|8,0:0|0:0,0:0:0:0:
64,52,96851,1,0,0:0:0:0:
160,156,97023,6,0,P|176:216|232:152,1,160,2|8,0:0|0:0,0:0:0:0:
300,44,97540,1,0,0:0:0:0:
433,103,97713,2,0,P|476:157|412:184,1,160,0|8,0:0|0:0,0:0:0:0:
300,44,98230,1,0,0:0:0:0:
188,136,98403,6,0,P|180:196|192:276,1,120,2|0,0:0|0:0,0:0:0:0:
192,296,98747,2,0,P|240:296|280:288,1,80,8|0,0:0|0:0,0:0:0:0:
104,208,99092,2,0,P|56:208|16:216,1,80,0|2,0:0|0:0,0:0:0:0:
192,120,99437,2,0,P|240:120|280:128,1,80,8|0,0:0|0:0,0:0:0:0:
364,304,99782,6,0,P|312:252|316:200,1,120,6|0,0:0|0:0,0:0:0:0:
312,209,100127,1,8,0:0:0:0:
192,296,100299,1,0,0:0:0:0:
100,220,100472,2,0,P|100:156|116:124,1,80,0|2,0:0|0:0,0:0:0:0:
264,252,100816,2,0,P|273:290|269:330,1,80,8|0,0:0|0:0,0:0:0:0:
344,220,101161,6,0,L|472:220,1,120,2|0,0:0|0:0,0:0:0:0:
464,220,101506,1,8,0:0:0:0:
372,332,101678,1,0,0:0:0:0:
344,220,101851,2,0,P|336:148|352:112,1,80,0|2,0:0|0:0,0:0:0:0:
468,224,102196,1,8,0:0:0:0:
236,100,102540,6,0,P|264:52|352:60,1,120,2|0,0:0|0:0,0:0:0:0:
323,42,102885,1,8,0:0:0:0:
423,116,103058,1,0,0:0:0:0:
360,196,103230,2,0,L|356:288,1,80,0|2,0:0|0:0,0:0:0:0:
268,328,103575,2,0,L|264:248,1,80,8|0,0:0|0:0,0:0:0:0:
96,158,103920,6,0,P|132:210|188:234,1,120,2|0,0:0|0:0,0:0:0:0:
182,233,104265,1,8,0:0:0:0:
232,144,104437,1,0,0:0:0:0:
160,8,104609,2,0,P|156:56|160:92,1,80
352,56,104954,1,0,0:0:0:0:
352,56,105126,1,2,0:0:0:0:
352,56,105299,6,0,P|376:104|380:180,1,120,2|0,0:0|0:0,0:0:0:0:
381,169,105644,1,8,0:0:0:0:
484,152,105816,1,0,0:0:0:0:
320,232,105989,1,0,0:0:0:0:
422,250,106161,1,2,0:0:0:0:
258,294,106334,1,8,0:0:0:0:
347,346,106506,1,0,0:0:0:0:
196,356,106678,6,0,P|172:292|208:224,1,120,2|0,0:0|0:0,0:0:0:0:
187,245,107023,1,8,0:0:0:0:
84,244,107196,1,0,0:0:0:0:
256,184,107368,1,0,0:0:0:0:
156,155,107541,1,2,0:0:0:0:
324,122,107713,1,8,0:0:0:0:
324,122,108058,6,0,P|392:106|444:122,1,120,2|0,0:0|0:0,0:0:0:0:
438,120,108403,2,0,P|443:47|447:35,1,80,8|0,0:0|0:0,0:0:0:0:
316,206,108747,2,0,P|322:128|326:116,1,80,0|2,0:0|0:0,0:0:0:0:
194,292,109092,2,0,P|200:214|204:202,1,80,8|0,0:0|0:0,0:0:0:0:
132,124,109437,6,0,P|116:50|75:28,1,120,2|0,0:0|0:0,0:0:0:0:
82,29,109782,2,0,L|-20:30,1,80,8|0,0:0|0:0,0:0:0:0:
132,124,110127,2,0,L|234:123,1,80,0|2,0:0|0:0,0:0:0:0:
81,219,110472,1,8,0:0:0:0:
81,219,110816,5,4,0:0:0:0:
