osu file format v14

[General]
AudioFilename: audio.mp3
AudioLeadIn: 0
PreviewTime: 66576
Countdown: 0
SampleSet: Normal
StackLeniency: 0.7
Mode: 0
LetterboxInBreaks: 0
EpilepsyWarning: 1
WidescreenStoryboard: 1

[Editor]
Bookmarks: 455,11490,22524,33558,44593,55627,61145,66662,77696,88731,99765,110800
DistanceSpacing: 1.1
BeatDivisor: 4
GridSize: 4
TimelineZoom: 1

[Metadata]
Title:On My Own
TitleUnicode:On My Own
Artist:Panda Eyes
ArtistUnicode:Panda Eyes
Creator:Plaudible
Version:Easy
Source:
Tags:dnb drum and bass cut short ver yamicchi hobbes2 hokichi mrsergio
BeatmapID:1074247
BeatmapSetID:504958

[Difficulty]
HPDrainRate:3
CircleSize:3
OverallDifficulty:3
ApproachRate:3
SliderMultiplier:1
SliderTickRate:1

[Events]
//Background and Video events
0,0,"bg.jpg",0,0
//Break Periods
2,33774,43169
//Storyboard Layer 0 (Background)
//Storyboard Layer 1 (Fail)
//Storyboard Layer 2 (Pass)
//Storyboard Layer 3 (Foreground)
Sprite,Foreground,Centre,"SB\cre\plau.png",320,240 S,0,39075,,0.5 C,0,39075,,255,150,100 P,0,39075,,A F,0,39075,39284,0,1 MX,0,39075,39284,200,300 MX,0,39284,41834,300,340 F,0,41834,42006,1,0 MX,0,41834,42006,340,440
//Storyboard Sound Samples

[TimingPoints]
498,344.827586206897,4,2,1,25,1,0
498,-133.333333333333,4,2,1,25,0,0
11506,344.827586206897,4,2,1,75,1,0
11506,-133.333333333333,4,2,1,75,0,0
33574,-133.333333333333,4,2,1,50,0,0
44609,-133.333333333333,4,2,1,75,0,0
66678,-133.333333333333,4,1,1,100,0,1
88402,-133.333333333333,4,1,1,100,0,0
88747,-133.333333333333,4,1,1,100,0,1
110816,-133.333333333333,4,1,1,100,0,0

[Colours]
Combo1 : 224,193,255
Combo2 : 255,150,100
Combo3 : 0,255,255

[HitObjects]
176,64,498,6,0,B|208:128|192:208|192:208|152:192|112:208,1,225.000008583069,4|2,0:1|0:3,0:1:0:0:
96,128,3256,6,0,P|32:192|112:288,1,225.000008583069,4|2,0:1|0:3,0:1:0:0:
116,206,6015,6,0,B|164:222|212:206|212:206|236:214|236:214|292:198|340:214,1,225.000008583069,4|2,0:1|0:3,0:1:0:0:
296,304,8773,6,0,B|256:336|192:336|152:304|152:304|112:320|75:300,1,225.000008583069,4|2,0:1|0:3,0:1:0:0:
112,224,11506,5,6,0:1:0:0:
175,171,11851,2,0,P|215:155|255:163,1,75.0000028610231,8|0,0:1|0:1,0:1:0:0:
325,181,12540,2,0,P|361:184|395:169,1,75.0000028610231,8|2,0:1|0:1,0:1:0:0:
449,105,13230,1,8,0:1:0:0:
477,181,13575,2,0,L|485:269,1,75.0000028610231,0|8,0:1|0:1,0:1:0:0:
453,333,14264,5,2,0:1:0:0:
376,302,14609,2,0,P|352:294|296:302,1,75.0000028610231,8|0,0:1|0:1,0:1:0:0:
228,335,15299,2,0,P|168:359|112:295,1,150.000005722046,8|8,0:1|0:1,0:1:0:0:
86,226,16334,2,0,L|64:152,1,75.0000028610231,0|8,0:1|0:1,0:1:0:0:
35,77,17023,5,0,0:1:0:0:
116,87,17368,2,0,P|164:91|192:83,1,75.0000028610231,8|0,0:1|0:1,0:1:0:0:
275,67,18058,2,0,P|351:135|343:191,1,150.000005722046,8|8,0:1|0:1,0:1:0:0:
313,249,19092,2,0,P|333:301|361:321,1,75.0000028610231,0|8,0:1|0:1,0:1:0:0:
393,245,19782,5,0,0:1:0:0:
349,175,20127,2,0,P|313:155|265:159,1,75.0000028610231,8|0,0:1|0:1,0:1:0:0:
234,223,20816,1,8,0:1:0:0:
188,291,21161,2,0,P|164:267|152:211,1,75.0000028610231,2|8,0:1|0:1,0:1:0:0:
151,145,21851,2,0,P|157:108|179:78,1,75.0000028610231,0|8,0:1|0:1,0:1:0:0:
260,88,22540,6,0,L|324:144,1,75.0000028610231,4|8,0:1|0:1,0:1:0:0:
357,209,23230,1,0,0:1:0:0:
391,284,23575,2,0,L|447:336,2,75.0000028610231,8|2|8,0:1|0:1|0:1,0:1:0:0:
357,209,24609,2,0,P|337:141|341:125,1,75.0000028610231,0|8,0:1|0:1,0:1:0:0:
358,59,25299,6,0,L|278:87,1,75.0000028610231,2|8,0:1|0:1,0:1:0:0:
210,115,25989,1,0,0:1:0:0:
152,55,26334,2,0,P|128:131|172:191,1,150.000005722046,8|8,0:1|0:1,0:1:0:0:
243,207,27368,2,0,P|267:231|283:279,1,75.0000028610231,0|8,0:1|0:1,0:1:0:0:
260,348,28058,5,2,0:1:0:0:
177,348,28403,2,0,L|93:328,1,75.0000028610231,8|0,0:1|0:1,0:1:0:0:
24,307,29092,1,8,0:1:0:0:
83,249,29437,2,0,P|99:209|99:165,1,75.0000028610231,2|8,0:1|0:1,0:1:0:0:
51,110,30127,2,0,P|91:94|135:98,1,75.0000028610231,0|8,0:1|0:1,0:1:0:0:
200,116,30816,6,0,P|232:160|232:192,1,75.0000028610231,2|8,0:1|0:1,0:1:0:0:
184,248,31506,1,0,0:1:0:0:
231,318,31851,2,0,P|303:354|359:310,1,150.000005722046,8|8,0:1|0:1,0:1:0:0:
397,248,32885,2,0,L|401:164,1,75.0000028610231,0|8,0:1|0:1,0:1:0:0:
380,92,33574,5,4,0:1:0:0:
116,128,44609,6,0,L|44:108,2,75.0000028610231,4|0|2,0:0|0:0|0:0,0:0:0:0:
193,156,45644,1,0,0:0:0:0:
271,130,45989,2,0,P|291:82|315:58,2,75.0000028610231,2|0|2,0:0|0:0|0:0,0:0:0:0:
192,275,47368,6,0,P|148:283|104:275,2,75.0000028610231,4|0|2,0:0|0:0|0:0,0:0:0:0:
269,246,48403,1,0,0:0:0:0:
340,287,48748,2,0,L|429:298,2,75.0000028610231,2|0|2,0:0|0:0|0:0,0:0:0:0:
175,278,50127,6,0,B|155:314|155:314|131:338,2,75.0000028610231,4|0|2,0:0|0:0|0:0,0:0:0:0:
233,220,51161,1,0,0:0:0:0:
234,137,51507,2,0,B|253:63,2,75.0000028610231,2|0|2,0:0|0:0|0:0,0:0:0:0:
123,259,52885,6,0,B|143:303|135:335,2,75.0000028610231,4|0|2,0:0|0:0|0:0,0:0:0:0:
83,186,53920,1,0,0:0:0:0:
122,113,54265,2,0,B|196:107,2,75.0000028610231,2|0|2,0:0|0:0|0:0,0:0:0:0:
171,270,55644,6,0,P|219:278|247:266,1,75.0000028610231,4|0,0:0|0:0,0:0:0:0:
320,241,56334,2,0,P|355:230|391:239,1,75.0000028610231,0|4,0:0|0:0,0:0:0:0:
451,295,57023,2,0,L|463:375,2,75.0000028610231,0|0|4,0:0|0:0|0:0,0:0:0:0:
468,214,58058,1,0,0:0:0:0:
419,147,58403,6,0,P|375:143|335:159,1,75.0000028610231,4|0,0:0|0:0,0:0:0:0:
276,193,59092,2,0,P|240:203|203:198,1,75.0000028610231,0|4,0:0|0:0,0:0:0:0:
122,217,59782,2,0,L|70:281,2,75.0000028610231,0|0|4,0:0|0:0|0:0,0:0:0:0:
149,139,60816,1,0,0:0:0:0:
221,98,61161,6,0,B|261:98|261:98|305:118,1,75.0000028610231,4|2,0:0|0:0,0:0:0:0:
358,163,61851,2,0,B|389:177|389:177|429:177,1,75.0000028610231,2|2,0:0|0:0,0:0:0:0:
445,96,62540,2,0,B|405:96|405:96|361:76,1,75.0000028610231,4|2,0:0|0:0,0:0:0:0:
303,36,63230,2,0,B|271:21|271:21|231:21,1,75.0000028610231,2|2,0:0|0:0,0:0:0:0:
148,13,63920,6,0,B|144:49|172:81|172:81|168:129|168:129|168:129|168:129|176:193|156:237|104:249|48:217|44:129|128:109|224:149,1,450.000017166138,6|10,0:2|0:1,0:0:0:0:
207,304,66678,6,0,P|274:300|295:288,1,75.0000028610231,4|8,0:2|0:0,0:0:0:0:
356,265,67368,1,0,0:0:0:0:
398,194,67713,2,0,L|414:110,2,75.0000028610231,8|2|8,0:0|0:0|0:0,0:0:0:0:
437,266,68747,2,0,P|417:318|393:338,1,75.0000028610231,0|8,0:0|0:0,0:0:0:0:
322,346,69437,6,0,L|246:334,2,75.0000028610231,2|8|0,0:0|0:0|0:0,0:0:0:0:
403,330,70472,1,8,0:0:0:0:
348,268,70816,2,0,P|336:192|340:180,1,75.0000028610231,2|8,0:0|0:0,0:0:0:0:
368,120,71506,2,0,L|288:144,1,75.0000028610231,0|8,0:0|0:0,0:0:0:0:
240,202,72196,6,0,P|180:214|160:210,1,75.0000028610231,4|8,0:2|0:0,0:0:0:0:
104,157,72885,1,0,0:0:0:0:
44,214,73230,2,0,P|28:262|32:294,1,75.0000028610231,8|2,0:0|0:0,0:0:0:0:
60,362,73919,1,8,0:0:0:0:
142,356,74265,2,0,L|226:348,1,75.0000028610231,0|8,0:0|0:0,0:0:0:0:
299,347,74954,6,0,L|383:355,2,75.0000028610231,2|8|0,0:0|0:0|0:0,0:0:0:0:
216,348,75989,1,8,0:0:0:0:
147,301,76334,2,0,P|103:281|79:249,1,75.0000028610231,2|8,0:0|0:0,0:0:0:0:
108,182,77023,2,0,L|176:150,1,75.0000028610231,0|8,0:0|0:0,0:0:0:0:
234,91,77712,6,0,P|258:155|254:175,1,75.0000028610231,4|8,0:2|0:0,0:0:0:0:
227,236,78403,2,0,P|219:284|231:316,1,75.0000028610231,0|8,0:0|0:0,0:0:0:0:
299,270,79092,2,0,L|379:278,2,75.0000028610231,2|8|0,0:0|0:0|0:0,0:0:0:0:
226,308,80127,1,8,0:0:0:0:
152,346,80472,6,0,L|76:338,2,75.0000028610231,2|8|0,0:0|0:0|0:0,0:0:0:0:
226,308,81506,1,8,0:0:0:0:
293,356,81851,2,0,P|333:304|333:284,1,75.0000028610231,2|8,0:0|0:0,0:0:0:0:
344,215,82540,2,0,L|256:195,1,75.0000028610231,0|8,0:0|0:0,0:0:0:0:
222,131,83230,5,4,0:2:0:0:
182,203,83575,2,0,P|190:259|178:291,1,75.0000028610231,8|0,0:0|0:0,0:0:0:0:
125,333,84265,1,8,0:0:0:0:
56,287,84609,2,0,L|28:371,2,75.0000028610231,2|8|0,0:0|0:0|0:0,0:0:0:0:
58,204,85644,1,8,0:0:0:0:
63,121,85989,6,0,L|83:37,2,75.0000028610231,2|8|0,0:0|0:0|0:0,0:0:0:0:
58,204,87023,1,8,0:0:0:0:
131,241,87368,2,0,P|171:269|207:269,1,75.0000028610231,2|8,0:0|0:0,0:0:0:0:
278,265,88058,2,2,P|327:266|350:281,1,75.0000028610231,0|2,0:0|0:0,0:1:0:0:
399,343,88747,6,0,L|415:255,1,75.0000028610231,4|8,0:2|0:0,0:0:0:0:
482,224,89437,2,0,P|426:188|410:188,1,75.0000028610231,0|8,0:0|0:0,0:0:0:0:
337,187,90127,2,0,P|288:178|265:155,1,75.0000028610231,2|8,0:0|0:0,0:0:0:0:
216,99,90816,2,0,L|200:187,1,75.0000028610231,0|8,0:0|0:0,0:0:0:0:
149,236,91506,6,0,P|125:296|129:320,1,75.0000028610231,2|8,0:0|0:0,0:0:0:0:
208,296,92196,2,0,L|284:316,2,75.0000028610231,0|8|0,0:0|0:0|0:0,0:0:0:0:
125,304,93230,1,8,0:0:0:0:
72,240,93575,2,0,L|68:152,1,75.0000028610231,0|8,0:0|0:0,0:0:0:0:
149,147,94264,6,0,P|201:163|233:155,2,75.0000028610231,4|8|0,0:2|0:0|0:0,0:0:0:0:
92,88,95299,1,8,0:0:0:0:
68,165,95644,2,0,L|72:256,2,75.0000028610231,2|8|0,0:0|0:0|0:0,0:0:0:0:
92,88,96678,1,8,0:0:0:0:
171,109,97023,6,0,P|223:125|255:121,1,75.0000028610231,2|8,0:0|0:0,0:0:0:0:
320,94,97713,2,0,P|369:88|400:94,1,75.0000028610231,0|8,0:0|0:0,0:0:0:0:
449,153,98403,2,0,L|421:233,2,75.0000028610231,2|8|0,0:0|0:0|0:0,0:0:0:0:
393,92,99437,1,8,0:0:0:0:
359,167,99782,6,0,L|331:243,1,75.0000028610231,4|8,0:2|0:0,0:0:0:0:
302,314,100472,2,0,P|254:346|230:346,1,75.0000028610231,0|8,0:0|0:0,0:0:0:0:
170,300,101161,2,0,P|218:268|242:268,1,75.0000028610231,0|8,0:0|0:0,0:0:0:0:
307,229,101851,2,0,L|327:141,1,75.0000028610231,0|8,0:0|0:0,0:0:0:0:
357,80,102540,6,0,P|297:100|277:96,1,75.0000028610231,2|8,0:0|0:0,0:0:0:0:
204,94,103230,2,0,P|176:146|180:166,1,75.0000028610231,0|8,0:0|0:0,0:0:0:0:
195,239,103920,2,0,P|207:287|203:319,2,75.0000028610231,2|8|0,0:0|0:0|0:0,0:0:0:0:
177,159,104954,1,8,0:0:0:0:
255,183,105299,6,0,L|335:171,2,75.0000028610231,4|8|0,0:2|0:0|0:0,0:0:0:0:
177,159,106334,1,8,0:0:0:0:
102,124,106678,2,0,P|74:156|70:196,2,75.0000028610231,2|8|0,0:0|0:0|0:0,0:0:0:0:
172,80,107713,1,8,0:0:0:0:
248,111,108058,6,0,L|332:123,1,75.0000028610231,2|8,0:0|0:0,0:0:0:0:
403,138,108747,2,0,P|427:178|423:220,1,75.0000028610231,0|8,0:0|0:0,0:0:0:0:
373,268,109437,2,0,P|326:268|291:244,1,75.0000028610231,0|8,0:0|0:0,0:0:0:0:
274,177,110126,2,0,P|296:136|335:118,1,75.0000028610231,0|8,0:0|0:0,0:0:0:0:
350,194,110816,5,4,0:0:0:0:
