osu file format v14

[General]
AudioFilename: audio.mp3
AudioLeadIn: 0
PreviewTime: 66576
Countdown: 0
SampleSet: Soft
StackLeniency: 0.5
Mode: 0
LetterboxInBreaks: 0
EpilepsyWarning: 1
WidescreenStoryboard: 1

[Editor]
Bookmarks: 455,11490,22524,33558,44593,55627,61145,66662,77696,88730,99765,110800
DistanceSpacing: 1
BeatDivisor: 8
GridSize: 4
TimelineZoom: 1

[Metadata]
Title:On My Own
TitleUnicode:On My Own
Artist:Panda Eyes
ArtistUnicode:Panda Eyes
Creator:Plaudible
Version:Collab Extra
Source:
Tags:dnb drum and bass cut short ver yamicchi hobbes2 hokichi mrsergio
BeatmapID:1074246
BeatmapSetID:504958

[Difficulty]
HPDrainRate:7
CircleSize:4
OverallDifficulty:8.5
ApproachRate:9
SliderMultiplier:1.8
SliderTickRate:1

[Events]
//Background and Video events
0,0,"bg.jpg",0,0
//Break Periods
2,33774,42630
//Storyboard Layer 0 (Background)
//Storyboard Layer 1 (Fail)
//Storyboard Layer 2 (Pass)
//Storyboard Layer 3 (Foreground)
Sprite,Foreground,Centre,"SB\cre\collab.png",320,240 S,0,39075,,0.5 C,0,39075,,255,150,100 P,0,39075,,A F,0,39075,39284,0,1 MX,0,39075,39284,200,300 MX,0,39284,41834,300,340 F,0,41834,42006,1,0 MX,0,41834,42006,340,440
Sprite,Foreground,CentreLeft,"SB\banner.png",50,400 S,0,498,,0.6 C,0,498,,255,100,100 F,0,498,799,0,1 C,0,11500,11661,255,100,100,0,255,255 C,0,22524,22696,0,255,255,255,100,100 F,0,33558,33730,1,0 F,0,44592,44764,0,1 C,0,44592,44765,0,255,255,255,100,100 C,0,55627,55799,255,100,100,0,255,255 C,0,61144,61317,0,255,255,255,100,100 C,0,66661,66834,255,100,100,0,255,255 C,0,77696,77868,0,255,255,255,100,100 C,0,88903,,0,255,255 C,0,99765,99937,0,255,255,255,100,100 F,0,110455,110799,1
Sprite,Foreground,Centre,"SB\inc1.png",20,400 S,0,498,,0.3 C,0,498,,255,100,100 F,0,498,799,0,1 C,0,11500,11661,255,100,100,0,255,255 C,0,22524,22696,0,255,255,255,100,100 F,0,33558,33730,1,0 F,0,44592,44764,0,1 C,0,44592,44765,0,255,255,255,100,100 C,0,55627,55799,255,100,100,0,255,255 C,0,61144,61317,0,255,255,255,100,100 C,0,66661,66834,255,100,100,0,255,255 C,0,77696,77868,0,255,255,255,100,100 C,0,88903,,0,255,255 C,0,99765,99937,0,255,255,255,100,100 F,0,110455,110799,1
Sprite,Foreground,Centre,"SB\otc1.png",20,400 S,0,498,,0.3 F,0,498,799,0,1 F,0,33558,33730,1,0 F,0,44592,44764,0,1 F,0,110455,110799,1
Sprite,Foreground,Centre,"SB\plaudible.png",20,400 M,0,498,,132,400 S,0,498,,0.5 P,0,498,,A F,0,498,799,0,1 F,0,11489,11661,1,0
Sprite,Foreground,Centre,"SB\hobbes2.png",20,400 M,0,11489,,132,400 S,0,11489,,0.5 P,0,11489,,A F,0,11489,11661,0,1 F,0,22524,22696,1,0
Sprite,Foreground,Centre,"SB\plaudible.png",20,400 M,0,22524,,132,400 S,0,22524,,0.5 P,0,22524,,A F,0,22524,22696,0,1 F,0,33558,33730,1,0
Sprite,Foreground,Centre,"SB\plaudible.png",20,400 M,0,44592,,132,400 S,0,44592,,0.5 P,0,44592,,A F,0,44592,44765,0,1 F,0,55627,55799,1,0
Sprite,Foreground,Centre,"SB\hobbes2.png",20,400 M,0,55627,,132,400 S,0,55627,,0.5 P,0,55627,,A F,0,55627,55799,0,1 F,0,61144,61317,1,0
Sprite,Foreground,Centre,"SB\plaudible.png",20,400 M,0,61144,,132,400 S,0,61144,,0.5 P,0,61144,,A F,0,61144,61317,0,1 F,0,66661,66834,1,0
Sprite,Foreground,Centre,"SB\hobbes2.png",20,400 M,0,66661,,132,400 S,0,66661,,0.5 P,0,66661,,A F,0,66661,66834,0,1 F,0,77696,77868,1,0
Sprite,Foreground,Centre,"SB\plaudible.png",20,400 M,0,77696,,132,400 S,0,77696,,0.5 P,0,77696,,A F,0,77696,77868,0,1 F,0,88903,,1
Sprite,Foreground,Centre,"SB\hobbes2.png",20,400 M,0,88903,,132,400 F,0,88903,,0,1 S,0,88903,,0.5 P,0,88903,,A F,0,99765,99937,1,0
Sprite,Foreground,Centre,"SB\plaudible.png",20,400 M,0,99765,,132,400 S,0,99765,,0.5 P,0,99765,,A F,0,99765,99937,0,1 F,0,110799,,1
//Storyboard Sound Samples

[TimingPoints]
498,344.827586206897,4,2,1,25,1,0
498,-172.413793103448,4,2,1,25,0,0
11506,344.827586206897,4,2,1,75,1,0
11506,-100,4,2,1,75,0,0
44609,-133.333333333333,4,2,1,75,0,0
61161,-100,4,2,1,50,0,0
62540,-100,4,2,1,65,0,0
63920,-100,4,1,1,60,0,0
64264,-100,4,1,1,70,0,0
64609,-100,4,1,1,80,0,0
64954,-100,4,1,1,90,0,0
65299,-80,4,1,1,100,0,0
66678,-100,4,1,1,100,0,1
88230,-100,4,2,1,5,0,0
88316,-100,4,1,1,50,0,0
88488,-100,4,2,1,5,0,0
88531,-100,4,2,1,50,0,0
88661,-100,4,2,1,5,0,0
88747,-111.111111111111,4,1,1,100,0,1
90127,-125,4,1,1,100,0,1
91506,-90.9090909090909,4,1,1,100,0,1
92885,-100,4,1,1,100,0,1
94265,-83.3333333333333,4,1,1,100,0,1
95644,-100,4,1,1,100,0,1
97023,-83.3333333333333,4,1,1,100,0,1
104954,-83.3333333333333,4,1,1,75,0,1
105299,-93.4579439252336,4,1,1,100,0,1
109437,-80,4,1,1,100,0,1
110816,-100,4,1,1,100,0,0

[Colours]
Combo1 : 224,193,255
Combo2 : 255,150,100
Combo3 : 0,255,255

[HitObjects]
385,89,498,6,0,B|377:141|377:141|357:189|357:189|365:237|365:237|353:253|353:285|353:285|333:217|249:229,1,313.200009558106,4|2,0:1|0:3,0:1:0:0:
271,228,3256,6,0,B|248:184|271:120|271:120|246:144|210:152|210:152|126:139|94:201,1,313.200009558106,4|2,0:1|0:3,0:1:0:0:
95,197,6015,6,0,B|114:265|98:353|98:353|142:333|158:289|158:289|186:313|226:313,1,313.200009558106,4|2,0:1|0:3,0:1:0:0:
217,312,8773,6,4,P|275:316|199:200,1,313.200009558106,4|2,0:1|0:3,0:1:0:0:
256,192,9894,12,0,11187,0:0:0:0:
164,196,11506,6,0,P|164:276|184:308,1,90,6|0,0:1|0:1,0:1:0:0:
264,120,11851,1,8,0:1:0:0:
76,203,12023,1,0,0:1:0:0:
74,238,12109,1,0,0:1:0:0:
77,274,12195,1,0,0:1:0:0:
87,309,12281,1,0,0:1:0:0:
102,342,12368,1,2,0:1:0:0:
336,300,12540,1,8,0:1:0:0:
164,196,12713,1,0,0:1:0:0:
380,204,12885,6,0,B|396:164|396:164|396:100,1,90,2|0,0:1|0:1,0:1:0:0:
336,300,13230,1,8,0:1:0:0:
480,216,13403,1,0,0:1:0:0:
480,192,13488,1,0,0:1:0:0:
480,168,13575,1,0,0:1:0:0:
480,144,13661,1,0,0:1:0:0:
480,120,13747,1,2,0:1:0:0:
320,144,13920,2,0,P|276:176|256:204,1,90,8|0,0:1|0:1,0:1:0:0:
404,340,14265,6,0,P|412:280|392:240,1,90,2|0,0:1|0:1,0:1:0:0:
308,376,14609,1,8,0:1:0:0:
496,336,14782,1,0,0:1:0:0:
498,300,14868,1,0,0:1:0:0:
495,264,14954,2,0,P|488:220|480:192,1,45
308,376,15126,1,2,0:1:0:0:
408,176,15299,1,8,0:1:0:0:
496,336,15472,1,0,0:1:0:0:
312,240,15644,6,0,B|296:180|312:124|312:124|272:148|272:204,1,180,2|8,0:1|0:1,0:1:0:0:
408,176,16161,1,0,0:1:0:0:
414,140,16247,1,0,0:1:0:0:
414,104,16333,1,0,0:1:0:0:
408,68,16419,1,0,0:1:0:0:
397,34,16506,1,2,0:1:0:0:
232,96,16678,2,0,P|200:144|200:188,1,90,8|0,0:1|0:1,0:1:0:0:
400,321,17023,6,0,P|396:249|388:221,1,90,2|0,0:1|0:1,0:1:0:0:
280,164,17368,1,8,0:1:0:0:
232,332,17540,2,0,P|244:370|253:384,1,45,0|0,0:1|0:1,0:1:0:0:
184,200,17713,2,0,P|144:200|128:204,1,45,0|0,0:1|0:1,0:1:0:0:
320,296,17885,1,2,0:1:0:0:
200,104,18058,1,8,0:1:0:0:
232,332,18230,1,0,0:1:0:0:
428,364,18403,6,0,P|420:256|436:176,1,180,2|8,0:1|0:1,0:1:0:0:
260,248,18920,1,0,0:1:0:0:
247,266,19006,1,0,0:1:0:0:
238,287,19092,1,0,0:1:0:0:
233,309,19178,1,0,0:1:0:0:
231,331,19264,1,2,0:1:0:0:
279,151,19437,2,0,P|301:112|308:68,1,90,8|0,0:1|0:1,0:1:0:0:
424,272,19782,6,0,P|428:188|436:152,1,90,2|0,0:1|0:1,0:1:0:0:
508,60,20127,1,8,0:1:0:0:
352,65,20299,2,0,P|292:73|272:85,1,45,0|0,0:1|0:1,0:1:0:0:
429,182,20472,2,0,P|421:122|409:102,1,45,0|0,0:1|0:1,0:1:0:0:
420,4,20644,1,2,0:1:0:0:
316,180,20816,1,8,0:1:0:0:
508,60,20989,1,0,0:1:0:0:
276,64,21161,6,0,B|224:84|216:144|233:172|233:172|236:140|262:117,1,180,2|8,0:1|0:1,0:1:0:0:
161,238,21678,1,0,0:1:0:0:
190,259,21764,1,0,0:1:0:0:
225,268,21850,1,0,0:1:0:0:
261,263,21936,1,0,0:1:0:0:
292,246,22023,1,2,0:1:0:0:
111,107,22196,1,8,0:1:0:0:
108,242,22368,1,0,0:0:0:0:
111,107,22540,6,0,L|208:116,1,90,6|0,0:1|0:1,0:1:0:0:
312,216,22885,1,8,0:1:0:0:
108,242,23057,1,0,0:1:0:0:
108,208,23143,1,0,0:1:0:0:
109,174,23229,1,0,0:1:0:0:
110,140,23315,1,0,0:1:0:0:
111,107,23402,1,2,0:1:0:0:
288,132,23574,1,8,0:1:0:0:
108,242,23747,1,2,0:1:0:0:
304,120,23919,6,0,L|393:111,1,90,2|0,0:1|0:1,0:1:0:0:
432,252,24264,1,8,0:1:0:0:
244,204,24437,1,0,0:1:0:0:
220,179,24523,1,0,0:1:0:0:
208,148,24609,1,0,0:1:0:0:
208,115,24695,1,0,0:1:0:0:
221,84,24781,1,0,0:1:0:0:
296,272,24954,2,0,P|312:332|284:376,1,90,8|0,0:1|0:1,0:1:0:0:
324,192,25299,6,0,B|392:180|392:180|436:144|436:144|500:132,1,180,2|8,0:1|0:1,0:1:0:0:
352,64,25816,2,0,L|356:120,1,45,0|0,0:1|0:1,0:1:0:0:
472,260,25988,2,0,L|468:215,1,45,0|0,0:1|0:1,0:1:0:0:
460,52,26161,1,2,0:1:0:0:
324,192,26333,1,8,0:1:0:0:
489,134,26506,1,0,0:1:0:0:
300,200,26678,6,0,L|200:204,1,90,2|0,0:1|0:1,0:1:0:0:
76,152,27023,1,8,0:1:0:0:
232,64,27195,2,0,L|228:124,1,45,0|0,0:1|0:1,0:1:0:0:
148,292,27368,2,0,L|144:232,1,45,0|0,0:1|0:1,0:1:0:0:
136,84,27540,1,2,0:1:0:0:
236,280,27712,2,0,L|336:284,1,90,8|0,0:1|0:1,0:1:0:0:
333,55,28057,6,0,P|281:107|333:195,1,180,2|8,0:1|0:1,0:1:0:0:
333,55,28574,1,0,0:1:0:0:
299,53,28660,1,0,0:1:0:0:
265,51,28746,1,0,0:1:0:0:
231,49,28832,1,0,0:1:0:0:
198,48,28918,1,2,0:1:0:0:
136,220,29092,1,8,0:1:0:0:
323,191,29264,1,0,0:1:0:0:
139,130,29437,6,0,L|135:219,1,90,2|0,0:1|0:1,0:1:0:0:
240,336,29781,1,8,0:1:0:0:
411,182,29954,1,0,0:0:0:0:
401,149,30040,1,0,0:0:0:0:
381,123,30126,1,0,0:0:0:0:
352,106,30212,1,0,0:0:0:0:
318,101,30298,1,0,0:0:0:0:
368,272,30471,2,0,L|468:264,1,90,8|0,0:1|0:1,0:1:0:0:
240,172,30816,6,0,B|196:160|160:172|160:172|136:168|136:168|92:184|24:156,1,180,2|8,0:1|0:1,0:1:0:0:
200,288,31333,2,0,L|196:240,1,45,0|0,0:1|0:1,0:1:0:0:
96,52,31506,2,0,L|100:104,1,45,0|0,0:1|0:1,0:1:0:0:
96,276,31678,1,2,0:1:0:0:
280,100,31850,1,8,0:1:0:0:
152,172,32023,1,0,0:1:0:0:
296,88,32195,6,0,L|400:84,1,90,2|0,0:1|0:1,0:1:0:0:
492,184,32540,1,8,0:1:0:0:
360,272,32712,2,0,L|312:276,1,45,0|0,0:1|0:1,0:1:0:0:
152,172,32885,2,0,L|200:176,1,45,0|0,0:1|0:1,0:1:0:0:
352,184,33057,1,2,0:1:0:0:
136,260,33230,1,8,0:1:0:0:
136,260,33574,5,4,0:1:0:0:
256,192,43230,12,0,44437,0:0:0:0:
224,184,44609,6,0,B|267:191|267:191|319:186,1,67.5000025749208,4|0,0:0|0:0,0:0:0:0:
332,122,44954,1,0,0:0:0:0:
365,196,45127,1,0,0:0:0:0:
411,131,45299,1,2,0:0:0:0:
356,216,45472,1,0,0:0:0:0:
326,103,45644,2,0,B|288:93|288:93|237:95,1,67.5000025749208
213,156,45989,5,2,0:0:0:0:
346,242,46161,1,0,0:0:0:0:
205,178,46334,1,0,0:0:0:0:
248,301,46506,1,0,0:0:0:0:
292,174,46678,2,0,P|273:102|155:98,1,202.500007724762,2|0,0:0|0:0,0:0:0:0:
91,231,47368,6,0,L|96:151,1,67.5000025749208,4|0,0:0|0:0,0:0:0:0:
155,26,47713,2,0,L|159:93,1,67.5000025749208
185,179,48058,1,2,0:0:0:0:
245,120,48230,1,0,0:0:0:0:
250,253,48403,2,0,B|216:266|216:266|173:268,1,67.5000025749208
91,231,48747,5,2,0:0:0:0:
76,311,48920,1,0,0:0:0:0:
185,179,49092,1,0,0:0:0:0:
205,346,49265,1,0,0:0:0:0:
108,152,49437,2,0,P|184:96|262:150,1,202.500007724762,2|0,0:0|0:0,0:0:0:0:
291,293,50127,6,0,L|295:225,1,67.5000025749208,4|0,0:0|0:0,0:0:0:0:
341,159,50472,1,0,0:0:0:0:
378,232,50644,1,0,0:0:0:0:
342,135,50816,1,2,0:0:0:0:
294,225,50989,1,0,0:0:0:0:
344,112,51161,2,0,L|276:120,1,67.5000025749208
193,221,51506,5,2,0:0:0:0:
208,83,51678,1,0,0:0:0:0:
293,223,51851,1,0,0:0:0:0:
195,59,52023,1,0,0:0:0:0:
179,238,52196,2,0,P|204:329|299:334,1,202.500007724762,2|0,0:0|0:0,0:0:0:0:
179,238,52885,6,0,L|111:233,1,67.5000025749208,4|0,0:0|0:0,0:0:0:0:
204,124,53230,2,0,L|271:119,1,67.5000025749208
179,238,53575,1,2,0:0:0:0:
108,127,53747,1,0,0:0:0:0:
192,258,53920,2,0,B|226:271|226:271|269:273,1,67.5000025749208
364,227,54265,5,2,0:0:0:0:
299,124,54437,1,0,0:0:0:0:
364,248,54609,1,0,0:0:0:0:
424,97,54782,1,0,0:0:0:0:
364,269,54954,2,0,P|294:330|207:279,1,202.500007724762,2|0,0:0|0:0,0:0:0:0:
208,120,55644,6,0,P|196:172|196:204,1,67.5000025749208,4|0,0:0|0:0,0:0:0:0:
364,269,55989,2,0,P|324:232|297:216,1,67.5000025749208
156,329,56334,2,0,P|207:313|234:297,1,67.5000025749208
208,120,56678,1,4,0:0:0:0:
160,240,56851,1,0,0:0:0:0:
128,104,57023,6,0,P|168:48|192:40,1,67.5000025749208
304,136,57368,1,0,0:0:0:0:
160,240,57540,1,0,0:0:0:0:
268,40,57713,1,4,0:0:0:0:
260,232,57885,2,0,L|288:268,2,33.7500012874604
128,104,58230,1,0,0:0:0:0:
52,264,58403,6,0,P|48:312|52:356,1,67.5000025749208,4|0,0:0|0:0,0:0:0:0:
160,240,58747,1,0,0:0:0:0:
24,128,58920,1,0,0:0:0:0:
160,240,59092,2,0,P|212:244|232:240,1,67.5000025749208
128,104,59437,1,4,0:0:0:0:
52,264,59609,1,0,0:0:0:0:
256,140,59782,6,0,P|264:108|264:72,1,67.5000025749208
333,265,60126,2,0,P|341:297|341:333,1,67.5000025749208
220,258,60472,1,4,0:0:0:0:
368,144,60643,2,0,L|376:104,2,33.7500012874604
341,332,60989,1,0,0:0:0:0:
200,181,61161,5,4,0:0:0:0:
143,279,61334,1,2,0:0:0:0:
122,201,61506,1,2,0:0:0:0:
220,258,61679,1,2,0:0:0:0:
66,260,61851,1,2,0:0:0:0:
66,260,62023,1,2,0:0:0:0:
279,204,62196,1,2,0:0:0:0:
279,204,62368,1,2,0:0:0:0:
159,166,62540,5,4,0:0:0:0:
193,298,62713,1,2,0:0:0:0:
243,217,62885,1,0,0:0:0:0:
111,250,63058,1,2,0:0:0:0:
284,296,63230,1,0,0:0:0:0:
284,296,63403,1,2,0:0:0:0:
72,180,63575,1,2,0:0:0:0:
72,180,63747,1,2,0:0:0:0:
220,96,63920,5,8,0:0:0:0:
118,313,64092,1,0,0:0:0:0:
252,84,64265,5,8,0:0:0:0:
202,337,64437,1,0,0:0:0:0:
288,68,64609,5,8,0:0:0:0:
290,349,64782,1,0,0:0:0:0:
320,56,64954,5,8,0:0:0:0:
378,333,65127,1,0,0:0:0:0:
220,96,65299,5,8,0:0:0:0:
174,62,65385,1,0,0:0:0:0:
118,62,65472,1,2,0:0:0:0:
72,96,65558,1,0,0:0:0:0:
55,149,65644,1,8,0:0:0:0:
72,202,65730,1,0,0:0:0:0:
118,236,65816,1,2,0:0:0:0:
174,236,65903,1,0,0:0:0:0:
220,203,65989,5,8,0:0:0:0:
352,276,66161,1,2,0:0:0:0:
276,260,66333,1,0,0:0:0:0:
424,244,66506,1,0,0:0:0:0:
145,150,66678,5,6,0:0:0:0:
240,328,66851,1,0,0:0:0:0:
228,111,67023,2,0,L|224:8,2,90,8|0|0,0:0|0:0|0:0,0:0:0:0:
151,281,67540,1,2,0:0:0:0:
62,111,67713,1,8,0:0:0:0:
267,194,67885,1,0,0:0:0:0:
68,320,68058,5,2,0:0:0:0:
62,111,68230,1,0,0:0:0:0:
151,281,68403,1,8,0:0:0:0:
145,72,68575,1,0,0:0:0:0:
236,320,68747,1,0,0:0:0:0:
62,111,68920,2,0,L|58:8,2,90,2|8|0,0:0|0:0|0:0,0:0:0:0:
300,124,69437,5,2,0:0:0:0:
93,209,69609,1,0,0:0:0:0:
364,188,69782,1,8,0:0:0:0:
104,224,69954,1,0,0:0:0:0:
409,266,70127,1,0,0:0:0:0:
115,239,70299,2,0,L|119:136,2,90,2|8|0,0:0|0:0|0:0,0:0:0:0:
262,89,70816,5,2,0:0:0:0:
282,301,70989,1,0,0:0:0:0:
378,37,71161,1,8,0:0:0:0:
366,253,71334,1,0,0:0:0:0:
294,5,71506,1,0,0:0:0:0:
198,253,71678,2,0,L|194:150,2,90,2|8|0,0:0|0:0|0:0,0:0:0:0:
346,121,72196,6,0,L|435:124,1,90,4|0,0:2|0:0,0:0:0:0:
139,166,72540,2,0,L|50:163,1,90,8|0,0:0|0:0,0:0:0:0:
251,94,72885,1,0,0:0:0:0:
152,268,73058,1,2,0:0:0:0:
172,16,73230,1,8,0:0:0:0:
280,212,73403,1,0,0:0:0:0:
76,92,73575,5,2,0:0:0:0:
76,92,73747,1,0,0:0:0:0:
372,212,73920,1,8,0:0:0:0:
152,268,74092,1,0,0:0:0:0:
372,212,74265,1,0,0:0:0:0:
79,181,74437,2,0,L|75:78,2,90,2|8|0,0:0|0:0|0:0,0:0:0:0:
289,87,74954,5,2,0:0:0:0:
289,87,75127,1,0,0:0:0:0:
152,268,75299,1,8,0:0:0:0:
368,227,75471,1,0,0:0:0:0:
79,181,75644,1,0,0:0:0:0:
387,115,75816,2,0,L|391:12,2,90,2|8|0,0:0|0:0|0:0,0:0:0:0:
283,352,76334,5,2,0:0:0:0:
276,118,76506,1,0,0:0:0:0:
417,328,76678,1,8,0:0:0:0:
192,190,76850,1,0,0:0:0:0:
424,280,77023,6,0,P|464:312|396:284,1,270
432,48,77712,6,0,L|424:180,1,90,4|0,0:2|0:0,0:0:0:0:
381,294,78057,1,8,0:0:0:0:
332,104,78230,1,0,0:0:0:0:
224,280,78402,2,0,B|272:288|298:331|298:331|280:284|310:233,1,180,0|8,0:0|0:0,0:0:0:0:
216,368,78919,1,0,0:0:0:0:
232,192,79092,5,2,0:0:0:0:
381,294,79264,1,0,0:0:0:0:
216,368,79437,1,8,0:0:0:0:
332,104,79609,1,0,0:0:0:0:
457,252,79781,2,0,L|462:162,1,90,0|2,0:0|0:0,0:0:0:0:
461,162,80126,1,8,0:0:0:0:
392,352,80299,1,0,0:0:0:0:
272,144,80471,5,2,0:0:0:0:
136,304,80643,1,0,0:0:0:0:
272,120,80816,1,8,0:0:0:0:
40,152,80988,1,0,0:0:0:0:
272,97,81161,2,0,L|361:102,1,90,0|2,0:0|0:0,0:0:0:0:
361,102,81506,1,8,0:0:0:0:
120,90,81678,1,0,0:0:0:0:
343,195,81850,5,2,0:0:0:0:
162,202,82023,1,0,0:0:0:0:
248,320,82195,1,8,0:0:0:0:
87,236,82368,1,0,0:0:0:0:
321,272,82540,2,0,L|410:277,1,90,0|2,0:0|0:0,0:0:0:0:
410,277,82885,1,8,0:0:0:0:
156,283,83057,1,0,0:0:0:0:
338,83,83230,5,4,0:2:0:0:
321,272,83402,1,0,0:0:0:0:
276,25,83574,1,8,0:0:0:0:
355,197,83746,1,0,0:0:0:0:
108,95,83919,2,0,P|70:118|99:242,1,180,0|8,0:0|0:0,0:0:0:0:
86,235,84437,1,0,0:0:0:0:
252,36,84609,5,2,0:0:0:0:
129,168,84781,1,0,0:0:0:0:
364,204,84954,1,8,0:0:0:0:
192,100,85126,1,0,0:0:0:0:
311,275,85299,2,0,B|360:288|360:288|433:279,1,90,0|2,0:0|0:0,0:0:0:0:
399,284,85643,1,8,0:0:0:0:
168,208,85816,1,0,0:0:0:0:
364,204,85988,5,2,0:0:0:0:
203,315,86161,1,0,0:0:0:0:
486,339,86333,1,8,0:0:0:0:
288,346,86506,1,0,0:0:0:0:
455,194,86678,2,0,B|471:153|471:153|459:72,1,90,0|2,0:0|0:0,0:0:0:0:
464,107,87023,1,8,0:0:0:0:
430,278,87195,1,0,0:0:0:0:
273,96,87368,5,2,0:0:0:0:
430,278,87540,1,0,0:0:0:0:
388,120,87712,1,8,0:0:0:0:
272,296,87885,1,0,0:0:0:0:
104,139,88058,6,2,P|100:184|113:227,1,90,0|0,0:0|0:0,0:1:0:0:
400,209,88402,2,0,L|354:205,1,45,2|0,0:0|0:0,0:0:0:0:
224,170,88574,2,0,L|277:165,1,45,2|0,0:0|0:0,0:0:0:0:
314,82,88747,6,0,B|310:112|320:136|320:136|312:159|312:159|321:186|310:214,1,121.499996292114,4|0,0:2|2:0,0:0:0:0:
435,278,89092,2,0,P|399:206|399:204,1,80.9999975280763,8|0,0:0|0:0,0:0:0:0:
434,28,89437,2,0,P|389:95|387:96,1,80.9999975280763,0|2,0:0|0:0,0:0:0:0:
232,134,89782,1,8,0:0:0:0:
426,191,89954,1,0,0:0:0:0:
228,217,90127,6,0,P|162:182|149:147,1,108,2|0,0:0|2:0,0:0:0:0:
160,12,90472,2,0,P|170:52|173:92,1,72,8|0,0:0|0:0,0:0:0:0:
55,257,90816,2,0,P|45:217|42:177,1,72,0|2,0:0|0:0,0:0:0:0:
228,217,91161,1,8,0:0:0:0:
163,335,91334,1,0,0:0:0:0:
176,150,91506,6,0,B|236:115|282:154|282:154|328:145,1,148.50000453186,2|0,0:0|2:0,0:0:0:0:
404,52,91851,2,0,L|291:77,1,99.0000030212403,8|0,0:0|0:0,0:0:0:0:
79,128,92196,2,0,L|192:153,1,99.0000030212403,0|2,0:0|0:0,0:0:0:0:
236,24,92540,1,8,0:0:0:0:
264,232,92713,1,0,0:0:0:0:
362,77,92885,6,0,P|429:104|376:125,1,135,2|0,0:0|2:0,0:0:0:0:
356,236,93230,2,0,P|340:193|340:149,1,90,8|0,0:0|0:0,0:0:0:0:
480,304,93575,2,0,P|438:361|405:380,1,90,0|2,0:0|0:0,0:0:0:0:
340,149,93920,1,8,0:0:0:0:
232,292,94092,1,0,0:0:0:0:
112,192,94265,6,0,P|52:192|12:100,1,161.999995056153,4|0,0:2|2:0,0:0:0:0:
92,52,94609,2,0,P|41:66|9:109,1,107.999996704102,8|0,0:0|0:0,0:0:0:0:
145,305,94954,1,0,0:0:0:0:
81,126,95126,5,2,0:0:0:0:
213,214,95299,1,8,0:0:0:0:
34,278,95472,1,0,0:0:0:0:
254,336,95644,6,0,B|286:342|305:331|305:331|343:340|343:340|358:329|391:340,1,135,2|0,0:0|2:0,0:0:0:0:
503,273,95989,2,0,P|453:260|409:265,1,90,8|0,0:0|0:0,0:0:0:0:
334,126,96334,1,0,0:0:0:0:
416,264,96506,1,2,0:0:0:0:
438,74,96678,1,8,0:0:0:0:
416,264,96851,1,0,0:0:0:0:
235,82,97023,6,0,P|187:26|170:110,1,161.999995056153,2|0,0:0|2:0,0:0:0:0:
134,184,97368,2,0,P|152:123|143:66,1,107.999996704102,8|0,0:0|0:0,0:0:0:0:
16,201,97713,2,0,P|-2:262|7:319,1,107.999996704102,0|2,0:0|0:0,0:0:0:0:
209,248,98058,1,8,0:0:0:0:
51,118,98230,1,0,0:0:0:0:
164,321,98403,6,0,B|226:347|268:307|268:307|349:326,1,161.999995056153,2|0,0:0|2:0,0:0:0:0:
416,384,98747,2,0,L|445:258,1,107.999996704102,8|0,0:0|0:0,0:0:0:0:
340,103,99092,1,0,0:0:0:0:
209,248,99265,1,2,0:0:0:0:
143,43,99437,1,8,0:0:0:0:
256,164,99609,1,0,0:0:0:0:
50,151,99782,6,0,P|46:243|54:319,1,161.999995056153,4|0,0:2|2:0,0:0:0:0:
132,256,100127,2,0,P|172:316|236:320,1,107.999996704102,8|0,0:0|0:0,0:0:0:0:
192,140,100472,1,0,0:0:0:0:
53,313,100644,1,2,0:0:0:0:
143,43,100816,1,8,0:0:0:0:
209,248,100989,1,0,0:0:0:0:
416,188,101161,6,0,B|384:196|356:188|356:188|336:200|316:188|316:188|288:200|256:188,1,161.999995056153,2|0,0:0|2:0,0:0:0:0:
107,221,101506,2,0,P|167:225|219:257,1,107.999996704102,8|0,0:0|0:0,0:0:0:0:
388,112,101851,1,0,0:0:0:0:
336,284,102023,1,2,0:0:0:0:
284,72,102196,1,8,0:0:0:0:
284,72,102540,6,0,B|252:76|224:64|224:64|192:80|192:80|152:72|112:100,1,161.999995056153,2|0,0:0|2:0,0:0:0:0:
91,175,102885,2,0,B|135:139|135:139|123:111|131:75,1,107.999996704102,8|0,0:0|0:0,0:0:0:0:
208,232,103230,1,0,0:0:0:0:
52,64,103403,1,2,0:0:0:0:
280,160,103575,1,8,0:0:0:0:
91,175,103747,1,0,0:0:0:0:
304,156,103920,6,0,P|368:168|332:236,1,161.999995056153,2|0,0:0|2:0,0:0:0:0:
227,231,104265,2,0,L|334:234,1,107.999996704102,8|0,0:0|0:0,0:0:0:0:
484,156,104609,1,0,0:0:0:0:
384,312,104782,1,2,0:0:0:0:
384,92,104954,5,8,0:0:0:0:
384,200,105127,1,0,0:0:0:0:
280,28,105299,6,0,L|320:184,1,144.449995591736,4|0,0:2|2:0,0:0:0:0:
218,128,105644,2,0,P|246:100|318:124,1,96.2999970611573,8|0,0:0|0:0,0:0:0:0:
384,312,105989,1,0,0:0:0:0:
380,112,106161,1,2,0:0:0:0:
280,256,106334,1,8,0:0:0:0:
384,92,106506,1,0,0:0:0:0:
128,196,106678,6,0,B|120:152|136:124|136:124|180:136|212:120,1,144.449995591736,2|0,0:0|2:0,0:0:0:0:
280,28,107023,2,0,L|280:128,1,96.2999970611573,8|0,0:0|0:0,0:0:0:0:
172,48,107368,1,0,0:0:0:0:
384,92,107540,1,2,0:0:0:0:
141,272,107713,1,8,0:0:0:0:
141,272,108058,6,0,B|192:264|228:292|228:292|252:272|284:274,1,144.449995591736,2|0,0:1|2:0,0:0:0:0:
282,363,108403,2,0,P|264:316|278:270,1,96.2999970611573,8|0,0:0|0:0,0:0:0:0:
168,356,108747,1,0,0:0:0:0:
256,128,108920,1,2,0:0:0:0:
360,316,109092,1,8,0:0:0:0:
176,180,109265,1,0,0:0:0:0:
376,180,109437,6,0,P|398:113|344:146,1,168.75,2|0,0:0|2:0,0:0:0:0:
328,248,109782,2,0,P|292:216|264:144,1,112.5,8|0,0:0|0:0,0:0:0:0:
141,272,110127,1,0,0:0:0:0:
176,60,110299,1,2,0:0:0:0:
328,248,110472,1,8,0:0:0:0:
328,248,110816,5,4,0:0:0:0:
