osu file format v14

[General]
AudioFilename: audio.mp3
AudioLeadIn: 0
PreviewTime: 66598
Countdown: 0
SampleSet: Soft
StackLeniency: 0.7
Mode: 0
LetterboxInBreaks: 0
WidescreenStoryboard: 0

[Editor]
Bookmarks: 22539,33573,55642,61160,88746
DistanceSpacing: 1.1
BeatDivisor: 4
GridSize: 32
TimelineZoom: 2.899999

[Metadata]
Title:On My Own
TitleUnicode:On My Own
Artist:Panda Eyes
ArtistUnicode:Panda Eyes
Creator:Dafiely
Version:Onlybiscuit's Extreme
Source:
Tags:Drum&Bass drumstep drum n bass cut edit ver version kantoku dnb kiko Yuii- OnlyBiscuit Cris-
BeatmapID:1830690
BeatmapSetID:440160

[Difficulty]
HPDrainRate:5.4
CircleSize:4
OverallDifficulty:9.2
ApproachRate:9.3
SliderMultiplier:1.9
SliderTickRate:1

[Events]
//Background and Video events
0,0,"bg.jpg",0,0
//Break Periods
2,33780,42666
//Storyboard Layer 0 (Background)
//Storyboard Layer 1 (Fail)
//Storyboard Layer 2 (Pass)
//Storyboard Layer 3 (Foreground)
//Storyboard Sound Samples

[TimingPoints]
11512,344.827586206897,4,2,47,80,1,0
22546,-90.9090909090909,4,2,47,80,0,0
33580,-90.9090909090909,4,2,48,80,0,0
44443,-90.9090909090909,4,2,47,5,0,0
44615,-250,4,2,47,60,0,0
55649,-153.846153846154,4,2,47,75,0,0
56598,-153.846153846154,4,2,47,5,0,0
56684,-153.846153846154,4,2,47,75,0,0
59356,-153.846153846154,4,2,47,5,0,0
59443,-153.846153846154,4,2,47,75,0,0
61167,-153.846153846154,4,2,47,75,0,0
61856,-153.846153846154,4,2,47,80,0,0
62546,-153.846153846154,4,2,47,85,0,0
63236,-153.846153846154,4,2,47,90,0,0
63925,-153.846153846154,4,2,47,95,0,0
65477,-100,4,2,47,95,0,0
65994,-71.4285714285714,4,2,47,95,0,0
66080,-71.4285714285714,4,2,47,5,0,0
66167,-71.4285714285714,4,2,47,95,0,0
66253,-71.4285714285714,4,2,47,5,0,0
66339,-71.4285714285714,4,2,47,95,0,0
66425,-71.4285714285714,4,2,47,5,0,0
66512,-71.4285714285714,4,2,47,95,0,0
66598,-71.4285714285714,4,2,47,5,0,0
66684,-80,4,2,47,100,0,1
88753,-83.3333333333333,4,2,47,100,0,0
110822,-83.3333333333333,4,2,48,100,0,0

[Colours]
Combo1 : 255,255,17
Combo2 : 211,211,211
Combo3 : 128,185,255
Combo4 : 183,113,113
Combo5 : 255,0,0
Combo6 : 255,99,23

[HitObjects]
81,61,11512,6,0,P|133:59|192:73,1,95,10|0,0:0|0:0,0:0:0:0:
305,168,11856,2,0,P|258:176|211:174,1,95,0|0,1:0|3:0,0:0:0:0:
184,167,12115,1,0,3:0:0:0:
184,167,12201,2,0,P|160:163|137:156,1,47.5,0|0,3:0|3:0,0:0:0:0:
333,93,12374,1,8,3:2:0:0:
271,268,12546,1,2,1:2:0:0:
236,76,12718,1,8,0:0:0:0:
383,300,12891,6,0,P|397:244|408:201,1,95,10|0,0:0|0:0,0:0:0:0:
247,97,13236,2,0,P|258:143|270:189,1,95,0|0,1:0|3:0,0:0:0:0:
278,221,13494,1,0,3:0:0:0:
278,221,13580,2,0,L|267:286,1,47.5,0|0,3:0|3:0,0:0:0:0:
136,139,13753,1,8,3:2:0:0:
102,335,13925,1,2,1:2:0:0:
198,200,14098,1,0,0:0:0:0:
29,158,14270,6,0,P|11:104|9:55,1,95,10|0,0:0|0:0,0:0:0:0:
158,0,14615,1,0,1:0:0:0:
136,139,14787,2,0,P|123:165|112:199,1,47.5,0|0,3:0|3:0,0:0:0:0:
247,97,14960,2,0,P|238:74|228:53,1,47.5,0|0,3:0|3:0,0:0:0:0:
376,193,15132,1,8,3:2:0:0:
300,24,15305,1,2,1:2:0:0:
272,172,15477,1,8,0:0:0:0:
108,81,15649,6,0,P|63:57|4:54,1,95,10|0,0:0|0:0,0:0:0:0:
189,212,15994,1,0,1:0:0:0:
269,90,16167,2,0,L|292:26,1,47.5,0|0,3:0|3:0,0:0:0:0:
376,193,16339,2,0,L|392:237,1,47.5,0|0,3:0|3:0,0:0:0:0:
488,96,16512,1,8,3:2:0:0:
469,273,16684,1,2,1:2:0:0:
355,168,16856,1,0,0:0:0:0:
254,295,17029,6,0,P|214:292|158:276,1,95,10|0,0:0|0:0,0:0:0:0:
337,193,17374,2,0,P|382:179|429:175,1,95,0|0,1:0|3:0,0:0:0:0:
470,183,17632,1,0,3:0:0:0:
470,183,17718,2,0,P|495:197|530:205,1,47.5,0|0,3:0|3:0,0:0:0:0:
319,96,17891,1,8,3:2:0:0:
443,279,18063,1,2,1:2:0:0:
422,100,18236,1,8,0:0:0:0:
250,251,18408,6,0,P|228:299|220:342,1,95,10|0,0:0|0:0,0:0:0:0:
348,185,18753,2,0,P|338:138|318:95,1,95,0|0,1:0|3:0,0:0:0:0:
290,65,19012,1,0,3:0:0:0:
290,65,19098,2,0,P|264:48|241:36,1,47.5,0|0,3:0|3:0,0:0:0:0:
228,227,19270,1,8,3:2:0:0:
102,72,19443,1,2,1:2:0:0:
238,136,19615,1,0,0:0:0:0:
100,243,19787,6,0,P|67:259|-3:273,1,95,10|0,0:0|0:0,0:0:0:0:
160,136,20132,1,0,1:0:0:0:
244,258,20305,2,0,P|256:279|266:304,1,47.5,0|0,3:0|3:0,0:0:0:0:
381,163,20477,2,0,P|369:184|359:209,1,47.5,0|0,3:0|3:0,0:0:0:0:
248,104,20649,1,8,3:2:0:0:
457,119,20822,1,2,1:2:0:0:
337,229,20994,1,8,0:0:0:0:
218,89,21167,6,0,P|173:69|116:61,1,95,10|0,0:0|0:0,0:0:0:0:
98,243,21512,1,0,1:2:0:0:
239,125,21684,2,0,P|268:108|299:99,1,47.5,0|0,3:0|3:0,0:0:0:0:
99,220,21856,2,0,P|77:210|57:198,1,47.5,0|0,3:0|3:0,0:0:0:0:
226,145,22029,1,8,3:2:0:0:
42,303,22201,1,2,1:2:0:0:
106,132,22374,1,0,0:0:0:0:
189,334,22546,6,0,P|196:278|216:220,1,104.500003189087,8|2,0:0|0:0,0:0:0:0:
358,118,22891,1,2,1:2:0:0:
448,295,23063,1,2,0:0:0:0:
415,328,23149,1,0,0:0:0:0:
374,352,23236,1,2,0:0:0:0:
327,353,23322,1,0,0:0:0:0:
285,332,23408,1,10,0:0:0:0:
415,181,23580,1,0,1:2:0:0:
257,140,23753,1,10,0:0:0:0:
395,284,23925,6,0,P|405:223|418:175,1,104.500003189087,10|2,0:0|0:0,0:0:0:0:
236,37,24270,2,0,P|248:87|256:139,1,104.500003189087,2|2,1:2|0:0,0:0:0:0:
245,168,24529,1,0,0:0:0:0:
245,168,24615,2,0,P|240:202|229:229,1,52.2500015945435,2|0,0:0|0:0,0:0:0:0:
82,60,24787,1,8,0:0:0:0:
291,100,24960,1,2,1:2:0:0:
153,188,25132,1,2,0:0:0:0:
284,287,25305,6,0,P|346:287|388:269,1,104.500003189087,8|2,0:0|0:0,0:0:0:0:
245,168,25649,1,2,1:2:0:0:
200,333,25822,2,0,L|169:277,1,52.2500015945435,2|0,0:0|0:0,0:0:0:0:
65,208,25994,2,0,L|39:253,1,52.2500015945435,2|0,0:0|0:0,0:0:0:0:
49,364,26167,1,10,0:0:0:0:
153,188,26339,1,0,1:2:0:0:
262,267,26512,1,10,0:0:0:0:
355,159,26684,6,0,P|380:113|391:61,1,104.500003189087,10|2,0:0|0:0,0:0:0:0:
270,233,27029,1,2,1:2:0:0:
131,92,27201,1,2,0:0:0:0:
92,119,27287,1,0,0:0:0:0:
69,161,27374,1,2,0:0:0:0:
65,208,27460,1,0,0:0:0:0:
76,254,27546,1,8,0:0:0:0:
270,312,27718,1,2,1:2:0:0:
95,346,27891,1,2,0:0:0:0:
241,201,28063,6,0,P|296:183|347:175,1,104.500003189087,8|2,0:0|0:0,0:0:0:0:
162,81,28408,2,0,P|107:63|56:55,1,104.500003189087,2|2,1:2|0:0,0:0:0:0:
44,87,28667,1,0,0:0:0:0:
44,87,28753,2,0,P|18:107|-12:118,1,52.2500015945435,2|0,0:0|0:0,0:0:0:0:
158,215,28925,1,10,0:0:0:0:
278,62,29098,1,0,1:2:0:0:
350,200,29270,1,10,0:0:0:0:
466,23,29443,6,0,P|484:70|496:132,1,104.500003189087,10|2,0:0|0:0,0:0:0:0:
335,238,29787,1,2,1:2:0:0:
387,107,29960,2,0,P|377:76|368:56,1,52.2500015945435,2|0,0:0|0:0,0:0:0:0:
463,227,30132,2,0,P|473:258|482:278,1,52.2500015945435,2|0,0:0|0:0,0:0:0:0:
330,161,30305,1,8,0:0:0:0:
200,286,30477,1,2,1:2:0:0:
111,158,30649,1,2,0:0:0:0:
284,313,30822,6,0,P|335:344|393:346,1,104.500003189087,8|2,0:0|0:0,0:0:0:0:
151,224,31167,1,2,1:2:0:0:
342,121,31339,1,2,0:0:0:0:
387,107,31425,1,0,0:0:0:0:
434,109,31512,1,2,0:0:0:0:
476,129,31598,1,0,0:0:0:0:
506,165,31684,1,10,0:0:0:0:
309,217,31856,1,0,1:2:0:0:
230,92,32029,1,10,0:0:0:0:
117,234,32201,6,0,P|71:205|17:194,1,104.500003189087,10|2,0:0|0:0,0:0:0:0:
208,369,32546,2,0,P|258:357|302:329,1,104.500003189087,2|2,1:2|0:0,0:0:0:0:
325,292,32805,1,0,0:0:0:0:
325,292,32891,2,0,P|333:257|332:231,1,52.2500015945435,2|0,0:0|0:0,0:0:0:0:
241,127,33063,1,8,0:0:0:0:
143,313,33236,1,2,1:2:0:0:
56,182,33408,1,2,0:0:0:0:
225,272,33580,5,4,0:0:0:0:
256,192,43236,12,0,44443,0:0:0:0:
28,129,44615,6,0,B|122:123|101:200|202:188,1,190,6|0,0:0|0:0,0:0:0:0:
352,248,45649,2,0,P|351:159|143:34,1,342,6|0,0:0|0:0,0:0:0:0:
11,167,47374,6,0,P|37:249|56:356,1,190,6|0,0:0|0:0,0:0:0:0:
235,208,48408,2,0,B|293:198|359:246|359:246|277:330|160:312,1,342,6|0,0:0|0:0,0:0:0:0:
136,133,50132,6,0,P|69:98|0:174,1,190,6|0,0:0|0:0,0:0:0:0:
157,364,51167,2,0,B|236:200|111:189|184:23,1,342,6|0,0:0|0:0,0:0:0:0:
446,163,52891,6,0,P|355:138|245:123,1,190,6|0,0:0|0:0,0:0:0:0:
49,298,53925,2,0,P|84:314|315:227,1,304,6|0,0:0|0:0,0:0:0:0:
41,60,55649,6,0,P|28:94|18:143,1,61.7499971733095,6|0,0:0|0:0,0:0:0:0:
111,188,55994,2,0,P|121:216|129:246,1,61.7499971733095,2|0,0:0|0:0,0:0:0:0:
179,97,56339,2,0,P|226:52|262:38,1,92.6249957599642,2|0,0:0|0:0,0:0:0:0:
333,38,56684,2,0,P|322:66|314:96,1,61.7499971733095,2|2,0:0|0:0,0:0:0:0:
460,194,57029,6,0,P|452:164|441:135,1,61.7499971733095,2|2,0:0|0:0,0:0:0:0:
328,245,57374,2,0,P|335:215|346:186,1,61.7499971733095,2|2,0:0|0:0,0:0:0:0:
445,345,57718,2,0,B|376:337|406:376|308:361,1,123.499994346619,2|0,0:0|0:0,0:0:0:0:
239,302,58236,1,2,0:0:0:0:
239,302,58408,6,0,P|208:289|166:282,1,61.7499971733095,6|0,0:0|0:0,0:0:0:0:
328,245,58753,2,0,P|359:232|401:225,1,61.7499971733095,2|0,0:0|0:0,0:0:0:0:
202,172,59098,2,0,P|192:122|178:81,1,92.6249957599642,2|0,0:0|0:0,0:0:0:0:
118,22,59443,2,0,P|97:71|81:87,1,61.7499971733095,2|2,0:0|0:0,0:0:0:0:
0,198,59787,6,0,P|44:160|72:149,1,61.7499971733095,2|2,0:0|0:0,0:0:0:0:
164,258,60132,2,0,P|138:241|117:218,1,61.7499971733095,2|2,0:0|0:0,0:0:0:0:
0,370,60477,2,0,P|54:329|118:325,1,123.499994346619,2|0,0:0|0:0,0:0:0:0:
218,382,60994,1,2,0:0:0:0:
327,194,61167,5,10,0:0:0:0:
134,161,61339,1,10,0:0:0:0:
305,300,61512,1,10,0:0:0:0:
246,108,61684,1,10,0:0:0:0:
112,242,61856,5,10,0:0:0:0:
336,155,62029,1,8,0:0:0:0:
107,134,62201,1,10,0:0:0:0:
327,194,62374,1,10,0:0:0:0:
48,299,62546,5,10,0:0:0:0:
132,137,62718,1,10,0:0:0:0:
194,358,62891,1,10,0:0:0:0:
33,160,63063,1,10,0:0:0:0:
305,300,63236,5,10,0:0:0:0:
17,375,63408,1,8,0:0:0:0:
303,205,63580,1,8,0:0:0:0:
26,131,63753,1,10,0:0:0:0:
280,383,63925,5,2,1:2:0:0:
354,115,64098,1,10,0:0:0:0:
194,358,64270,5,2,1:2:0:0:
112,98,64443,1,10,0:0:0:0:
361,287,64615,5,2,1:2:0:0:
59,172,64787,1,8,0:0:0:0:
366,90,64960,5,2,1:2:0:0:
54,199,65132,1,10,0:0:0:0:
365,357,65305,5,2,1:2:0:0:
386,363,65391,1,0,1:2:0:0:
409,371,65477,2,0,P|443:369|479:363,1,47.5,10|0,0:0|0:0,0:0:0:0:
234,234,65650,5,2,1:2:0:0:
213,228,65736,1,0,1:2:0:0:
190,220,65822,2,0,P|156:222|120:228,1,47.5,10|0,0:0|0:0,0:0:0:0:
402,65,65994,6,0,P|425:97|441:145,1,66.4999979705811,0|0,1:0|0:0,0:0:0:0:
300,229,66167,2,0,P|313:198|333:172,1,66.4999979705811,4|0,0:3|0:0,0:0:0:0:
431,68,66339,2,0,P|439:106|435:156,1,66.4999979705811,4|0,0:3|0:0,0:0:0:0:
282,188,66512,2,0,P|306:165|335:148,1,66.4999979705811,4|0,0:3|0:0,0:0:0:0:
75,66,66684,5,6,0:0:0:0:
213,228,66856,1,2,0:0:0:0:
265,59,67028,1,2,1:2:0:0:
123,283,67201,1,2,0:0:0:0:
56,105,67374,2,0,P|30:46|-1:-2,1,118.75,2|0,0:0|0:0,0:0:0:0:
213,228,67718,1,2,1:2:0:0:
266,59,67891,1,2,0:0:0:0:
304,326,68063,5,10,0:0:0:0:
155,163,68236,1,2,0:0:0:0:
401,294,68408,1,10,1:2:0:0:
216,365,68580,1,2,0:0:0:0:
341,217,68753,2,0,P|390:188|470:181,1,118.75,2|0,0:0|0:0,0:0:0:0:
195,92,69098,1,0,1:2:0:0:
318,239,69270,1,2,0:0:0:0:
247,14,69443,5,6,0:0:0:0:
137,182,69615,1,2,0:0:0:0:
340,53,69787,1,2,1:2:0:0:
147,20,69960,1,2,0:0:0:0:
248,198,70132,2,0,P|270:242|290:317,1,118.75,2|0,0:0|0:0,0:0:0:0:
141,104,70477,1,2,1:2:0:0:
30,234,70649,1,2,0:0:0:0:
248,198,70822,5,10,0:0:0:0:
48,137,70994,1,2,0:0:0:0:
182,341,71167,1,10,1:2:0:0:
145,119,71339,1,2,0:0:0:0:
76,341,71512,2,0,P|42:283|28:215,1,118.75,2|0,0:0|0:0,0:0:0:0:
214,64,71856,1,0,1:2:0:0:
121,248,72029,1,2,0:0:0:0:
146,0,72201,5,6,0:0:0:0:
248,198,72374,1,2,0:0:0:0:
375,4,72546,1,2,1:2:0:0:
464,235,72718,1,2,0:0:0:0:
214,64,72891,1,2,0:0:0:0:
121,248,73063,1,0,0:0:0:0:
343,175,73236,1,2,1:2:0:0:
145,119,73408,1,2,0:0:0:0:
383,279,73580,5,10,0:0:0:0:
312,97,73753,1,2,0:0:0:0:
321,351,73925,1,10,1:2:0:0:
448,215,74098,1,2,0:0:0:0:
186,330,74270,2,0,P|129:321|67:294,1,118.75,2|0,0:0|0:0,0:0:0:0:
329,186,74615,1,0,1:2:0:0:
190,74,74787,1,2,0:0:0:0:
269,277,74960,5,6,0:0:0:0:
386,104,75132,1,2,0:0:0:0:
251,295,75305,1,2,1:2:0:0:
123,150,75477,1,2,0:0:0:0:
325,226,75649,2,0,P|382:217|444:190,1,118.75,2|0,0:0|0:0,0:0:0:0:
79,230,75994,1,2,1:2:0:0:
263,128,76167,1,2,0:0:0:0:
44,57,76339,5,10,0:0:0:0:
187,233,76512,1,2,0:0:0:0:
248,5,76684,1,10,1:2:0:0:
123,150,76856,1,2,0:0:0:0:
373,46,77029,2,0,P|448:65|500:100,1,118.75,2|0,0:0|0:0,0:0:0:0:
294,225,77374,1,0,1:2:0:0:
187,65,77546,1,2,0:0:0:0:
61,253,77718,5,6,0:0:0:0:
240,147,77891,1,2,0:0:0:0:
0,182,78063,1,2,1:2:0:0:
139,334,78236,1,2,0:0:0:0:
240,147,78408,2,0,P|253:74|251:16,1,118.75,2|0,0:0|0:0,0:0:0:0:
358,288,78753,1,2,1:2:0:0:
115,167,78925,1,2,0:0:0:0:
356,121,79098,5,10,0:0:0:0:
240,312,79270,1,2,0:0:0:0:
159,86,79443,1,10,1:2:0:0:
348,204,79615,1,2,0:0:0:0:
126,252,79787,2,0,P|63:263|14:290,1,118.75,2|0,0:0|0:0,0:0:0:0:
252,140,80132,1,0,1:2:0:0:
85,32,80305,1,2,0:0:0:0:
232,229,80477,5,6,0:0:0:0:
284,37,80649,1,2,0:0:0:0:
389,285,80822,1,2,1:2:0:0:
252,140,80994,1,2,0:0:0:0:
160,365,81167,2,0,P|138:302|124:245,1,118.75,2|0,0:0|0:0,0:0:0:0:
187,58,81512,1,2,1:2:0:0:
328,223,81684,1,10,0:0:0:0:
118,113,81856,5,10,0:0:0:0:
263,2,82029,1,2,0:0:0:0:
157,207,82201,1,10,1:2:0:0:
83,23,82374,1,2,0:0:0:0:
35,224,82546,2,0,P|13:287|-1:344,1,118.75,2|0,0:0|0:0,0:0:0:0:
227,156,82891,1,0,1:2:0:0:
30,104,83063,1,2,0:0:0:0:
294,98,83236,5,6,0:0:0:0:
141,222,83408,1,2,0:0:0:0:
369,156,83580,1,2,1:2:0:0:
223,40,83753,1,2,0:0:0:0:
352,259,83925,1,2,0:0:0:0:
386,59,84098,1,0,0:0:0:0:
256,278,84270,1,2,1:2:0:0:
104,49,84443,1,2,0:0:0:0:
182,325,84615,5,10,0:0:0:0:
369,156,84787,1,2,0:0:0:0:
142,220,84960,1,10,1:2:0:0:
342,349,85132,1,2,0:0:0:0:
251,184,85305,2,0,P|244:112|249:53,1,118.75,2|0,0:0|0:0,0:0:0:0:
182,325,85649,1,0,1:2:0:0:
354,182,85822,1,2,0:0:0:0:
114,138,85994,5,6,0:0:0:0:
276,269,86167,1,2,0:0:0:0:
34,244,86339,1,2,1:2:0:0:
251,184,86512,1,2,0:0:0:0:
115,49,86684,2,0,P|54:26|-8:15,1,118.75,2|0,0:0|0:0,0:0:0:0:
142,216,87029,1,2,1:2:0:0:
244,47,87201,1,10,0:0:0:0:
388,255,87374,5,10,0:0:0:0:
194,126,87546,1,2,0:0:0:0:
452,92,87718,1,2,1:2:0:0:
301,276,87891,1,2,0:0:0:0:
384,37,88063,2,0,B|386:137|457:134|430:285,1,237.5,2|4,0:0|0:3,0:0:0:0:
298,122,88580,1,4,0:3:0:0:
141,324,88753,6,0,P|56:315|58:190,1,227.999993041992,6|2,0:0|1:2,0:0:0:0:
213,99,89270,1,2,0:0:0:0:
287,295,89443,1,2,0:0:0:0:
129,148,89615,1,8,0:0:0:0:
378,155,89787,1,2,1:2:0:0:
203,226,89960,1,10,0:0:0:0:
478,350,90132,6,0,P|423:238|316:222,1,227.999993041992,10|2,0:0|1:2,0:0:0:0:
217,77,90649,1,2,0:0:0:0:
113,241,90822,1,2,0:0:0:0:
306,108,90994,1,8,0:0:0:0:
80,20,91167,1,2,1:2:0:0:
275,189,91339,1,2,0:0:0:0:
42,323,91512,6,0,P|37:231|16:85,1,227.999993041992,6|2,0:0|1:2,0:0:0:0:
192,0,92029,1,2,0:0:0:0:
117,159,92201,1,2,0:0:0:0:
321,95,92374,1,8,0:0:0:0:
243,292,92546,1,2,1:2:0:0:
191,92,92718,1,10,0:0:0:0:
397,190,92891,6,0,P|391:266|242:305,1,227.999993041992,10|2,0:0|1:2,0:0:0:0:
132,165,93408,1,2,0:0:0:0:
326,76,93580,1,2,0:0:0:0:
160,255,93753,1,8,0:0:0:0:
203,6,93925,1,2,1:2:0:0:
0,114,94098,1,2,0:0:0:0:
253,118,94270,6,0,B|372:84|352:176|486:129,1,227.999993041992,6|2,0:0|1:2,0:0:0:0:
231,11,94787,1,2,0:0:0:0:
281,216,94960,1,2,0:0:0:0:
421,57,95132,1,8,0:0:0:0:
202,120,95305,1,2,1:2:0:0:
397,228,95477,1,10,0:0:0:0:
131,355,95649,6,0,B|85:360|32:324|32:324|70:268|146:257,1,227.999993041992,10|2,0:0|1:2,0:0:0:0:
297,192,96167,1,2,0:0:0:0:
72,150,96339,1,2,0:0:0:0:
207,302,96512,1,8,0:0:0:0:
205,79,96684,1,2,1:2:0:0:
64,251,96856,1,2,0:0:0:0:
306,92,97029,6,0,P|400:102|457:211,1,227.999993041992,6|2,0:0|1:2,0:0:0:0:
284,367,97546,1,2,0:0:0:0:
347,197,97718,1,2,0:0:0:0:
490,378,97891,1,8,0:0:0:0:
246,261,98063,1,2,1:2:0:0:
456,211,98236,1,10,0:0:0:0:
212,78,98408,6,0,B|174:50|174:50|-11:82,1,227.999993041992,10|2,0:0|1:2,0:0:0:0:
193,166,98925,1,2,0:0:0:0:
33,284,99098,1,2,0:0:0:0:
62,40,99270,1,8,0:0:0:0:
181,249,99443,1,10,1:2:0:0:
229,38,99615,1,10,0:0:0:0:
90,225,99787,6,0,P|123:324|244:334,1,227.999993041992,6|2,0:0|1:2,0:0:0:0:
363,167,100305,1,2,0:0:0:0:
114,133,100477,1,2,0:0:0:0:
292,259,100649,1,8,0:0:0:0:
185,39,100822,1,2,1:2:0:0:
181,249,100994,1,2,0:0:0:0:
374,63,101167,6,0,B|367:170|435:165|405:290,1,227.999993041992,10|2,0:0|1:2,0:0:0:0:
235,130,101684,1,2,0:0:0:0:
454,99,101856,1,2,0:0:0:0:
286,281,102029,1,0,0:0:0:0:
374,37,102201,1,2,1:2:0:0:
86,344,102546,6,0,P|66:235|33:110,1,227.999993041992,6|2,0:0|1:2,0:0:0:0:
201,16,103063,1,2,0:0:0:0:
179,222,103236,1,2,0:0:0:0:
16,4,103408,1,8,0:0:0:0:
257,97,103580,1,2,1:2:0:0:
77,197,103753,1,2,0:0:0:0:
285,322,103925,6,0,P|366:311|362:177,1,227.999993041992,8|0,0:0|1:2,0:0:0:0:
189,94,104443,1,2,0:0:0:0:
165,333,104615,1,2,0:0:0:0:
372,185,104787,1,8,0:0:0:0:
132,145,104960,1,2,1:2:0:0:
285,322,105132,1,10,0:0:0:0:
457,150,105305,6,0,B|433:108|433:108|248:57,1,227.999993041992,6|2,0:0|1:2,0:0:0:0:
68,53,105822,1,2,0:0:0:0:
211,224,105994,1,2,0:0:0:0:
332,7,106167,1,8,0:0:0:0:
98,151,106339,1,2,1:2:0:0:
350,202,106512,1,2,0:0:0:0:
150,373,106684,6,0,P|127:249|92:133,1,227.999993041992,10|2,0:0|1:2,0:0:0:0:
233,27,107201,1,2,0:0:0:0:
215,220,107374,1,2,0:0:0:0:
58,37,107546,1,0,0:0:0:0:
12,224,107718,1,2,1:2:0:0:
332,7,108063,6,0,B|330:107|406:89|394:225,1,227.999993041992,6|2,0:0|1:2,0:0:0:0:
224,365,108580,1,2,0:0:0:0:
279,177,108753,1,2,0:0:0:0:
447,355,108925,1,8,0:0:0:0:
205,238,109098,1,2,1:2:0:0:
403,149,109270,1,2,0:0:0:0:
189,58,109443,6,0,P|104:27|24:148,1,227.999993041992,10|2,0:0|1:2,0:0:0:0:
40,301,109960,1,2,0:0:0:0:
120,132,110132,1,2,0:0:0:0:
218,347,110305,1,8,0:0:0:0:
4,131,110477,1,0,1:2:0:0:
379,225,110822,5,4,0:1:0:0:
