osu file format v14

[General]
AudioFilename: audio.mp3
AudioLeadIn: 0
PreviewTime: 66606
Countdown: 0
SampleSet: Normal
StackLeniency: 0.7
Mode: 1
LetterboxInBreaks: 0
WidescreenStoryboard: 1

[Editor]
Bookmarks: 11606,22640,33675,44709,55744,61261,66778,77813,88847,99882,110916,121951,132985,149537,155054,166089,177123,188158,199192
DistanceSpacing: 1.4
BeatDivisor: 2
GridSize: 32
TimelineZoom: 1

[Metadata]
Title:On My Own
TitleUnicode:On My Own
Artist:Panda Eyes
ArtistUnicode:Panda Eyes
Creator:Cynplytholowazy
Version:Futsuu
Source:osu!
Tags:Featured Artist FA Faputa KIKO Electronic Drumstep DnB Melodic instrumental
BeatmapID:2232419
BeatmapSetID:1065837

[Difficulty]
HPDrainRate:6.5
CircleSize:10
OverallDifficulty:3
ApproachRate:10
SliderMultiplier:1.4
SliderTickRate:1

[Events]
//Background and Video events
0,0,"twilight-505849_1920.jpg",0,-30
//Break Periods
//Storyboard Layer 0 (Background)
//Storyboard Layer 1 (Fail)
//Storyboard Layer 2 (Pass)
//Storyboard Layer 3 (Foreground)
//Storyboard Layer 4 (Overlay)
//Storyboard Sound Samples

[TimingPoints]
600,344.827586206897,4,1,0,70,1,0
600,-111.111111111111,4,1,0,70,0,0
11462,-111.111111111111,4,1,0,80,0,0
11616,344.827586206897,4,1,0,80,1,0
11616,-111.111111111111,4,1,0,80,0,0
22478,-111.111111111111,4,1,0,90,0,0
33599,-111.111111111111,4,1,0,70,0,0
44633,-111.111111111111,4,1,0,75,0,0
55582,-111.111111111111,4,1,0,80,0,0
61185,-111.111111111111,4,1,0,90,0,0
66702,-111.111111111111,4,1,0,100,0,0
66788,-111.111111111111,4,1,0,100,0,1
88340,-111.111111111111,4,1,0,90,0,1
88512,-111.111111111111,4,1,0,90,0,0
88771,-111.111111111111,4,1,0,100,0,0
88857,-111.111111111111,4,1,0,100,0,1
110581,-111.111111111111,4,1,0,100,0,0
110944,344.827586206897,4,1,0,100,1,8
110944,-111.111111111111,4,1,0,100,0,8
111117,-111.111111111111,4,1,0,70,0,0
121433,344.827586206897,4,1,0,70,1,8
121433,-111.111111111111,4,1,0,70,0,8
121787,344.827586206897,4,1,0,70,1,8
121806,-111.111111111111,4,1,0,80,0,0
121960,344.827586206897,4,1,0,80,1,0
121960,-111.111111111111,4,1,0,80,0,0
132823,-111.111111111111,4,1,0,70,0,0
149461,-111.111111111111,4,1,0,60,0,0
152219,-111.111111111111,4,1,0,70,0,0
152909,-111.111111111111,4,1,0,80,0,0
153599,-111.111111111111,4,1,0,90,0,0
154978,-111.111111111111,4,1,0,100,0,0
155063,-111.111111111111,4,1,0,100,0,1
176616,-111.111111111111,4,1,0,90,0,1
176787,-111.111111111111,4,1,0,90,0,0
177047,-111.111111111111,4,1,0,100,0,0
177132,-111.111111111111,4,1,0,100,0,1
198856,-111.111111111111,4,1,0,100,0,0
199116,-111.111111111111,4,1,0,70,0,0
221271,-111.111111111111,4,1,0,70,0,0
221615,-111.111111111111,4,1,0,66,0,0
221960,-111.111111111111,4,1,0,63,0,0
222305,-111.111111111111,4,1,0,59,0,0
222650,-111.111111111111,4,1,0,56,0,0
222995,-111.111111111111,4,1,0,52,0,0
223339,-111.111111111111,4,1,0,48,0,0
223684,-111.111111111111,4,1,0,45,0,0
224029,-111.111111111111,4,1,0,41,0,0
224374,-111.111111111111,4,1,0,38,0,0
224719,-111.111111111111,4,1,0,34,0,0
225064,-111.111111111111,4,1,0,30,0,0
225408,-111.111111111111,4,1,0,27,0,0
225753,-111.111111111111,4,1,0,23,0,0
226098,-111.111111111111,4,1,0,19,0,0
226443,-111.111111111111,4,1,0,16,0,0
226788,-111.111111111111,4,1,0,12,0,0
227133,-111.111111111111,4,1,0,9,0,0
227477,-111.111111111111,4,1,0,5,0,0

[HitObjects]
256,192,600,5,6,0:0:0:0:
256,192,1634,1,0,0:0:0:0:
256,192,3358,1,2,0:0:0:0:
256,192,4393,1,0,0:0:0:0:
256,192,6117,1,2,0:0:0:0:
256,192,7151,1,0,0:0:0:0:
256,192,8875,1,2,0:0:0:0:
256,192,9910,1,0,0:0:0:0:
256,192,11616,1,0,0:0:0:0:
256,192,11960,1,2,0:0:0:0:
256,192,12478,1,0,0:0:0:0:
256,192,12650,1,2,0:0:0:0:
256,192,12995,1,0,0:0:0:0:
256,192,13340,1,2,0:0:0:0:
256,192,13857,1,0,0:0:0:0:
256,192,14029,1,2,0:0:0:0:
256,192,14374,1,0,0:0:0:0:
256,192,14719,1,2,0:0:0:0:
256,192,15236,1,0,0:0:0:0:
256,192,15409,1,2,0:0:0:0:
256,192,15753,1,0,0:0:0:0:
256,192,16098,1,2,0:0:0:0:
256,192,16788,1,2,0:0:0:0:
256,192,17133,1,0,0:0:0:0:
256,192,17478,1,2,0:0:0:0:
256,192,17995,1,0,0:0:0:0:
256,192,18167,1,2,0:0:0:0:
256,192,18512,1,0,0:0:0:0:
256,192,18857,1,2,0:0:0:0:
256,192,19374,1,0,0:0:0:0:
256,192,19547,1,2,0:0:0:0:
256,192,19891,1,0,0:0:0:0:
256,192,20236,1,2,0:0:0:0:
256,192,20753,1,0,0:0:0:0:
256,192,20926,1,2,0:0:0:0:
256,192,21271,1,0,0:0:0:0:
256,192,21616,1,2,0:0:0:0:
256,192,22305,1,2,0:0:0:0:
256,192,22650,1,0,0:0:0:0:
256,192,22995,1,2,0:0:0:0:
256,192,23340,1,2,0:0:0:0:
256,192,23684,1,2,0:0:0:0:
256,192,23857,1,0,0:0:0:0:
256,192,24029,1,0,0:0:0:0:
256,192,24374,1,2,0:0:0:0:
256,192,24719,1,2,0:0:0:0:
256,192,25409,1,0,0:0:0:0:
256,192,25753,1,2,0:0:0:0:
256,192,26098,1,2,0:0:0:0:
256,192,26443,1,2,0:0:0:0:
256,192,26616,1,0,0:0:0:0:
256,192,26788,1,0,0:0:0:0:
256,192,27133,1,2,0:0:0:0:
256,192,27478,1,2,0:0:0:0:
256,192,28167,1,0,0:0:0:0:
256,192,28512,1,2,0:0:0:0:
256,192,28857,1,2,0:0:0:0:
256,192,29202,1,2,0:0:0:0:
256,192,29374,1,0,0:0:0:0:
256,192,29547,1,0,0:0:0:0:
256,192,29891,1,2,0:0:0:0:
256,192,30236,1,2,0:0:0:0:
256,192,30926,1,0,0:0:0:0:
256,192,31271,1,2,0:0:0:0:
256,192,31616,1,2,0:0:0:0:
256,192,31960,1,2,0:0:0:0:
256,192,32133,1,0,0:0:0:0:
256,192,32305,1,0,0:0:0:0:
256,192,32650,1,2,0:0:0:0:
256,192,33340,1,0,0:0:0:0:
256,192,33684,1,2,0:0:0:0:
256,192,34719,1,0,0:0:0:0:
256,192,36443,1,2,0:0:0:0:
256,192,37478,1,0,0:0:0:0:
256,192,39202,1,2,0:0:0:0:
256,192,40236,1,0,0:0:0:0:
256,192,41960,1,2,0:0:0:0:
256,192,42995,1,0,0:0:0:0:
256,192,44719,1,2,0:0:0:0:
256,192,45753,1,0,0:0:0:0:
256,192,47478,1,2,0:0:0:0:
256,192,48512,1,0,0:0:0:0:
256,192,50236,1,2,0:0:0:0:
256,192,51271,1,0,0:0:0:0:
256,192,52995,1,2,0:0:0:0:
256,192,54029,1,0,0:0:0:0:
256,192,55753,1,2,0:0:0:0:
256,192,56443,1,2,0:0:0:0:
256,192,56788,1,0,0:0:0:0:
256,192,57133,1,2,0:0:0:0:
256,192,57822,1,2,0:0:0:0:
256,192,58512,1,2,0:0:0:0:
256,192,59202,1,0,0:0:0:0:
256,192,59547,1,2,0:0:0:0:
256,192,59891,1,0,0:0:0:0:
256,192,60581,1,0,0:0:0:0:
256,192,61271,1,2,0:0:0:0:
256,192,61616,1,2,0:0:0:0:
256,192,61960,1,0,0:0:0:0:
256,192,62305,1,0,0:0:0:0:
256,192,62650,1,2,0:0:0:0:
256,192,62995,1,0,0:0:0:0:
256,192,63340,1,2,0:0:0:0:
256,192,63684,1,0,0:0:0:0:
256,192,64029,1,2,0:0:0:0:
256,192,64202,1,0,0:0:0:0:
256,192,64374,1,2,0:0:0:0:
256,192,64719,1,2,0:0:0:0:
256,192,64891,1,0,0:0:0:0:
256,192,65064,1,2,0:0:0:0:
256,192,65409,1,2,0:0:0:0:
256,192,65581,1,0,0:0:0:0:
256,192,65753,1,2,0:0:0:0:
256,192,65926,1,0,0:0:0:0:
256,192,66098,1,2,0:0:0:0:
256,192,66443,1,0,0:0:0:0:
256,192,66788,1,6,0:0:0:0:
256,192,67478,1,2,0:0:0:0:
256,192,67822,1,0,0:0:0:0:
256,192,67995,1,0,0:0:0:0:
256,192,68167,1,2,0:0:0:0:
256,192,68512,1,0,0:0:0:0:
256,192,68684,1,2,0:0:0:0:
256,192,68857,1,0,0:0:0:0:
256,192,69547,1,2,0:0:0:0:
256,192,69891,1,0,0:0:0:0:
256,192,70064,1,2,0:0:0:0:
256,192,70236,1,0,0:0:0:0:
256,192,70581,1,0,0:0:0:0:
256,192,70926,1,2,0:0:0:0:
256,192,71271,1,0,0:0:0:0:
256,192,71443,1,2,0:0:0:0:
256,192,71616,1,0,0:0:0:0:
256,192,72305,1,2,0:0:0:0:
256,192,72650,1,2,0:0:0:0:
256,192,72995,1,0,0:0:0:0:
256,192,73340,1,0,0:0:0:0:
256,192,73512,1,0,0:0:0:0:
256,192,73684,1,2,0:0:0:0:
256,192,74029,1,0,0:0:0:0:
256,192,74202,1,2,0:0:0:0:
256,192,74374,1,0,0:0:0:0:
256,192,75064,1,2,0:0:0:0:
256,192,75409,1,0,0:0:0:0:
256,192,75581,1,2,0:0:0:0:
256,192,75753,1,0,0:0:0:0:
256,192,76098,1,0,0:0:0:0:
256,192,76443,1,2,0:0:0:0:
256,192,76788,1,0,0:0:0:0:
256,192,76960,1,2,0:0:0:0:
256,192,77133,1,0,0:0:0:0:
256,192,77822,1,2,0:0:0:0:
256,192,78167,1,0,0:0:0:0:
256,192,78512,1,2,0:0:0:0:
256,192,78857,1,0,0:0:0:0:
256,192,79029,1,0,0:0:0:0:
256,192,79202,1,2,0:0:0:0:
256,192,79547,1,0,0:0:0:0:
256,192,79719,1,2,0:0:0:0:
256,192,79891,1,0,0:0:0:0:
256,192,80581,1,2,0:0:0:0:
256,192,80926,1,0,0:0:0:0:
256,192,81098,1,2,0:0:0:0:
256,192,81271,1,0,0:0:0:0:
256,192,81616,1,0,0:0:0:0:
256,192,81960,1,2,0:0:0:0:
256,192,82305,1,0,0:0:0:0:
256,192,82478,1,2,0:0:0:0:
256,192,82650,1,0,0:0:0:0:
256,192,83340,1,2,0:0:0:0:
256,192,83684,1,2,0:0:0:0:
256,192,84029,1,2,0:0:0:0:
256,192,84374,1,2,0:0:0:0:
256,192,84547,1,0,0:0:0:0:
256,192,84719,1,2,0:0:0:0:
256,192,85064,1,2,0:0:0:0:
256,192,85236,1,2,0:0:0:0:
256,192,85409,1,2,0:0:0:0:
256,192,86098,1,2,0:0:0:0:
256,192,86443,1,2,0:0:0:0:
256,192,86616,1,2,0:0:0:0:
256,192,86788,1,2,0:0:0:0:
256,192,87133,1,0,0:0:0:0:
256,192,87478,1,2,0:0:0:0:
256,192,87822,1,2,0:0:0:0:
256,192,87995,1,2,0:0:0:0:
256,192,88167,1,0,0:0:0:0:
256,192,88857,1,4,0:0:0:0:
256,192,89202,1,2,0:0:0:0:
256,192,89374,1,0,0:0:0:0:
256,192,89547,1,2,0:0:0:0:
256,192,89891,1,0,0:0:0:0:
256,192,90236,1,2,0:0:0:0:
256,192,90581,1,2,0:0:0:0:
256,192,90753,1,2,0:0:0:0:
256,192,90926,1,0,0:0:0:0:
256,192,91616,1,2,0:0:0:0:
256,192,91960,1,2,0:0:0:0:
256,192,92133,1,0,0:0:0:0:
256,192,92305,1,2,0:0:0:0:
256,192,92650,1,0,0:0:0:0:
256,192,92995,1,2,0:0:0:0:
256,192,93340,1,2,0:0:0:0:
256,192,93512,1,0,0:0:0:0:
256,192,93684,1,2,0:0:0:0:
256,192,94374,1,0,0:0:0:0:
256,192,94719,1,2,0:0:0:0:
256,192,94891,1,0,0:0:0:0:
256,192,95064,1,2,0:0:0:0:
256,192,95409,1,0,0:0:0:0:
256,192,95753,1,2,0:0:0:0:
256,192,96098,1,2,0:0:0:0:
256,192,96271,1,2,0:0:0:0:
256,192,96443,1,0,0:0:0:0:
256,192,97133,1,2,0:0:0:0:
256,192,97478,1,2,0:0:0:0:
256,192,97650,1,0,0:0:0:0:
256,192,97822,1,2,0:0:0:0:
256,192,98167,1,0,0:0:0:0:
256,192,98512,1,2,0:0:0:0:
256,192,98857,1,2,0:0:0:0:
256,192,99029,1,0,0:0:0:0:
256,192,99202,1,2,0:0:0:0:
256,192,99891,1,0,0:0:0:0:
256,192,100236,1,2,0:0:0:0:
256,192,100409,1,0,0:0:0:0:
256,192,100581,1,2,0:0:0:0:
256,192,100926,1,0,0:0:0:0:
256,192,101271,1,2,0:0:0:0:
256,192,101616,1,2,0:0:0:0:
256,192,101788,1,2,0:0:0:0:
256,192,101960,1,0,0:0:0:0:
256,192,102650,1,2,0:0:0:0:
256,192,102995,1,2,0:0:0:0:
256,192,103167,1,0,0:0:0:0:
256,192,103340,1,2,0:0:0:0:
256,192,103684,1,0,0:0:0:0:
256,192,104029,1,2,0:0:0:0:
256,192,104374,1,2,0:0:0:0:
256,192,104547,1,0,0:0:0:0:
256,192,104719,1,2,0:0:0:0:
256,192,105409,1,0,0:0:0:0:
256,192,105753,1,2,0:0:0:0:
256,192,105926,1,0,0:0:0:0:
256,192,106098,1,2,0:0:0:0:
256,192,106443,1,0,0:0:0:0:
256,192,106788,1,2,0:0:0:0:
256,192,107133,1,2,0:0:0:0:
256,192,107305,1,2,0:0:0:0:
256,192,107478,1,0,0:0:0:0:
256,192,108167,1,2,0:0:0:0:
256,192,108512,1,2,0:0:0:0:
256,192,108684,1,0,0:0:0:0:
256,192,108857,1,2,0:0:0:0:
256,192,109202,1,0,0:0:0:0:
256,192,109547,1,2,0:0:0:0:
256,192,109891,1,2,0:0:0:0:
256,192,110064,1,0,0:0:0:0:
256,192,110236,1,2,0:0:0:0:
256,192,110581,1,0,0:0:0:0:
256,192,110926,1,4,0:0:0:0:
256,192,111978,1,2,0:0:0:0:
256,192,113702,1,2,0:0:0:0:
256,192,114737,1,0,0:0:0:0:
256,192,116461,1,2,0:0:0:0:
256,192,117495,1,0,0:0:0:0:
256,192,119219,1,0,0:0:0:0:
256,192,120254,1,2,0:0:0:0:
256,192,121433,1,0,0:0:0:0:
256,192,121605,1,2,0:0:0:0:
256,192,121960,1,2,0:0:0:0:
256,192,122304,1,2,0:0:0:0:
256,192,122649,1,0,0:0:0:0:
256,192,122994,1,2,0:0:0:0:
256,192,123339,1,0,0:0:0:0:
256,192,123684,1,2,0:0:0:0:
256,192,124028,1,0,0:0:0:0:
256,192,124718,1,2,0:0:0:0:
256,192,125063,1,2,0:0:0:0:
256,192,125408,1,0,0:0:0:0:
256,192,125753,1,0,0:0:0:0:
256,192,126097,1,2,0:0:0:0:
256,192,126442,1,2,0:0:0:0:
256,192,126787,1,0,0:0:0:0:
256,192,127477,1,2,0:0:0:0:
256,192,127822,1,2,0:0:0:0:
256,192,128166,1,0,0:0:0:0:
256,192,128511,1,2,0:0:0:0:
256,192,128856,1,0,0:0:0:0:
256,192,129201,1,2,0:0:0:0:
256,192,129546,1,0,0:0:0:0:
256,192,130235,1,2,0:0:0:0:
256,192,130580,1,2,0:0:0:0:
256,192,130925,1,0,0:0:0:0:
256,192,131270,1,0,0:0:0:0:
256,192,131615,1,2,0:0:0:0:
256,192,131960,1,2,0:0:0:0:
256,192,132304,1,0,0:0:0:0:
256,192,132649,1,0,0:0:0:0:
256,192,132994,1,6,0:0:0:0:
256,192,134028,1,0,0:0:0:0:
256,192,135753,1,6,0:0:0:0:
256,192,136787,1,0,0:0:0:0:
256,192,138511,1,6,0:0:0:0:
256,192,139546,1,0,0:0:0:0:
256,192,141270,1,6,0:0:0:0:
256,192,142304,1,0,0:0:0:0:
256,192,144028,1,4,0:0:0:0:
256,192,145063,1,2,0:0:0:0:
256,192,146787,1,4,0:0:0:0:
256,192,147822,1,2,0:0:0:0:
256,192,149546,1,0,0:0:0:0:
256,192,149891,1,0,0:0:0:0:
256,192,150235,1,0,0:0:0:0:
256,192,150925,1,0,0:0:0:0:
256,192,151270,1,0,0:0:0:0:
256,192,151615,1,0,0:0:0:0:
256,192,152304,1,0,0:0:0:0:
256,192,152649,1,2,0:0:0:0:
256,192,152994,1,0,0:0:0:0:
256,192,153339,1,2,0:0:0:0:
256,192,153684,1,2,0:0:0:0:
256,192,153856,1,0,0:0:0:0:
256,192,154028,1,2,0:0:0:0:
256,192,154201,1,0,0:0:0:0:
256,192,154373,1,2,0:0:0:0:
256,192,154718,1,0,0:0:0:0:
256,192,155063,1,6,0:0:0:0:
256,192,155753,1,2,0:0:0:0:
256,192,156097,1,0,0:0:0:0:
256,192,156270,1,0,0:0:0:0:
256,192,156442,1,2,0:0:0:0:
256,192,156787,1,2,0:0:0:0:
256,192,157132,1,0,0:0:0:0:
256,192,157822,1,2,0:0:0:0:
256,192,158166,1,2,0:0:0:0:
256,192,158339,1,2,0:0:0:0:
256,192,158511,1,0,0:0:0:0:
256,192,158856,1,2,0:0:0:0:
256,192,159201,1,0,0:0:0:0:
256,192,159546,1,0,0:0:0:0:
256,192,159718,1,0,0:0:0:0:
256,192,159891,1,2,0:0:0:0:
256,192,160580,1,0,0:0:0:0:
256,192,160925,1,2,0:0:0:0:
256,192,161097,1,2,0:0:0:0:
256,192,161270,1,0,0:0:0:0:
256,192,161615,1,2,0:0:0:0:
256,192,161960,1,0,0:0:0:0:
256,192,162304,1,2,0:0:0:0:
256,192,162477,1,2,0:0:0:0:
256,192,162649,1,0,0:0:0:0:
256,192,163339,1,2,0:0:0:0:
256,192,163684,1,0,0:0:0:0:
256,192,163856,1,0,0:0:0:0:
256,192,164028,1,2,0:0:0:0:
256,192,164373,1,0,0:0:0:0:
256,192,164718,1,2,0:0:0:0:
256,192,165063,1,0,0:0:0:0:
256,192,165235,1,0,0:0:0:0:
256,192,165408,1,2,0:0:0:0:
256,192,166097,1,2,0:0:0:0:
256,192,166442,1,0,0:0:0:0:
256,192,166615,1,0,0:0:0:0:
256,192,166787,1,2,0:0:0:0:
256,192,167132,1,0,0:0:0:0:
256,192,167477,1,2,0:0:0:0:
256,192,167822,1,2,0:0:0:0:
256,192,167994,1,2,0:0:0:0:
256,192,168166,1,0,0:0:0:0:
256,192,168856,1,2,0:0:0:0:
256,192,169201,1,2,0:0:0:0:
256,192,169373,1,2,0:0:0:0:
256,192,169546,1,0,0:0:0:0:
256,192,169891,1,2,0:0:0:0:
256,192,170235,1,0,0:0:0:0:
256,192,170580,1,0,0:0:0:0:
256,192,170753,1,0,0:0:0:0:
256,192,170925,1,2,0:0:0:0:
256,192,171615,1,0,0:0:0:0:
256,192,171960,1,2,0:0:0:0:
256,192,172132,1,2,0:0:0:0:
256,192,172304,1,0,0:0:0:0:
256,192,172649,1,2,0:0:0:0:
256,192,172994,1,0,0:0:0:0:
256,192,173339,1,2,0:0:0:0:
256,192,173511,1,2,0:0:0:0:
256,192,173684,1,0,0:0:0:0:
256,192,174373,1,2,0:0:0:0:
256,192,174718,1,0,0:0:0:0:
256,192,174891,1,0,0:0:0:0:
256,192,175063,1,2,0:0:0:0:
256,192,175408,1,0,0:0:0:0:
256,192,175753,1,2,0:0:0:0:
256,192,176097,1,0,0:0:0:0:
256,192,176270,1,0,0:0:0:0:
256,192,176442,1,2,0:0:0:0:
256,192,177132,1,6,0:0:0:0:
256,192,177477,1,2,0:0:0:0:
256,192,177649,1,0,0:0:0:0:
256,192,177822,1,2,0:0:0:0:
256,192,178166,1,0,0:0:0:0:
256,192,178339,1,0,0:0:0:0:
256,192,178511,1,2,0:0:0:0:
256,192,178856,1,2,0:0:0:0:
256,192,179028,1,0,0:0:0:0:
256,192,179201,1,0,0:0:0:0:
256,192,179891,1,2,0:0:0:0:
256,192,180235,1,2,0:0:0:0:
256,192,180408,1,2,0:0:0:0:
256,192,180580,1,0,0:0:0:0:
256,192,180925,1,0,0:0:0:0:
256,192,181097,1,0,0:0:0:0:
256,192,181270,1,2,0:0:0:0:
256,192,181615,1,2,0:0:0:0:
256,192,181787,1,2,0:0:0:0:
256,192,181960,1,0,0:0:0:0:
256,192,182649,1,2,0:0:0:0:
256,192,182994,1,2,0:0:0:0:
256,192,183166,1,0,0:0:0:0:
256,192,183339,1,2,0:0:0:0:
256,192,183684,1,0,0:0:0:0:
256,192,183856,1,0,0:0:0:0:
256,192,184028,1,2,0:0:0:0:
256,192,184373,1,2,0:0:0:0:
256,192,184546,1,0,0:0:0:0:
256,192,184718,1,0,0:0:0:0:
256,192,185408,1,2,0:0:0:0:
256,192,185753,1,2,0:0:0:0:
256,192,185925,1,2,0:0:0:0:
256,192,186097,1,0,0:0:0:0:
256,192,186442,1,0,0:0:0:0:
256,192,186615,1,0,0:0:0:0:
256,192,186787,1,2,0:0:0:0:
256,192,187132,1,2,0:0:0:0:
256,192,187304,1,2,0:0:0:0:
256,192,187477,1,0,0:0:0:0:
256,192,188166,1,2,0:0:0:0:
256,192,188511,1,2,0:0:0:0:
256,192,188684,1,0,0:0:0:0:
256,192,188856,1,2,0:0:0:0:
256,192,189201,1,0,0:0:0:0:
256,192,189373,1,0,0:0:0:0:
256,192,189546,1,2,0:0:0:0:
256,192,189891,1,2,0:0:0:0:
256,192,190063,1,0,0:0:0:0:
256,192,190235,1,0,0:0:0:0:
256,192,190925,1,2,0:0:0:0:
256,192,191270,1,2,0:0:0:0:
256,192,191442,1,2,0:0:0:0:
256,192,191615,1,0,0:0:0:0:
256,192,191960,1,0,0:0:0:0:
256,192,192132,1,0,0:0:0:0:
256,192,192304,1,2,0:0:0:0:
256,192,192649,1,2,0:0:0:0:
256,192,192822,1,2,0:0:0:0:
256,192,192994,1,0,0:0:0:0:
256,192,193684,1,2,0:0:0:0:
256,192,194028,1,2,0:0:0:0:
256,192,194201,1,0,0:0:0:0:
256,192,194373,1,2,0:0:0:0:
256,192,194718,1,0,0:0:0:0:
256,192,194891,1,0,0:0:0:0:
256,192,195063,1,2,0:0:0:0:
256,192,195408,1,2,0:0:0:0:
256,192,195580,1,0,0:0:0:0:
256,192,195753,1,0,0:0:0:0:
256,192,196442,1,2,0:0:0:0:
256,192,196787,1,2,0:0:0:0:
256,192,196960,1,2,0:0:0:0:
256,192,197132,1,0,0:0:0:0:
256,192,197477,1,0,0:0:0:0:
256,192,197649,1,0,0:0:0:0:
256,192,197822,1,2,0:0:0:0:
256,192,198166,1,2,0:0:0:0:
256,192,198339,1,2,0:0:0:0:
256,192,198511,1,0,0:0:0:0:
256,192,198856,1,2,0:0:0:0:
256,192,199201,5,4,0:0:0:0:
256,192,200235,1,2,0:0:0:0:
256,192,201960,1,2,0:0:0:0:
256,192,202994,1,2,0:0:0:0:
256,192,204718,1,2,0:0:0:0:
256,192,205753,1,0,0:0:0:0:
256,192,207477,1,2,0:0:0:0:
256,192,208511,1,2,0:0:0:0:
256,192,210235,1,2,0:0:0:0:
256,192,211270,1,0,0:0:0:0:
256,192,212994,1,2,0:0:0:0:
256,192,214028,1,2,0:0:0:0:
256,192,215753,1,2,0:0:0:0:
256,192,216787,1,0,0:0:0:0:
256,192,218511,1,2,0:0:0:0:
256,192,219546,1,2,0:0:0:0:
256,192,219891,12,6,220925,0:0:0:0:
256,192,221270,12,6,227477,0:0:0:0:
