osu file format v14

[General]
AudioFilename: audio.mp3
AudioLeadIn: 0
PreviewTime: 66606
Countdown: 0
SampleSet: Normal
StackLeniency: 0.7
Mode: 1
LetterboxInBreaks: 0
WidescreenStoryboard: 1

[Editor]
Bookmarks: 11606,22640,33675,44709,55744,61261,66778,77813,88847,99882,110916,121951,132985,149537,155054,166089,177123,188158,199192
DistanceSpacing: 1.4
BeatDivisor: 4
GridSize: 32
TimelineZoom: 1

[Metadata]
Title:On My Own
TitleUnicode:On My Own
Artist:Panda Eyes
ArtistUnicode:Panda Eyes
Creator:Cynplytholowazy
Version:Beginner
Source:osu!
Tags:Featured Artist FA Faputa KIKO Electronic Drumstep DnB Melodic instrumental
BeatmapID:2231842
BeatmapSetID:1065837

[Difficulty]
HPDrainRate:8
CircleSize:10
OverallDifficulty:1
ApproachRate:10
SliderMultiplier:1.4
SliderTickRate:1

[Events]
//Background and Video events
0,0,"twilight-505849_1920.jpg",0,-30
//Break Periods
2,33684,44029
2,111288,121288
//Storyboard Layer 0 (Background)
//Storyboard Layer 1 (Fail)
//Storyboard Layer 2 (Pass)
//Storyboard Layer 3 (Foreground)
//Storyboard Layer 4 (Overlay)
//Storyboard Sound Samples

[TimingPoints]
600,344.827586206897,4,1,0,70,1,0
600,-133.333333333333,4,1,0,70,0,0
11462,-133.333333333333,4,1,0,80,0,0
11616,344.827586206897,4,1,0,80,1,0
11616,-133.333333333333,4,1,0,80,0,0
22478,-133.333333333333,4,1,0,90,0,0
33599,-133.333333333333,4,1,0,70,0,0
44633,-133.333333333333,4,1,0,75,0,0
55582,-133.333333333333,4,1,0,80,0,0
61185,-133.333333333333,4,1,0,90,0,0
66702,-133.333333333333,4,1,0,100,0,0
66788,-133.333333333333,4,1,0,100,0,1
88340,-133.333333333333,4,1,0,90,0,1
88512,-133.333333333333,4,1,0,90,0,0
88771,-133.333333333333,4,1,0,100,0,0
88857,-133.333333333333,4,1,0,100,0,1
110581,-133.333333333333,4,1,0,100,0,0
110944,344.827586206897,4,1,0,100,1,8
110944,-133.333333333333,4,1,0,100,0,8
111117,-133.333333333333,4,1,0,70,0,0
121433,344.827586206897,4,1,0,70,1,8
121433,-133.333333333333,4,1,0,70,0,8
121787,344.827586206897,4,1,0,70,1,8
121806,-133.333333333333,4,1,0,80,0,0
121960,344.827586206897,4,1,0,80,1,0
121960,-133.333333333333,4,1,0,80,0,0
132823,-133.333333333333,4,1,0,70,0,0
149461,-133.333333333333,4,1,0,60,0,0
152219,-133.333333333333,4,1,0,70,0,0
152909,-133.333333333333,4,1,0,80,0,0
153599,-133.333333333333,4,1,0,90,0,0
154978,-133.333333333333,4,1,0,100,0,0
155063,-133.333333333333,4,1,0,100,0,1
176616,-133.333333333333,4,1,0,90,0,1
176787,-133.333333333333,4,1,0,90,0,0
177047,-133.333333333333,4,1,0,100,0,0
177132,-133.333333333333,4,1,0,100,0,1
198856,-133.333333333333,4,1,0,100,0,0
199116,-133.333333333333,4,1,0,70,0,0
221271,-133.333333333333,4,1,0,70,0,0
221615,-133.333333333333,4,1,0,66,0,0
221960,-133.333333333333,4,1,0,63,0,0
222305,-133.333333333333,4,1,0,59,0,0
222650,-133.333333333333,4,1,0,56,0,0
222995,-133.333333333333,4,1,0,52,0,0
223339,-133.333333333333,4,1,0,48,0,0
223684,-133.333333333333,4,1,0,45,0,0
224029,-133.333333333333,4,1,0,41,0,0
224374,-133.333333333333,4,1,0,38,0,0
224719,-133.333333333333,4,1,0,34,0,0
225064,-133.333333333333,4,1,0,30,0,0
225408,-133.333333333333,4,1,0,27,0,0
225753,-133.333333333333,4,1,0,23,0,0
226098,-133.333333333333,4,1,0,19,0,0
226443,-133.333333333333,4,1,0,16,0,0
226788,-133.333333333333,4,1,0,12,0,0
227133,-133.333333333333,4,1,0,9,0,0
227477,-133.333333333333,4,1,0,5,0,0

[HitObjects]
256,192,600,5,6,0:0:0:0:
256,192,3358,1,2,0:0:0:0:
256,192,6117,1,2,0:0:0:0:
256,192,8875,1,2,0:0:0:0:
256,192,11616,1,0,0:0:0:0:
256,192,12650,1,2,0:0:0:0:
256,192,13340,1,2,0:0:0:0:
256,192,14374,1,0,0:0:0:0:
256,192,15409,1,2,0:0:0:0:
256,192,16098,1,2,0:0:0:0:
256,192,17133,1,0,0:0:0:0:
256,192,18167,1,2,0:0:0:0:
256,192,18857,1,2,0:0:0:0:
256,192,19891,1,0,0:0:0:0:
256,192,20926,1,2,0:0:0:0:
256,192,21616,1,2,0:0:0:0:
256,192,22650,1,0,0:0:0:0:
256,192,23340,1,2,0:0:0:0:
256,192,24029,1,0,0:0:0:0:
256,192,25409,1,2,0:0:0:0:
256,192,26098,1,2,0:0:0:0:
256,192,26788,1,0,0:0:0:0:
256,192,28167,1,0,0:0:0:0:
256,192,28857,1,2,0:0:0:0:
256,192,29547,1,0,0:0:0:0:
256,192,30926,1,2,0:0:0:0:
256,192,31616,1,2,0:0:0:0:
256,192,32305,1,0,0:0:0:0:
256,192,44719,5,2,0:0:0:0:
256,192,47478,1,2,0:0:0:0:
256,192,50236,1,2,0:0:0:0:
256,192,52995,1,2,0:0:0:0:
256,192,55753,1,2,0:0:0:0:
256,192,57133,1,0,0:0:0:0:
256,192,58512,1,2,0:0:0:0:
256,192,59891,1,0,0:0:0:0:
256,192,61271,1,2,0:0:0:0:
256,192,62650,1,0,0:0:0:0:
256,192,64029,1,2,0:0:0:0:
256,192,64719,1,2,0:0:0:0:
256,192,65409,1,2,0:0:0:0:
256,192,66788,1,6,0:0:0:0:
256,192,67478,1,0,0:0:0:0:
256,192,68167,1,2,0:0:0:0:
256,192,68857,1,2,0:0:0:0:
256,192,69547,1,0,0:0:0:0:
256,192,70236,1,2,0:0:0:0:
256,192,70926,1,0,0:0:0:0:
256,192,72305,1,2,0:0:0:0:
256,192,72995,1,2,0:0:0:0:
256,192,73684,1,0,0:0:0:0:
256,192,74374,1,2,0:0:0:0:
256,192,75064,1,0,0:0:0:0:
256,192,75753,1,2,0:0:0:0:
256,192,76443,1,0,0:0:0:0:
256,192,77822,1,2,0:0:0:0:
256,192,78512,1,0,0:0:0:0:
256,192,79202,1,2,0:0:0:0:
256,192,79891,1,2,0:0:0:0:
256,192,80581,1,0,0:0:0:0:
256,192,81271,1,2,0:0:0:0:
256,192,81960,1,0,0:0:0:0:
256,192,83340,1,2,0:0:0:0:
256,192,84029,1,2,0:0:0:0:
256,192,84719,1,2,0:0:0:0:
256,192,85409,1,0,0:0:0:0:
256,192,86098,1,2,0:0:0:0:
256,192,86788,1,2,0:0:0:0:
256,192,87478,1,0,0:0:0:0:
256,192,88857,1,4,0:0:0:0:
256,192,89547,1,2,0:0:0:0:
256,192,90236,1,2,0:0:0:0:
256,192,90926,1,0,0:0:0:0:
256,192,91616,1,2,0:0:0:0:
256,192,92305,1,2,0:0:0:0:
256,192,92995,1,2,0:0:0:0:
256,192,94374,1,0,0:0:0:0:
256,192,95064,1,2,0:0:0:0:
256,192,95753,1,2,0:0:0:0:
256,192,96443,1,0,0:0:0:0:
256,192,97133,1,2,0:0:0:0:
256,192,97822,1,2,0:0:0:0:
256,192,98512,1,2,0:0:0:0:
256,192,99891,1,2,0:0:0:0:
256,192,100581,1,0,0:0:0:0:
256,192,101271,1,2,0:0:0:0:
256,192,101960,1,2,0:0:0:0:
256,192,102650,1,2,0:0:0:0:
256,192,103340,1,0,0:0:0:0:
256,192,104029,1,2,0:0:0:0:
256,192,105409,1,2,0:0:0:0:
256,192,106098,1,0,0:0:0:0:
256,192,106788,1,2,0:0:0:0:
256,192,107478,1,2,0:0:0:0:
256,192,108167,1,2,0:0:0:0:
256,192,108857,1,0,0:0:0:0:
256,192,109547,1,2,0:0:0:0:
256,192,110926,1,4,0:0:0:0:
256,192,121960,5,2,0:0:0:0:
256,192,123339,1,0,0:0:0:0:
256,192,124028,1,0,0:0:0:0:
256,192,124718,1,2,0:0:0:0:
256,192,126097,1,0,0:0:0:0:
256,192,127477,1,2,0:0:0:0:
256,192,128856,1,0,0:0:0:0:
256,192,129546,1,0,0:0:0:0:
256,192,130235,1,2,0:0:0:0:
256,192,131615,1,0,0:0:0:0:
256,192,132994,1,6,0:0:0:0:
256,192,135753,1,6,0:0:0:0:
256,192,138511,1,6,0:0:0:0:
256,192,141270,1,6,0:0:0:0:
256,192,144028,1,4,0:0:0:0:
256,192,146787,1,4,0:0:0:0:
256,192,149546,1,0,0:0:0:0:
256,192,150925,1,0,0:0:0:0:
256,192,152304,1,0,0:0:0:0:
256,192,152994,1,0,0:0:0:0:
256,192,153684,1,2,0:0:0:0:
256,192,155063,1,6,0:0:0:0:
256,192,155753,1,0,0:0:0:0:
256,192,156442,1,2,0:0:0:0:
256,192,157132,1,0,0:0:0:0:
256,192,157822,1,2,0:0:0:0:
256,192,158511,1,0,0:0:0:0:
256,192,159201,1,2,0:0:0:0:
256,192,160580,1,2,0:0:0:0:
256,192,161270,1,0,0:0:0:0:
256,192,161960,1,2,0:0:0:0:
256,192,162649,1,0,0:0:0:0:
256,192,163339,1,2,0:0:0:0:
256,192,164028,1,0,0:0:0:0:
256,192,164718,1,2,0:0:0:0:
256,192,166097,1,0,0:0:0:0:
256,192,166787,1,0,0:0:0:0:
256,192,167477,1,2,0:0:0:0:
256,192,168166,1,0,0:0:0:0:
256,192,168856,1,2,0:0:0:0:
256,192,169546,1,2,0:0:0:0:
256,192,170235,1,0,0:0:0:0:
256,192,171615,1,0,0:0:0:0:
256,192,172304,1,0,0:0:0:0:
256,192,172994,1,2,0:0:0:0:
256,192,173684,1,0,0:0:0:0:
256,192,174373,1,2,0:0:0:0:
256,192,175063,1,2,0:0:0:0:
256,192,175753,1,0,0:0:0:0:
256,192,177132,1,4,0:0:0:0:
256,192,177822,1,2,0:0:0:0:
256,192,178511,1,2,0:0:0:0:
256,192,179201,1,0,0:0:0:0:
256,192,179891,1,2,0:0:0:0:
256,192,180580,1,2,0:0:0:0:
256,192,181270,1,0,0:0:0:0:
256,192,182649,1,2,0:0:0:0:
256,192,183339,1,2,0:0:0:0:
256,192,184028,1,2,0:0:0:0:
256,192,184718,1,0,0:0:0:0:
256,192,185408,1,2,0:0:0:0:
256,192,186097,1,2,0:0:0:0:
256,192,186787,1,0,0:0:0:0:
256,192,188166,1,0,0:0:0:0:
256,192,188856,1,2,0:0:0:0:
256,192,189546,1,2,0:0:0:0:
256,192,190235,1,0,0:0:0:0:
256,192,190925,1,2,0:0:0:0:
256,192,191615,1,2,0:0:0:0:
256,192,192304,1,0,0:0:0:0:
256,192,193684,1,2,0:0:0:0:
256,192,194373,1,2,0:0:0:0:
256,192,195063,1,2,0:0:0:0:
256,192,195753,1,0,0:0:0:0:
256,192,196442,1,2,0:0:0:0:
256,192,197132,1,2,0:0:0:0:
256,192,197822,1,0,0:0:0:0:
256,192,199201,1,4,0:0:0:0:
256,192,201960,1,2,0:0:0:0:
256,192,204718,1,2,0:0:0:0:
256,192,207477,1,0,0:0:0:0:
256,192,210235,1,2,0:0:0:0:
256,192,212994,1,0,0:0:0:0:
256,192,215753,1,2,0:0:0:0:
256,192,218511,1,0,0:0:0:0:
256,192,221270,8,6,227477,0:0:0:0:
