osu file format v14

[General]
AudioFilename: audio.mp3
AudioLeadIn: 0
PreviewTime: -1
Countdown: 1
SampleSet: None
StackLeniency: 0.7
Mode: 0
LetterboxInBreaks: 0
WidescreenStoryboard: 0

[Editor]
DistanceSpacing: 2
BeatDivisor: 2
GridSize: 8
TimelineZoom: 1

[Metadata]
Title:Nostalgia 64
TitleUnicode:Nostalgia 64
Artist:Panda Eyes
ArtistUnicode:Panda Eyes
Creator:jasionnn
Version:Hard
Source:
Tags:
BeatmapID:1350969
BeatmapSetID:636752

[Difficulty]
HPDrainRate:4
CircleSize:4
OverallDifficulty:4
ApproachRate:8
SliderMultiplier:1.6
SliderTickRate:1

[Events]
//Background and Video events
//Break Periods
//Storyboard Layer 0 (Background)
//Storyboard Layer 1 (Fail)
//Storyboard Layer 2 (Pass)
//Storyboard Layer 3 (Foreground)
//Storyboard Sound Samples

[TimingPoints]
100,200,4,2,0,100,1,0

[HitObjects]
144,176,100,5,0,0:0:0:0:
144,176,300,1,0,0:0:0:0:
144,176,500,1,0,0:0:0:0:
144,176,700,1,0,0:0:0:0:
298,88,900,5,0,0:0:0:0:
305,244,1100,1,0,0:0:0:0:
472,160,1300,1,0,0:0:0:0:
472,160,1500,1,0,0:0:0:0:
440,274,1700,2,0,B|389:357|284:348|284:348|257:278|169:255,1,320
200,93,2500,2,0,B|307:43|307:43|474:161,1,320
303,157,3100,1,0,0:0:0:0:
392,305,3300,2,0,L|281:227,1,80
225,275,3500,2,0,L|324:344,1,80
392,305,3700,2,0,L|281:227,1,80
225,275,3900,2,0,L|324:344,1,80
445,254,4100,5,0,0:0:0:0:
200,167,4300,1,0,0:0:0:0:
335,359,4500,1,0,0:0:0:0:
396,90,4700,5,0,0:0:0:0:
317,206,4900,2,0,B|219:286|125:157|126:157|227:146|130:39,1,320
246,145,5500,2,0,B|313:105|316:51|316:51|394:68|373:171|468:189,1,320
280,211,6100,1,0,0:0:0:0:
448,291,6300,1,0,0:0:0:0:
292,309,6500,2,0,L|91:203,1,160
317,32,6900,2,0,L|429:187,1,160
292,309,7300,2,0,L|66:343,1,160
87,143,7700,5,0,0:0:0:0:
143,53,7900,1,0,0:0:0:0:
194,224,8100,2,0,L|369:269,2,160
318,156,8700,2,0,B|465:95|465:95|297:18,1,320
162,94,9300,1,0,0:0:0:0:
316,156,9500,1,0,0:0:0:0:
323,256,9700,2,0,P|275:283|213:260,1,80
178,217,9900,2,0,P|213:151|256:142,1,80
316,156,10100,2,0,P|418:142|430:120,1,80
437,81,10300,2,0,P|370:70|345:83,1,80
272,113,10500,2,0,B|216:137|176:114|176:114|150:66|84:63,1,160
74,225,10900,6,0,B|77:297|77:297|173:357,1,160
394,120,11300,2,0,B|322:86|322:86|249:133|249:133|251:217|251:217|323:262|323:262|323:262|323:262,1,320
372,215,11900,1,0,0:0:0:0:
372,215,12100,2,0,P|368:300|291:322,1,160
168,224,12500,1,0,0:0:0:0:
168,224,12700,2,0,B|139:147|197:128|314:133|266:253|182:245|201:289|260:343|311:374|353:351|452:266|342:185,1,480
290,89,13500,1,0,0:0:0:0:
290,89,13700,2,0,P|340:49|388:126,1,160
335,261,14100,2,0,P|341:296|438:252,1,160
271,51,14500,6,0,P|172:93|140:162,1,160
368,251,14900,1,0,0:0:0:0:
202,330,15100,2,0,P|103:216|214:202,1,320
398,168,15700,2,0,B|370:95|370:95|257:50,1,160
85,196,16100,1,0,0:0:0:0:
204,35,16300,1,0,0:0:0:0:
241,287,16500,1,0,0:0:0:0:
136,82,16700,1,0,0:0:0:0:
382,102,16900,1,0,0:0:0:0:
174,192,17100,1,0,0:0:0:0:
365,319,17300,1,0,0:0:0:0:
350,137,17500,6,0,L|273:79,1,80
106,211,17700,2,0,P|180:223|123:80,1,320
361,335,18300,2,0,P|329:220|144:153,2,320
243,342,19300,2,0,L|160:305,1,80
152,218,19500,2,0,L|268:270,1,80
307,204,19700,2,0,L|220:165,2,80
449,326,20100,1,0,0:0:0:0:
258,252,20300,1,0,0:0:0:0:
425,165,20500,1,0,0:0:0:0:
245,79,20700,2,0,P|156:108|119:177,1,160
241,325,21100,1,0,0:0:0:0:
54,200,21300,1,0,0:0:0:0:
234,221,21500,2,0,L|372:132,2,160
128,200,22100,2,0,P|172:259|233:190,1,160
221,32,22500,5,0,0:0:0:0:
381,184,22700,1,0,0:0:0:0:
146,137,22900,1,0,0:0:0:0:
342,297,23100,1,0,0:0:0:0:
108,327,23300,1,0,0:0:0:0:
260,122,23500,1,0,0:0:0:0:
389,358,23700,1,0,0:0:0:0:
232,305,23900,2,0,P|190:226|219:137,1,160
312,31,24300,1,0,0:0:0:0:
335,263,24500,1,0,0:0:0:0:
256,127,24700,2,0,P|175:95|94:130,2,160
335,263,25300,2,0,P|393:282|450:182,1,160
345,39,25700,1,0,0:0:0:0:
180,123,25900,1,0,0:0:0:0:
165,296,26100,1,0,0:0:0:0:
389,286,26300,6,0,P|428:242|395:183,1,80
347,163,26500,2,0,P|278:220|395:367,1,320
463,262,27100,2,0,B|467:193|450:140|404:117|394:86|376:76|296:75|275:115|274:172|274:172|231:238|133:208|120:166,1,480
182,112,27900,6,0,P|226:80|270:84,1,80
351,171,28100,2,0,P|318:225|82:228,1,320
206,157,28700,2,0,B|249:142|297:116|282:72|250:33|275:13|335:24|401:61|410:115|432:157|432:227|429:270|420:275|403:348|388:317|337:299,1,480
173,221,29500,6,0,P|106:233|84:285,1,80
152,320,29700,2,0,P|249:324|287:95,1,320
197,187,30300,2,0,P|196:109|422:229,1,480
284,338,31100,6,0,L|178:329,1,80
143,239,31300,2,0,B|289:99|289:99|412:108,1,320
407,289,31900,2,0,B|305:355|305:355|95:312|95:312|28:119|28:119|35:115,1,480
364,112,32700,6,0,L|382:195,1,80
325,327,32900,2,0,L|256:3,1,320
151,22,33500,2,0,B|210:305|210:305|452:355,1,480
371,83,34300,6,0,L|244:60,1,80
188,114,34500,2,0,B|163:222|163:222|211:326|211:326|315:357,1,320
471,289,35100,2,0,B|519:183|519:183|430:95|430:95|300:68|300:68|246:182|231:180,1,480
293,279,35900,6,0,L|164:335,1,80
125,250,36100,2,0,B|227:75|227:75|66:79,1,320
125,250,36700,2,0,B|296:353|296:353|433:292|433:292|262:181,1,480
150,76,37500,6,0,L|259:18,1,80
231,139,37700,2,0,B|197:296|197:296|413:216,1,320
334,88,38300,2,0,B|87:38|87:38|141:289,1,480
398,312,39100,6,0,L|460:231,1,80
374,105,39300,2,0,B|154:138|154:138|90:237,1,320
226,338,39900,2,0,B|470:131|470:131|456:45|456:45|339:15,1,480
93,140,40700,6,0,L|74:225,1,80
140,319,40900,2,0,B|273:245|273:245|275:167|275:167|362:117,1,320
435,246,41500,2,0,B|378:338|378:338|257:373|257:373|129:328|129:328|41:173,1,480
265,53,42300,6,0,L|315:136,1,80
308,248,42500,2,0,B|139:156|139:156|-5:195,1,320
56,292,43100,2,0,B|207:374|207:374|514:286,1,480
313,81,43900,6,0,L|191:58,1,80
163,127,44100,2,0,L|476:349,1,320
373,115,44700,2,0,B|265:37|265:37|51:50|51:50|219:166,1,480
402,303,45500,6,0,L|302:368,1,80
233,325,45700,2,0,B|281:128|281:128|412:21,1,320
457,207,46300,2,0,B|194:317|194:317|42:189,1,480
336,76,47100,6,0,L|398:175,1,80
403,257,47300,2,0,L|96:130,1,320
438,37,47900,2,0,L|63:344,1,480
303,266,48700,6,0,L|351:147,1,80
291,85,48900,2,0,B|149:91|149:91|17:258,1,320
372,381,49500,2,0,L|68:9,1,480
315,98,50300,6,0,L|224:139,1,80
146,207,50500,2,0,L|482:304,1,320
428,116,51100,5,0,0:0:0:0:
382,75,51200,1,0,0:0:0:0:
328,54,51300,2,0,P|241:55|153:106,1,160
87,288,51700,1,0,0:0:0:0:
299,134,51900,1,0,0:0:0:0:
248,372,52100,1,0,0:0:0:0:
148,145,52300,1,0,0:0:0:0:
345,335,52500,1,0,0:0:0:0:
395,104,52700,1,0,0:0:0:0:
283,231,52900,2,0,P|193:252|102:149,1,240
201,78,53300,2,0,P|290:95|357:167,1,160
345,347,53700,1,0,0:0:0:0:
413,115,53900,1,0,0:0:0:0:
283,342,54100,1,0,0:0:0:0:
209,113,54300,1,0,0:0:0:0:
395,240,54500,5,0,0:0:0:0:
138,291,54700,1,0,0:0:0:0:
297,111,54900,1,0,0:0:0:0:
469,298,55100,1,0,0:0:0:0:
244,248,55300,1,0,0:0:0:0:
415,67,55500,1,0,0:0:0:0:
357,303,55700,1,0,0:0:0:0:
219,94,55900,2,0,P|152:84|98:136,1,80
101,177,56100,2,0,P|200:279|253:276,1,160
384,228,56500,1,0,0:0:0:0:
263,141,56700,2,0,P|273:70|430:170,1,320
371,278,57300,1,0,0:0:0:0:
211,324,57500,1,0,0:0:0:0:
108,179,57700,2,0,L|181:73,1,80
228,78,57900,2,0,L|242:181,1,80
298,219,58100,2,0,L|371:113,1,80
413,101,58300,2,0,L|427:204,1,80
484,128,58500,2,0,L|388:210,1,80
501,196,58700,2,0,L|409:177,1,80
235,133,58900,5,0,0:0:0:0:
379,309,59100,1,0,0:0:0:0:
167,209,59300,2,0,P|108:252|136:342,1,160
308,372,59700,1,0,0:0:0:0:
246,240,59900,2,0,B|173:95|380:173|444:70|359:15,1,320
183,79,60500,1,0,0:0:0:0:
386,170,60700,1,0,0:0:0:0:
179,251,60900,1,0,0:0:0:0:
325,62,61100,1,0,0:0:0:0:
87,139,61300,1,0,0:0:0:0:
318,247,61500,1,0,0:0:0:0:
87,139,61700,1,0,0:0:0:0:
325,62,61900,1,0,0:0:0:0:
191,204,62100,6,0,L|167:308,1,80
232,344,62300,2,0,L|320:288,1,80
341,211,62500,2,0,L|61:53,1,320
314,50,63100,1,0,0:0:0:0:
164,189,63300,2,0,B|164:269|164:269|245:340,1,160
430,296,63700,1,0,0:0:0:0:
256,181,63900,2,0,B|256:94|256:94|366:18,1,160
466,207,64300,1,0,0:0:0:0:
254,180,64500,1,0,0:0:0:0:
394,339,64700,1,0,0:0:0:0:
295,117,64900,1,0,0:0:0:0:
210,337,65100,1,0,0:0:0:0:
157,108,65300,1,0,0:0:0:0:
284,269,65500,1,0,0:0:0:0:
368,90,65700,6,0,P|443:60|502:136,1,160
437,301,66100,1,0,0:0:0:0:
298,110,66300,1,0,0:0:0:0:
235,308,66500,2,0,P|139:336|91:247,1,160
156,190,66900,2,0,P|207:147|206:119,1,80
149,66,67100,2,0,P|101:107|114:183,1,80
193,283,67300,1,0,0:0:0:0:
27,132,67500,1,0,0:0:0:0:
272,139,67700,1,0,0:0:0:0:
63,296,67900,1,0,0:0:0:0:
323,300,68100,1,0,0:0:0:0:
139,149,68300,1,0,0:0:0:0:
399,148,68500,1,0,0:0:0:0:
252,271,68700,6,0,L|139:310,1,80
91,256,68900,2,0,L|180:104,2,160
217,348,69500,2,0,P|336:255|194:208,1,320
81,265,70100,1,0,0:0:0:0:
119,125,70300,2,0,P|358:110|433:348,1,480
209,327,71100,2,0,L|59:232,1,160
235,202,71500,2,0,L|406:309,1,160
