osu file format v14

[General]
AudioFilename: audio.mp3
AudioLeadIn: 0
PreviewTime: -1
Countdown: 0
SampleSet: Normal
StackLeniency: 0.7
Mode: 0
LetterboxInBreaks: 0
WidescreenStoryboard: 0

[Editor]
DistanceSpacing: 0.1
BeatDivisor: 4
GridSize: 8
TimelineZoom: 1

[Metadata]
Title:Nostalgia 64
TitleUnicode:Nostalgia 64
Artist:Panda Eyes
ArtistUnicode:Panda Eyes
Creator:Flutternye
Version:Black Eyes
Source:
Tags:Dubstep Zeldastep
BeatmapID:986249
BeatmapSetID:460527

[Difficulty]
HPDrainRate:6
CircleSize:4.5
OverallDifficulty:7
ApproachRate:9.2
SliderMultiplier:1.6
SliderTickRate:1

[Events]
//Background and Video events
0,0,"BG.jpg",0,0
//Break Periods
2,102790,114791
2,204791,217191
//Storyboard Layer 0 (Background)
//Storyboard Layer 1 (Fail)
//Storyboard Layer 2 (Pass)
//Storyboard Layer 3 (Foreground)
//Storyboard Sound Samples

[TimingPoints]
191,400,4,1,0,100,1,0
26391,-200,4,1,1,80,0,0
51391,-100,4,1,1,80,0,0
83191,-200,4,1,1,100,0,0
83791,-100,4,1,1,100,0,0
127791,-100,4,1,1,100,0,1
128191,-200,4,1,1,100,0,1
128891,-100,4,1,1,100,0,1
153791,-200,4,1,1,100,0,1
154391,-100,4,1,1,100,0,1
166591,-200,4,1,1,100,0,1
166591,-200,4,1,1,100,0,0
167191,-100,4,1,1,100,0,1
179391,-100,4,1,1,100,0,0
188791,-200,4,1,1,100,0,0
189391,-100,4,1,1,100,0,0
231191,-200,4,1,1,100,0,0
241791,-100,4,1,1,100,0,0
243391,-66.6666666666667,4,1,1,100,0,0
243392,-66.6666666666667,4,1,1,100,0,1
244791,-100,4,1,1,100,0,1
245291,-66.6666666666667,4,1,1,100,0,1
252991,-200,4,1,1,100,0,1
254391,-200,4,1,1,100,0,1
256191,-66.6666666666667,4,1,1,100,0,1
256591,-100,4,1,1,100,0,1
265791,-100,4,1,1,100,0,1
307391,-66.6666666666667,4,1,1,100,0,0
311991,-100,4,1,1,100,0,0
332991,-66.6666666666667,4,1,1,100,0,0

[HitObjects]
256,192,26391,5,0,0:0:0:0:
256,192,26591,1,0,0:0:0:0:
144,96,26991,1,2,0:0:0:0:
144,96,27191,2,2,B|112:144|112:144|96:184|120:216,1,120
216,352,27991,5,0,0:0:0:0:
216,352,28191,1,0,0:0:0:0:
344,224,28591,1,2,0:0:0:0:
344,224,28791,2,2,P|312:176|240:160,1,120
216,352,29591,5,0,0:0:0:0:
216,352,29791,1,0,0:0:0:0:
254,158,30191,1,2,0:0:0:0:
254,158,30291,1,2,0:0:0:0:
254,158,30391,2,2,B|246:102|246:102|278:94|278:94|294:62,1,120
256,240,31191,5,0,0:0:0:0:
256,240,31391,1,0,0:0:0:0:
96,120,31791,1,2,0:0:0:0:
96,120,31991,2,2,P|56:152|32:232,1,120
256,240,32791,5,0,0:0:0:0:
256,240,32991,1,0,0:0:0:0:
400,88,33391,1,2,0:0:0:0:
400,88,33591,2,2,B|448:136|448:136|448:200,1,120
256,192,34391,5,0,0:0:0:0:
256,192,34591,1,0,0:0:0:0:
352,312,34991,1,2,0:0:0:0:
352,312,35091,1,2,0:0:0:0:
352,312,35191,2,2,B|328:352|328:352|240:352,1,120
208,192,35991,5,0,0:0:0:0:
208,192,36191,1,0,0:0:0:0:
376,88,36591,1,2,0:0:0:0:
376,88,36791,2,2,B|424:120|424:120|424:160|392:192,1,120
320,336,37591,5,0,0:0:0:0:
320,336,37791,1,0,0:0:0:0:
119,251,38191,1,2,0:0:0:0:
112,144,38391,2,2,B|128:168|128:168|88:208|128:264,1,120
360,216,39191,5,0,0:0:0:0:
360,216,39391,1,0,0:0:0:0:
192,224,39791,1,2,0:0:0:0:
192,224,39891,1,2,0:0:0:0:
192,224,39991,2,2,B|224:208|224:208|216:152|272:128,1,120
392,32,40791,5,0,0:0:0:0:
392,32,40991,1,0,0:0:0:0:
128,128,41391,1,2,0:0:0:0:
128,128,41591,2,2,P|160:88|224:64,1,120
72,240,42391,5,0,0:0:0:0:
72,240,42591,1,0,0:0:0:0:
256,320,42991,1,2,0:0:0:0:
256,320,43191,2,2,B|320:320|320:320|376:288,1,120
280,160,43991,5,0,0:0:0:0:
280,160,44191,1,0,0:0:0:0:
120,88,44591,1,2,0:0:0:0:
120,88,44691,1,2,0:0:0:0:
120,88,44791,2,2,B|152:88|152:88|168:56|224:40,1,120
416,112,45591,5,0,0:0:0:0:
416,112,45791,1,0,0:0:0:0:
256,192,46191,1,2,0:0:0:0:
256,192,46391,2,2,P|200:224|224:240,1,120
352,352,47191,5,0,0:0:0:0:
352,352,47391,1,0,0:0:0:0:
416,192,47791,1,2,0:0:0:0:
416,192,47991,2,2,P|416:144|352:160,1,120
256,304,48791,5,0,0:0:0:0:
256,304,48991,1,0,0:0:0:0:
128,184,49391,1,2,0:0:0:0:
128,184,49491,1,2,0:0:0:0:
128,184,49591,2,2,B|168:184|168:184|200:160|256:168,1,120
256,304,50391,6,0,P|296:328|304:328,1,40
344,176,50991,1,0,0:0:0:0:
160,176,51391,5,8,0:0:0:0:
328,176,51591,1,0,0:0:0:0:
192,272,51791,1,0,0:0:0:0:
248,112,51991,1,0,0:0:0:0:
304,272,52191,1,8,0:0:0:0:
336,184,52391,5,0,0:0:0:0:
336,184,52491,1,0,0:0:0:0:
336,184,52591,1,0,0:0:0:0:
192,272,52791,1,0,0:0:0:0:
256,160,52991,1,8,0:0:0:0:
352,248,53191,1,0,0:0:0:0:
440,144,53391,1,0,0:0:0:0:
304,168,53591,1,0,0:0:0:0:
272,288,53791,1,8,0:0:0:0:
184,200,53991,5,0,0:0:0:0:
184,200,54091,1,0,0:0:0:0:
184,200,54191,1,0,0:0:0:0:
304,104,54391,1,0,0:0:0:0:
112,72,54591,1,8,0:0:0:0:
184,200,54791,1,0,0:0:0:0:
304,104,54991,1,0,0:0:0:0:
352,240,55191,1,0,0:0:0:0:
440,144,55391,1,8,0:0:0:0:
248,192,55591,5,0,0:0:0:0:
248,192,55691,1,0,0:0:0:0:
248,192,55791,1,0,0:0:0:0:
184,304,55991,6,0,P|136:264|120:224,1,80,0|8,0:0|0:0,0:0:0:0:
264,160,56391,1,0,0:0:0:0:
264,160,56591,1,0,0:0:0:0:
360,272,56791,2,0,B|392:240|392:240|392:168,1,80,0|8,0:0|0:0,0:0:0:0:
264,80,57191,1,0,0:0:0:0:
264,80,57391,1,0,0:0:0:0:
128,152,57591,6,0,B|96:176|96:176|96:248,1,80,0|8,0:0|0:0,0:0:0:0:
360,272,57991,2,0,P|384:224|384:176,2,80
176,280,58591,1,8,0:0:0:0:
104,216,58791,1,0,0:0:0:0:
256,288,58991,2,0,P|320:280|352:264,1,80
128,224,59391,2,0,P|184:200|224:200,1,80,8|0,0:0|0:0,0:0:0:0:
344,192,59791,5,0,0:0:0:0:
224,104,59991,1,0,0:0:0:0:
104,160,60191,2,0,P|112:216|160:248,1,80,8|0,0:0|0:0,0:0:0:0:
200,280,60591,1,0,0:0:0:0:
280,152,60791,2,0,P|328:168|368:208,1,80,0|8,0:0|0:0,0:0:0:0:
200,280,61191,1,0,0:0:0:0:
128,176,61391,6,0,P|144:112|184:88,1,80
288,176,61791,1,8,0:0:0:0:
384,280,61991,1,0,0:0:0:0:
216,296,62191,2,0,P|152:256|144:224,1,80
120,104,62591,2,0,P|176:80|288:112,1,160,8|0,0:0|0:0,0:0:0:0:
208,240,63191,1,0,0:0:0:0:
384,232,63391,5,8,0:0:0:0:
384,232,63591,2,0,P|416:160|416:128,2,80
288,312,64191,2,0,B|256:304|256:304|216:336|160:328|136:280,1,160
296,128,64791,1,0,0:0:0:0:
192,56,64991,2,0,P|120:72|96:104,1,80,8|0,0:0|0:0,0:0:0:0:
64,200,65391,1,0,0:0:0:0:
248,216,65591,1,0,0:0:0:0:
224,80,65791,6,0,P|168:96|136:128,1,80,8|0,0:0|0:0,0:0:0:0:
248,216,66191,1,0,0:0:0:0:
248,352,66391,2,0,P|320:328|344:296,2,80,0|8|0,0:0|0:0|0:0,0:0:0:0:
120,296,66991,2,0,P|88:224|88:192,1,80
232,176,67391,2,0,P|232:128|320:56,1,160,8|0,0:0|0:0,0:0:0:0:
376,176,67991,5,0,0:0:0:0:
208,240,68191,1,8,0:0:0:0:
416,264,68391,1,0,0:0:0:0:
248,336,68591,1,0,0:0:0:0:
280,168,68791,1,0,0:0:0:0:
368,64,68991,2,0,P|400:96|424:160,1,80,8|0,0:0|0:0,0:0:0:0:
408,272,69391,5,0,0:0:0:0:
408,272,69591,2,0,P|352:256|320:216,1,80,0|8,0:0|0:0,0:0:0:0:
152,288,69991,2,0,P|120:232|120:192,1,80
168,80,70391,1,0,0:0:0:0:
168,80,70591,2,0,L|240:152,1,80,8|0,0:0|0:0,0:0:0:0:
328,248,70991,6,0,L|392:304,2,80,0|0|8,0:0|0:0|0:0,0:0:0:0:
216,128,71591,1,0,0:0:0:0:
120,240,71791,1,0,0:0:0:0:
256,192,71991,1,0,0:0:0:0:
145,104,72191,2,0,P|105:144|129:248,1,160,8|0,0:0|0:0,0:0:0:0:
352,296,72791,5,0,0:0:0:0:
400,144,72991,1,8,0:0:0:0:
240,96,73191,1,0,0:0:0:0:
240,96,73391,2,0,P|184:136|176:176,1,80
264,176,73791,2,0,P|328:224|336:320,1,160,8|0,0:0|0:0,0:0:0:0:
168,272,74391,5,0,0:0:0:0:
168,272,74591,2,0,P|112:232|96:192,1,80,8|0,0:0|0:0,0:0:0:0:
216,160,74991,1,0,0:0:0:0:
256,48,75191,2,0,P|320:72|336:104,2,80,0|8|0,0:0|0:0|0:0,0:0:0:0:
144,176,75791,1,0,0:0:0:0:
296,280,75991,2,0,P|336:248|360:128,1,160
216,168,76591,2,0,P|168:208|168:320,1,160,0|8,0:0|0:0,0:0:0:0:
336,288,77591,5,0,0:0:0:0:
344,144,77791,2,0,P|360:184|352:240,1,80,8|0,0:0|0:0,0:0:0:0:
176,296,78191,1,0,0:0:0:0:
176,296,78391,2,0,B|136:248|136:248|152:216|152:216|96:184|96:184|144:104,1,240
360,224,79191,1,0,0:0:0:0:
200,160,79391,2,0,L|280:192,1,80,8|0,0:0|0:0,0:0:0:0:
328,80,79791,2,0,L|240:40,1,80
136,96,80191,2,0,B|88:144|88:144|88:200|88:200|56:248,1,160,8|0,0:0|0:0,0:0:0:0:
200,328,80791,5,0,0:0:0:0:
336,224,80991,1,8,0:0:0:0:
304,96,81191,2,0,P|264:112|232:144,1,80
168,240,81591,1,0,0:0:0:0:
168,240,81791,2,0,P|232:296|248:296,1,80,8|0,0:0|0:0,0:0:0:0:
280,160,82191,1,0,0:0:0:0:
200,48,82391,2,0,L|128:136,1,80,0|8,0:0|0:0,0:0:0:0:
208,248,82791,2,0,L|280:160,1,80
432,200,83191,6,0,B|408:224|408:224|368:224|368:224|336:272,1,120
208,304,83991,1,0,0:0:0:0:
104,160,84191,1,8,0:0:0:0:
240,96,84391,1,0,0:0:0:0:
160,240,84591,1,0,0:0:0:0:
304,184,84791,1,0,0:0:0:0:
304,184,84991,2,0,L|368:264,1,80,8|0,0:0|0:0,0:0:0:0:
232,104,85391,5,0,0:0:0:0:
232,104,85591,2,0,P|168:136|152:168,1,80,0|8,0:0|0:0,0:0:0:0:
96,264,85991,1,0,0:0:0:0:
200,344,86191,2,0,P|264:304|280:280,1,80
224,200,86591,2,0,P|264:168|312:152,1,80,12|0,0:0|0:0,0:0:0:0:
344,288,86991,5,0,0:0:0:0:
344,288,87191,1,0,0:0:0:0:
456,160,87391,2,0,P|400:136|352:136,1,80,8|0,0:0|0:0,0:0:0:0:
200,144,87791,1,0,0:0:0:0:
64,200,87991,2,0,B|112:200|112:200|160:248|224:264|288:200,1,240
176,80,88791,5,0,0:0:0:0:
344,96,88991,2,0,B|384:128|384:128|384:168,1,80,8|0,0:0|0:0,0:0:0:0:
256,200,89391,1,0,0:0:0:0:
176,312,89591,2,0,B|136:280|136:280|136:216,1,80,0|8,0:0|0:0,0:0:0:0:
256,112,90391,5,0,0:0:0:0:
416,256,90591,2,0,P|360:296|320:304,1,80,8|0,0:0|0:0,0:0:0:0:
184,216,90991,2,0,P|144:176|144:128,1,80
256,144,91391,2,0,P|288:176|288:240,1,80,8|0,0:0|0:0,0:0:0:0:
104,312,91991,5,0,0:0:0:0:
280,312,92191,2,0,P|328:288|352:264,1,80,8|0,0:0|0:0,0:0:0:0:
344,136,92591,2,0,P|280:160|256:192,2,80,0|0|12,0:0|0:0|0:0,0:0:0:0:
368,96,93591,5,0,0:0:0:0:
232,96,93791,2,0,P|176:120|152:160,1,80,8|0,0:0|0:0,0:0:0:0:
64,264,94191,2,0,P|112:304|160:304,1,80
288,184,94591,2,0,P|320:224|312:280,1,80,8|0,0:0|0:0,0:0:0:0:
224,120,95191,5,0,0:0:0:0:
224,120,95391,2,0,P|272:96|328:96,1,80,8|0,0:0|0:0,0:0:0:0:
424,168,95791,1,0,0:0:0:0:
304,240,95991,2,0,P|264:264|208:256,1,80,0|8,0:0|0:0,0:0:0:0:
128,96,96791,5,0,0:0:0:0:
72,240,96991,1,8,0:0:0:0:
128,96,97191,1,0,0:0:0:0:
72,240,97391,2,0,P|136:280|160:272,1,80
272,200,97791,2,0,P|232:160|184:160,1,80
240,296,98391,6,0,P|288:312|328:296,1,80,0|8,0:0|0:0,0:0:0:0:
280,224,98791,2,0,P|312:192|320:144,1,80
168,120,99191,1,0,0:0:0:0:
88,232,99391,1,8,0:0:0:0:
304,80,99991,6,0,P|352:128|360:176,1,80
152,216,100591,1,0,0:0:0:0:
152,216,100791,2,0,P|192:272|224:280,1,80,0|4,0:0|0:0,0:0:0:0:
368,200,101591,5,4,0:0:0:0:
256,80,101791,1,4,0:0:0:0:
368,200,102191,2,0,P|328:240|216:240,1,160,4|4,0:0|0:0,0:0:0:0:
256,192,115391,5,4,0:0:0:0:
384,120,115791,1,0,0:0:0:0:
144,120,116191,1,0,0:0:0:0:
384,240,116591,1,0,0:0:0:0:
144,248,116991,1,4,0:0:0:0:
384,240,117391,5,0,0:0:0:0:
448,136,117591,1,0,0:0:0:0:
368,56,117791,1,0,0:0:0:0:
144,248,118191,1,0,0:0:0:0:
152,72,118591,5,4,0:0:0:0:
264,160,118791,1,0,0:0:0:0:
144,248,118991,1,0,0:0:0:0:
392,80,119391,1,0,0:0:0:0:
144,128,119791,1,0,0:0:0:0:
368,192,120191,5,4,0:0:0:0:
224,248,120391,1,0,0:0:0:0:
144,128,120591,1,0,0:0:0:0:
400,304,120991,1,0,0:0:0:0:
224,248,121391,1,0,0:0:0:0:
344,96,121791,5,4,0:0:0:0:
176,104,121991,1,0,0:0:0:0:
224,248,122191,1,0,0:0:0:0:
408,192,122591,1,0,0:0:0:0:
176,104,122991,1,0,0:0:0:0:
104,272,123391,5,4,0:0:0:0:
248,192,123591,1,0,0:0:0:0:
344,288,123791,1,0,0:0:0:0:
408,136,124191,1,0,0:0:0:0:
200,136,124591,1,0,0:0:0:0:
368,248,124991,1,4,0:0:0:0:
368,248,125591,6,0,P|336:288|288:304,1,80
152,152,126191,1,0,0:0:0:0:
368,248,126391,2,0,B|344:320|280:312|280:312|272:352|160:336,1,240
288,232,127191,2,0,P|256:176|256:136,1,80
171,337,127791,1,0,0:0:0:0:
144,128,128191,6,0,B|176:88|176:88|208:112|208:112|240:88,1,120
336,152,128991,2,0,P|296:208|264:216,1,80,8|0,0:0|0:0,0:0:0:0:
272,216,129291,1,0,0:0:0:0:
256,216,129391,2,0,P|224:192|216:128,1,80
208,144,129691,1,0,0:0:0:0:
200,136,129791,2,0,P|152:104|120:104,1,80,8|0,0:0|0:0,0:0:0:0:
280,80,130191,6,0,L|376:128,1,80
304,192,130591,2,0,L|392:240,1,80,8|0,0:0|0:0,0:0:0:0:
328,304,130991,2,0,L|416:360,1,80
304,192,131391,2,0,B|248:160|248:160|248:128|248:128|168:80,1,160,8|0,0:0|0:0,0:0:0:0:
88,112,131991,5,0,0:0:0:0:
272,88,132191,2,0,P|328:96|376:128,1,80,8|0,0:0|0:0,0:0:0:0:
352,232,132591,2,0,P|416:264|432:296,2,80,0|0|8,0:0|0:0|0:0,0:0:0:0:
176,272,133191,2,0,P|128:232|112:192,2,80
320,312,133791,2,0,B|320:240|320:240|384:200|344:136,1,160,8|0,0:0|0:0,0:0:0:0:
256,160,134591,5,0,0:0:0:0:
217,170,134691,1,0,0:0:0:0:
188,196,134791,1,0,0:0:0:0:
174,234,134891,1,0,0:0:0:0:
178,273,134991,1,0,0:0:0:0:
199,306,135091,1,0,0:0:0:0:
234,326,135191,1,0,0:0:0:0:
273,328,135291,1,0,0:0:0:0:
304,320,135391,2,0,P|344:296|368:232,1,80
248,232,135791,5,0,0:0:0:0:
248,120,135991,2,0,P|200:128|160:168,1,80
248,232,136391,1,0,0:0:0:0:
368,168,136591,2,0,P|400:240|392:272,1,80
248,120,136991,1,0,0:0:0:0:
120,216,137191,2,0,B|104:256|104:256|136:304,1,80
248,232,137591,5,0,0:0:0:0:
384,296,137791,2,0,P|328:336|288:336,1,80
224,192,138191,2,0,P|264:168|288:168,1,40
272,232,138391,2,0,P|328:224|336:216,1,40
368,112,138591,1,0,0:0:0:0:
184,160,138791,5,0,0:0:0:0:
272,40,138991,1,0,0:0:0:0:
88,104,139191,1,0,0:0:0:0:
120,272,139391,1,0,0:0:0:0:
184,160,139591,1,0,0:0:0:0:
264,272,139791,2,0,P|320:216|320:136,1,160
296,80,140391,5,0,0:0:0:0:
176,208,140591,1,0,0:0:0:0:
384,264,140791,1,0,0:0:0:0:
240,136,140991,2,0,P|176:128|128:144,1,80
104,280,141391,2,0,P|160:312|208:304,1,80
192,184,141791,1,0,0:0:0:0:
328,224,141991,1,0,0:0:0:0:
384,112,142191,6,0,P|320:80|288:80,1,80
160,80,142591,2,0,P|120:96|80:136,1,80
288,80,142991,2,0,L|376:152,1,80
224,176,143391,2,0,L|152:224,1,80
288,272,143791,2,0,L|360:336,1,80
224,176,144191,2,0,B|296:176|296:176|360:96,1,160
136,176,144791,1,0,0:0:0:0:
248,96,144991,1,0,0:0:0:0:
136,176,145391,6,0,P|152:240|176:264,1,80
320,160,145791,1,0,0:0:0:0:
424,256,145991,2,0,P|368:288|328:288,1,80
192,280,146391,1,0,0:0:0:0:
48,232,146591,2,0,P|72:192|136:176,2,80
184,232,147391,5,0,0:0:0:0:
221,218,147491,1,0,0:0:0:0:
248,189,147591,1,0,0:0:0:0:
273,158,147691,1,0,0:0:0:0:
306,136,147791,1,0,0:0:0:0:
345,142,147891,1,0,0:0:0:0:
377,166,147991,1,0,0:0:0:0:
401,198,148091,1,0,0:0:0:0:
416,224,148191,2,0,P|440:288|440:320,1,80
272,288,148591,5,0,0:0:0:0:
160,176,148791,1,0,0:0:0:0:
208,331,148991,2,0,P|264:299|272:256,1,80
216,152,149391,2,0,P|176:192|176:248,1,80
352,232,149791,1,0,0:0:0:0:
216,152,149991,1,0,0:0:0:0:
144,40,150191,2,0,B|176:80|176:80|112:112|136:208,1,160
288,160,150991,6,0,P|328:144|352:144,1,40
352,200,151191,2,0,P|312:216|304:240,1,40
272,256,151391,1,0,0:0:0:0:
112,152,151591,1,0,0:0:0:0:
352,200,151791,1,0,0:0:0:0:
264,80,151991,1,0,0:0:0:0:
136,256,152191,1,0,0:0:0:0:
336,136,152391,1,0,0:0:0:0:
112,152,152591,6,0,P|128:200|176:232,1,80
304,288,152991,1,0,0:0:0:0:
376,144,153191,1,0,0:0:0:0:
216,96,153391,1,0,0:0:0:0:
216,96,153591,1,0,0:0:0:0:
136,216,153791,6,0,B|208:224|208:224|256:184,1,120
336,96,154591,2,0,P|384:128|408:176,1,80
320,248,154991,2,0,P|296:304|264:328,1,80
152,256,155391,2,0,P|80:240|56:208,1,80,4|0,0:0|0:0,0:0:0:0:
224,72,155791,1,4,0:0:0:0:
384,160,156191,1,4,0:0:0:0:
216,240,156591,1,4,0:0:0:0:
328,272,156991,6,0,B|376:264|376:264|416:160,1,160
256,96,157791,2,0,P|192:128|176:168,1,80
280,224,158191,1,0,0:0:0:0:
96,200,158391,1,0,0:0:0:0:
224,296,158591,1,0,0:0:0:0:
336,136,158791,1,0,0:0:0:0:
408,272,158991,1,0,0:0:0:0:
336,136,159391,2,0,B|256:120|256:120|240:48|176:56,1,160
168,128,160191,5,0,0:0:0:0:
137,153,160291,1,0,0:0:0:0:
120,189,160391,1,0,0:0:0:0:
119,229,160491,1,0,0:0:0:0:
134,265,160591,1,0,0:0:0:0:
163,293,160691,1,0,0:0:0:0:
200,306,160791,1,0,0:0:0:0:
240,303,160891,1,0,0:0:0:0:
272,288,160991,2,0,P|312:264|328:232,1,80
200,176,161391,5,0,0:0:0:0:
88,112,161591,2,0,P|136:64|176:64,1,80,0|4,0:0|0:0,0:0:0:0:
296,64,161991,1,0,0:0:0:0:
384,160,162191,2,0,P|400:208|400:272,1,80
240,224,162591,5,0,0:0:0:0:
240,328,162791,2,0,P|176:304|136:224,1,160
240,96,163391,2,0,P|288:104|336:144,1,80,4|0,0:0|0:0,0:0:0:0:
336,240,163791,6,0,P|288:216|272:224,1,40
288,272,163991,2,0,P|256:248|248:224,1,40
232,192,164191,1,0,0:0:0:0:
96,128,164391,1,0,0:0:0:0:
304,80,164591,1,0,0:0:0:0:
176,240,164791,1,0,0:0:0:0:
344,168,164991,2,0,P|376:224|368:256,1,80,4|0,0:0|0:0,0:0:0:0:
264,344,165391,2,0,P|192:352|160:336,1,80
160,160,165791,2,0,P|184:128|240:104,1,80
152,248,166191,2,0,P|200:216|216:176,1,80
312,80,166591,6,0,B|344:104|344:104|344:200,1,120
320,304,167391,2,0,P|280:312|256:304,1,40
288,256,167591,2,0,P|240:264|224:280,1,40
192,240,167791,2,0,P|216:208|240:200,1,40
264,176,167991,2,0,P|232:152|200:152,1,40
176,128,168191,2,0,P|200:96|272:96,1,80,4|0,0:0|0:0,0:0:0:0:
384,120,168591,1,0,0:0:0:0:
256,280,168991,1,0,0:0:0:0:
80,160,169391,6,0,P|144:128|176:128,1,80
368,208,169791,2,0,B|328:200|328:200|288:128|216:144,1,160
240,240,170391,1,0,0:0:0:0:
176,352,170591,2,0,P|120:328|104:288,1,80,4|0,0:0|0:0,0:0:0:0:
136,144,170991,2,0,P|104:192|104:232,1,80
240,240,171391,2,0,B|264:224|264:224|280:240|280:240|336:216,2,80
216,64,172191,2,0,B|296:88|296:88|296:128|296:128|352:160,1,160
424,224,172991,5,0,0:0:0:0:
401,256,173091,1,0,0:0:0:0:
369,280,173191,1,0,0:0:0:0:
332,294,173291,1,0,0:0:0:0:
292,295,173391,1,0,0:0:0:0:
254,283,173491,1,0,0:0:0:0:
221,261,173591,1,0,0:0:0:0:
197,229,173691,1,0,0:0:0:0:
184,200,173791,2,0,P|176:160|192:112,1,80
344,168,174191,5,0,0:0:0:0:
256,312,174391,1,0,0:0:0:0:
80,272,174591,2,0,P|120:208|144:200,1,80,4|0,0:0|0:0,0:0:0:0:
344,168,174991,2,0,B|240:152|240:152|232:112|176:104,1,160
120,207,175591,2,0,P|96:232|80:280,1,80
368,280,176191,1,4,0:0:0:0:
256,96,176591,2,0,P|208:112|192:128,1,40
248,160,176791,2,0,P|208:176|184:168,1,40
144,168,176991,1,0,0:0:0:0:
256,320,177191,5,0,0:0:0:0:
400,184,177391,1,0,0:0:0:0:
256,64,177591,1,0,0:0:0:0:
112,192,177791,2,0,P|136:248|160:264,1,80,4|0,0:0|0:0,0:0:0:0:
352,192,178191,2,0,P|384:232|384:280,1,80
272,280,178791,6,0,P|232:288|208:280,1,40
176,224,178991,2,0,P|160:184|168:160,1,40
224,120,179191,2,0,P|264:104|280:112,1,40
264,200,179391,1,4,0:0:0:0:
112,112,179591,5,0,0:0:0:0:
296,80,179791,1,0,0:0:0:0:
144,224,179991,1,0,0:0:0:0:
328,192,180191,1,0,0:0:0:0:
152,312,180591,2,0,P|208:336|256:320,1,80
208,256,180991,1,0,0:0:0:0:
272,120,181591,5,0,0:0:0:0:
136,64,181791,1,4,0:0:0:0:
136,64,182191,2,0,P|120:120|128:152,1,80,4|4,0:0|0:0,0:0:0:0:
200,112,182591,1,0,0:0:0:0:
336,288,183191,5,0,0:0:0:0:
344,144,183391,2,0,P|360:184|352:240,1,80
176,296,183791,1,0,0:0:0:0:
176,296,183991,2,0,B|160:224|160:224|120:160|120:160|152:112|152:112|152:64,1,240
360,224,184791,1,0,0:0:0:0:
200,160,184991,2,0,L|280:192,1,80
328,80,185391,2,0,L|240:40,1,80
80,64,185791,2,0,B|136:104|136:104|112:152|112:152|144:216,1,160
200,320,186391,1,0,0:0:0:0:
336,224,186591,1,0,0:0:0:0:
304,96,186791,2,0,P|264:112|232:144,1,80
168,240,187191,1,0,0:0:0:0:
168,240,187391,2,0,P|232:296|248:296,1,80,4|0,0:0|0:0,0:0:0:0:
288,160,187791,5,0,0:0:0:0:
200,48,187991,2,0,L|112:128,1,80
168,240,188391,2,0,L|248:168,1,80
424,192,188791,6,0,B|416:224|416:224|384:224|384:224|344:264,1,120
208,304,189591,1,0,0:0:0:0:
104,160,189791,1,0,0:0:0:0:
240,96,189991,1,0,0:0:0:0:
160,240,190191,1,0,0:0:0:0:
304,184,190391,5,0,0:0:0:0:
304,184,190591,2,0,L|368:264,1,80,4|0,0:0|0:0,0:0:0:0:
232,104,190991,1,0,0:0:0:0:
232,104,191191,2,0,P|168:136|152:168,1,80
96,264,191591,1,0,0:0:0:0:
200,344,191791,2,0,P|264:304|280:280,1,80
224,200,192191,2,0,P|264:168|312:152,1,80,4|0,0:0|0:0,0:0:0:0:
344,288,192591,1,0,0:0:0:0:
344,288,192791,1,0,0:0:0:0:
456,160,192991,6,0,P|400:136|352:136,1,80,4|0,0:0|0:0,0:0:0:0:
200,144,193391,1,0,0:0:0:0:
96,288,193591,2,0,B|152:312|152:312|192:280|192:280|264:336|320:264,1,240
176,80,194391,1,0,0:0:0:0:
320,88,194591,2,0,P|376:112|384:128,1,80
256,200,194991,1,0,0:0:0:0:
120,256,195191,2,0,P|152:296|192:312,1,80
256,112,195991,5,0,0:0:0:0:
416,256,196191,2,0,P|360:296|320:304,1,80
184,216,196591,2,0,P|144:176|144:128,1,80
240,144,196991,2,0,P|272:176|272:240,1,80,4|0,0:0|0:0,0:0:0:0:
104,312,197591,5,0,0:0:0:0:
280,312,197791,2,0,P|328:288|352:264,1,80
344,136,198191,2,0,P|280:160|256:192,2,80,0|0|4,0:0|0:0|0:0,0:0:0:0:
368,96,199191,5,0,0:0:0:0:
232,96,199391,2,0,P|176:120|152:160,1,80
96,304,199791,2,0,L|128:216,1,80
304,328,200191,2,0,P|360:312|392:272,1,80,4|0,0:0|0:0,0:0:0:0:
224,120,200791,5,0,0:0:0:0:
224,120,200991,2,0,P|272:96|328:96,1,80
424,168,201391,1,0,0:0:0:0:
304,240,201591,2,0,P|264:264|208:256,1,80,0|4,0:0|0:0,0:0:0:0:
128,96,202391,5,0,0:0:0:0:
72,240,202591,1,0,0:0:0:0:
72,240,202991,2,0,P|136:280|160:272,1,80
240,296,203991,6,0,P|288:312|328:296,1,80,4|4,0:0|0:0,0:0:0:0:
272,120,204591,1,4,0:0:0:0:
328,88,217791,5,0,0:0:0:0:
144,88,217991,1,0,0:0:0:0:
328,152,218191,1,0,0:0:0:0:
144,152,218391,1,0,0:0:0:0:
328,216,218591,1,0,0:0:0:0:
144,216,218791,1,0,0:0:0:0:
328,280,218991,6,2,P|272:312|224:304,2,80
384,168,219591,1,0,0:0:0:0:
240,104,219791,1,0,0:0:0:0:
112,168,219991,1,0,0:0:0:0:
240,104,220191,2,2,P|296:112|328:136,2,80
232,256,220791,5,0,0:0:0:0:
232,256,220991,2,2,L|168:328,2,80
304,152,221591,1,0,0:0:0:0:
112,112,221791,1,0,0:0:0:0:
224,248,221991,1,0,0:0:0:0:
112,112,222191,1,0,0:0:0:0:
264,56,222391,1,0,0:0:0:0:
352,200,222591,1,0,0:0:0:0:
224,248,222991,6,2,L|160:152,1,80
352,200,223591,1,0,0:0:0:0:
224,248,223991,2,2,L|160:160,1,80
112,96,224591,5,0,0:0:0:0:
336,96,224991,1,0,0:0:0:0:
360,168,225591,1,0,0:0:0:0:
240,280,225791,1,0,0:0:0:0:
128,160,226191,2,2,P|160:104|200:72,1,80
408,96,226791,1,0,0:0:0:0:
256,256,227191,1,0,0:0:0:0:
136,120,228791,5,0,0:0:0:0:
304,80,228991,1,0,0:0:0:0:
224,248,229391,1,0,0:0:0:0:
376,216,229591,1,0,0:0:0:0:
200,120,229991,1,0,0:0:0:0:
104,248,230591,1,0,0:0:0:0:
320,336,231191,5,0,0:0:0:0:
320,336,231391,1,0,0:0:0:0:
119,251,231791,1,0,0:0:0:0:
112,144,231991,2,2,B|128:168|128:168|88:208|128:264,1,120
360,216,232791,5,0,0:0:0:0:
360,216,232991,1,0,0:0:0:0:
192,224,233391,1,0,0:0:0:0:
192,224,233491,1,0,0:0:0:0:
192,224,233591,2,0,B|224:208|224:208|216:152|272:128,1,120
392,32,234391,5,0,0:0:0:0:
392,32,234591,1,0,0:0:0:0:
128,128,234991,1,0,0:0:0:0:
128,128,235191,2,2,P|160:88|224:64,1,120
72,240,235991,5,0,0:0:0:0:
72,240,236191,1,0,0:0:0:0:
256,320,236591,1,0,0:0:0:0:
256,320,236791,2,0,B|320:320|320:320|376:288,1,120
280,160,237591,5,0,0:0:0:0:
280,160,237791,1,0,0:0:0:0:
120,88,238191,1,0,0:0:0:0:
120,88,238291,1,0,0:0:0:0:
120,88,238391,2,2,B|152:88|152:88|168:56|224:40,1,120
416,112,239191,5,0,0:0:0:0:
416,112,239391,1,0,0:0:0:0:
256,192,239791,1,0,0:0:0:0:
256,192,239991,2,0,P|200:224|224:240,1,120
352,352,240791,1,0,0:0:0:0:
352,352,240991,1,0,0:0:0:0:
200,184,241391,5,0,0:0:0:0:
200,184,241591,1,0,0:0:0:0:
376,184,241791,2,0,P|352:256|328:272,2,80,8|0|8,0:0|0:0|0:0,0:0:0:0:
192,112,242691,2,0,P|152:160|152:200,2,80,8|0|8,0:0|0:0|0:0,0:0:0:0:
296,296,243391,6,0,P|352:256|376:200,1,120.000004577637,4|0,0:0|0:0,0:0:0:0:
320,72,243791,1,0,0:0:0:0:
320,72,243991,2,0,P|256:112|232:168,1,120.000004577637
128,280,244591,5,0,0:0:0:0:
128,280,244791,2,0,B|184:280|184:280|232:248,1,80,0|4,0:0|0:0,0:0:0:0:
232,240,245191,2,0,B|272:208|272:208|336:208,1,80
144,128,245591,1,0,0:0:0:0:
144,128,245791,2,0,P|216:96|288:96,1,120.000004577637
208,224,246191,2,0,P|280:240|344:216,1,120.000004577637
352,136,246591,2,0,P|408:184|432:256,1,120.000004577637,4|0,0:0|0:0,0:0:0:0:
216,272,246991,5,0,0:0:0:0:
128,184,247191,2,0,P|112:120|160:80,1,120.000004577637
288,144,247591,1,0,0:0:0:0:
288,144,247791,2,0,B|368:152|368:152|392:200,1,120.000004577637
176,72,248191,2,0,P|136:136|152:192,2,120.000004577637,4|0|0,0:0|0:0|0:0,0:0:0:0:
320,144,248791,1,0,0:0:0:0:
176,264,248991,1,0,0:0:0:0:
336,296,249191,1,0,0:0:0:0:
336,296,249391,2,0,P|384:256|424:184,2,120.000004577637,0|0|4,0:0|0:0|0:0,0:0:0:0:
208,128,250391,5,0,0:0:0:0:
208,128,250591,1,0,0:0:0:0:
88,240,250991,2,2,P|128:304|192:312,1,120.000004577637
168,232,251391,2,0,P|240:216|272:168,1,120.000004577637
296,80,251991,2,2,P|352:120|384:192,1,120.000004577637
264,312,252391,1,0,0:0:0:0:
264,312,252591,2,0,B|224:296|224:296|232:256|232:256|192:240|192:200,1,120.000004577637
256,192,252991,1,0,0:0:0:0:
256,192,253591,5,0,0:0:0:0:
256,192,253791,1,0,0:0:0:0:
128,96,254191,1,0,0:0:0:0:
128,96,254391,2,2,P|88:152|96:224,1,120.000004577637
184,336,255191,1,0,0:0:0:0:
184,336,255391,1,0,0:0:0:0:
344,288,255791,5,0,0:0:0:0:
424,192,255991,1,0,0:0:0:0:
256,296,256191,2,0,L|256:160,1,120.000004577637,4|0,0:0|0:0,0:0:0:0:
192,128,256591,2,0,L|144:96,1,40
176,200,256791,2,0,L|112:200,1,40
200,272,256991,2,0,L|144:304,1,40,4|0,0:0|0:0,0:0:0:0:
112,320,257191,1,0,0:0:0:0:
312,216,257391,5,0,0:0:0:0:
208,112,257591,2,0,P|168:88|104:88,1,80,0|4,0:0|0:0,0:0:0:0:
112,256,257991,1,0,0:0:0:0:
288,320,258191,1,0,0:0:0:0:
304,168,258391,2,0,L|304:80,1,80,0|4,0:0|0:0,0:0:0:0:
104,152,258791,1,0,0:0:0:0:
304,232,258991,1,0,0:0:0:0:
104,240,259191,1,0,0:0:0:0:
304,232,259391,2,0,P|304:176|232:88,1,160,4|0,0:0|0:0,0:0:0:0:
112,224,259991,5,0,0:0:0:0:
280,288,260191,1,4,0:0:0:0:
152,152,260391,1,0,0:0:0:0:
312,208,260591,1,0,0:0:0:0:
208,80,260791,2,0,L|288:128,1,80,0|4,0:0|0:0,0:0:0:0:
408,184,261191,5,0,0:0:0:0:
200,232,261391,1,0,0:0:0:0:
400,296,261591,1,0,0:0:0:0:
272,328,261791,1,4,0:0:0:0:
288,144,261991,1,0,0:0:0:0:
120,120,262191,1,0,0:0:0:0:
120,120,262391,2,2,P|104:192|112:224,1,80,2|6,0:0|0:0,0:0:0:0:
256,288,262991,6,0,L|296:312,1,40
304,256,263191,2,0,L|368:256,1,40
336,200,263391,2,0,L|400:184,1,40,4|0,0:0|0:0,0:0:0:0:
336,144,263591,1,0,0:0:0:0:
144,96,263791,1,0,0:0:0:0:
296,224,263991,1,0,0:0:0:0:
120,160,264191,2,0,P|96:216|104:248,1,80,4|0,0:0|0:0,0:0:0:0:
296,224,264591,5,0,0:0:0:0:
200,104,264791,1,0,0:0:0:0:
232,248,264991,1,4,0:0:0:0:
264,104,265191,1,0,0:0:0:0:
168,224,265391,1,0,0:0:0:0:
312,144,265591,2,0,P|360:160|376:184,1,80,0|4,0:0|0:0,0:0:0:0:
312,216,266191,6,2,L|272:240,1,40
256,296,266391,2,0,P|224:272|216:224,1,80,0|4,0:0|0:0,0:0:0:0:
176,88,266991,6,2,L|200:136,1,40
184,184,267191,2,0,P|216:184|256:136,1,80,0|4,0:0|0:0,0:0:0:0:
352,304,267791,6,2,L|312:264,1,40
360,216,267991,2,0,P|320:208|264:240,1,80,0|4,0:0|0:0,0:0:0:0:
160,272,268391,6,2,L|112:256,1,40
144,200,268591,2,0,L|192:176,1,40
144,136,268791,2,0,L|88:96,1,40
176,80,268991,2,0,P|272:72|320:112,1,160
224,200,269591,1,0,0:0:0:0:
360,272,269791,6,0,L|408:304,1,40,4|0,0:0|0:0,0:0:0:0:
360,272,269991,2,0,L|344:336,1,40
360,272,270191,2,0,L|272:288,1,80
328,88,270591,1,4,0:0:0:0:
144,144,270791,6,0,L|96:136,1,40
128,208,270991,2,0,L|160:256,1,40
240,328,271391,5,4,0:0:0:0:
384,224,271591,1,0,0:0:0:0:
256,104,271791,1,0,0:0:0:0:
128,208,271991,1,0,0:0:0:0:
240,320,272191,2,0,P|328:296|376:224,1,160,4|0,0:0|0:0,0:0:0:0:
224,160,272791,1,0,0:0:0:0:
160,56,272991,2,0,P|112:80|104:120,1,80,4|0,0:0|0:0,0:0:0:0:
104,136,273291,6,0,L|136:168,1,40
112,192,273491,2,0,L|144:224,1,40
264,312,273991,1,0,0:0:0:0:
384,192,274191,1,0,0:0:0:0:
208,120,274591,6,0,L|160:96,1,40
176,144,274791,2,0,L|112:176,1,40
184,184,274991,2,0,L|168:232,1,40
224,232,275191,1,0,0:0:0:0:
296,328,275391,2,0,P|352:304|400:200,1,160,4|0,0:0|0:0,0:0:0:0:
176,112,276191,5,0,0:0:0:0:
176,288,276391,1,0,0:0:0:0:
88,200,276591,2,0,L|184:200,1,80
352,192,277191,5,0,0:0:0:0:
352,192,277391,1,0,0:0:0:0:
288,96,277791,2,0,P|240:88|224:96,1,40
256,136,277991,2,0,P|200:144|192:152,1,40
240,184,278191,2,0,P|200:192|192:208,1,40
224,232,278391,1,0,0:0:0:0:
152,264,278591,6,0,P|184:304|288:288,1,160,4|0,0:0|0:0,0:0:0:0:
208,200,279191,1,0,0:0:0:0:
88,144,279391,2,0,L|160:80,1,80,4|0,0:0|0:0,0:0:0:0:
112,280,279791,1,0,0:0:0:0:
264,328,279991,2,0,L|336:264,1,80,0|4,0:0|0:0,0:0:0:0:
272,120,280391,1,0,0:0:0:0:
176,200,280591,2,0,L|96:264,2,80,0|0|4,0:0|0:0|0:0,0:0:0:0:
248,144,281191,6,0,L|288:128,1,40
280,176,281391,2,0,L|328:184,1,40
296,224,281591,2,0,L|328:248,1,40
288,288,281791,2,0,P|232:312|144:256,1,160,4|0,0:0|0:0,0:0:0:0:
128,120,282591,6,2,P|176:88|232:80,1,80
368,176,282991,2,2,P|368:240|352:272,1,80
208,320,283391,2,2,P|144:288|128:256,1,80
320,264,283791,2,0,L|384:208,1,80
296,176,284191,2,0,L|384:104,1,80
280,88,284591,2,0,L|352:24,1,80
168,176,284991,6,0,P|128:224|152:312,1,160,4|0,0:0|0:0,0:0:0:0:
312,248,285591,1,0,0:0:0:0:
416,176,285791,2,0,P|360:144|320:136,1,80,4|0,0:0|0:0,0:0:0:0:
208,152,286191,1,0,0:0:0:0:
208,152,286391,2,0,P|168:208|168:256,2,80,0|4|0,0:0|0:0|0:0,0:0:0:0:
400,272,286991,1,0,0:0:0:0:
400,272,287391,2,0,B|352:272|352:272|320:320|320:320|272:304|248:288,1,160,4|0,0:0|0:0,0:0:0:0:
216,272,288191,5,0,0:0:0:0:
184,248,288291,1,0,0:0:0:0:
164,214,288391,1,0,0:0:0:0:
159,174,288491,1,0,0:0:0:0:
160,144,288591,1,0,0:0:0:0:
180,109,288691,1,0,0:0:0:0:
212,85,288791,1,0,0:0:0:0:
250,75,288891,1,0,0:0:0:0:
280,80,288991,2,0,P|352:120|384:200,1,160
200,224,289591,5,0,0:0:0:0:
224,328,289791,2,0,P|168:320|128:288,1,80,4|0,0:0|0:0,0:0:0:0:
112,144,290191,2,0,P|168:104|216:104,1,80
208,224,290591,1,4,0:0:0:0:
304,160,290791,2,0,P|336:224|320:256,1,80
112,128,291391,6,0,P|152:80|272:104,1,160,4|0,0:0|0:0,0:0:0:0:
80,248,291991,1,0,0:0:0:0:
256,336,292191,1,4,0:0:0:0:
368,192,292391,1,0,0:0:0:0:
136,184,292591,1,0,0:0:0:0:
256,336,292791,1,0,0:0:0:0:
368,192,292991,6,0,P|336:136|320:128,1,80,4|0,0:0|0:0,0:0:0:0:
224,224,293391,2,0,L|144:272,2,80,0|0|4,0:0|0:0|0:0,0:0:0:0:
384,136,293991,1,0,0:0:0:0:
240,48,294191,1,0,0:0:0:0:
320,192,294391,1,0,0:0:0:0:
168,88,294591,2,0,P|176:152|248:224,1,160,4|0,0:0|0:0,0:0:0:0:
392,192,295391,6,2,L|392:272,1,80
256,328,295791,2,2,L|256:248,1,80
136,192,296191,2,2,L|136:296,1,80
256,80,296591,1,0,0:0:0:0:
400,168,296991,1,0,0:0:0:0:
256,312,297391,6,0,P|208:296|152:208,1,160,0|4,0:0|0:0,0:0:0:0:
256,192,298191,2,0,L|328:152,1,80
392,120,298591,1,0,0:0:0:0:
256,192,298791,2,0,L|160:248,2,80,0|4|0,0:0|0:0|0:0,0:0:0:0:
368,88,299391,2,0,P|400:128|416:192,1,80,4|0,0:0|0:0,0:0:0:0:
186,232,299791,1,0,0:0:0:0:
186,232,300191,2,2,P|240:288|320:256,1,160
256,216,300991,5,0,0:0:0:0:
285,189,301091,1,0,0:0:0:0:
296,151,301191,1,0,0:0:0:0:
286,113,301291,1,0,0:0:0:0:
257,86,301391,1,0,0:0:0:0:
224,80,301491,1,0,0:0:0:0:
184,86,301591,1,0,0:0:0:0:
153,110,301691,1,0,0:0:0:0:
136,136,301791,2,0,P|112:192|144:288,1,160
384,208,302391,6,0,L|304:208,1,80,0|4,0:0|0:0,0:0:0:0:
256,320,302791,1,0,0:0:0:0:
120,208,302991,1,0,0:0:0:0:
256,80,303191,1,0,0:0:0:0:
256,240,303391,2,0,L|256:152,1,80,4|0,0:0|0:0,0:0:0:0:
128,192,303791,2,0,B|128:248|128:280|128:280|200:328,1,160,0|4,0:0|0:0,0:0:0:0:
256,192,304591,6,0,P|264:152|280:136,1,40
312,176,304791,2,0,P|328:136|320:120,1,40
320,80,304991,1,4,0:0:0:0:
144,192,305191,1,0,0:0:0:0:
240,56,305391,1,0,0:0:0:0:
216,200,305591,2,0,L|216:288,1,80,0|4,0:0|0:0,0:0:0:0:
368,192,305991,1,0,0:0:0:0:
240,56,306191,1,0,0:0:0:0:
152,192,306791,6,0,L|120:240,1,40
184,232,306991,2,0,L|168:288,1,40
224,272,307191,2,0,L|232:312,1,40
272,304,307391,1,4,0:0:0:0:
384,192,307591,1,0,0:0:0:0:
200,128,307791,1,0,0:0:0:0:
384,128,307991,1,0,0:0:0:0:
200,128,308191,1,4,0:0:0:0:
360,248,308391,1,0,0:0:0:0:
360,248,308591,6,0,P|320:296|256:304,1,120.000004577637
280,232,308991,2,0,P|216:248|168:320,1,120.000004577637,4|0,0:0|0:0,0:0:0:0:
136,344,309391,2,0,P|104:288|136:200,1,120.000004577637
168,96,309791,1,4,0:0:0:0:
368,160,309991,6,0,P|336:224|280:256,1,120.000004577637
232,304,310391,2,0,P|208:240|248:184,1,120.000004577637,0|4,0:0|0:0,0:0:0:0:
344,88,310791,1,0,0:0:0:0:
160,128,310991,1,0,0:0:0:0:
352,192,311191,2,0,P|336:256|288:296,1,120.000004577637,0|4,0:0|0:0,0:0:0:0:
104,296,311591,2,0,P|128:216|160:184,1,120.000004577637
232,112,311991,6,0,P|304:88|376:216,1,240.000009155274
288,184,312791,1,0,0:0:0:0:
168,312,312991,2,0,L|232:248,1,80,4|0,0:0|0:0,0:0:0:0:
288,184,313391,1,0,0:0:0:0:
184,80,313591,2,0,B|128:88|128:88|104:136,1,80,0|4,0:0|0:0,0:0:0:0:
104,136,313991,2,0,B|80:192|80:192|104:240,1,80
192,328,314391,5,0,0:0:0:0:
328,192,314591,1,4,0:0:0:0:
136,192,314791,1,0,0:0:0:0:
296,296,314991,1,0,0:0:0:0:
232,120,315191,1,0,0:0:0:0:
296,296,315391,2,0,P|328:264|344:216,1,80,4|0,0:0|0:0,0:0:0:0:
344,184,315791,2,0,P|328:120|304:96,1,80
160,272,316191,2,0,P|128:232|128:168,1,80,4|0,0:0|0:0,0:0:0:0:
176,96,316591,2,0,P|224:136|232:184,2,80,0|0|4,0:0|0:0|0:0,0:0:0:0:
88,200,317191,5,0,0:0:0:0:
216,320,317391,1,0,0:0:0:0:
216,320,317591,2,0,P|264:320|320:296,1,80,0|4,0:0|0:0,0:0:0:0:
240,168,317991,1,0,0:0:0:0:
240,168,318191,2,0,P|288:152|336:152,1,80
416,72,318591,2,0,B|376:32|296:32|240:56,1,160,4|0,0:0|0:0,0:0:0:0:
112,128,319191,2,0,P|80:176|80:232,1,80,0|4,0:0|0:0,0:0:0:0:
88,328,319591,2,0,P|168:304|176:280,1,80
232,184,319991,2,0,P|272:136|320:128,1,80,0|4,0:0|0:0,0:0:0:0:
272,304,320391,5,0,0:0:0:0:
384,192,320591,1,0,0:0:0:0:
200,128,320791,1,0,0:0:0:0:
384,128,320991,1,4,0:0:0:0:
200,128,321191,1,0,0:0:0:0:
360,248,321391,1,0,0:0:0:0:
360,248,321591,6,0,P|320:296|272:304,1,80,0|4,0:0|0:0,0:0:0:0:
280,232,321991,2,0,P|216:248|192:280,1,80
136,344,322391,2,0,P|104:288|104:240,1,80,0|4,0:0|0:0,0:0:0:0:
168,96,322791,1,0,0:0:0:0:
368,160,322991,2,0,P|336:224|296:240,1,80
232,304,323391,2,0,P|208:240|232:208,1,80,4|0,0:0|0:0,0:0:0:0:
344,88,323791,5,0,0:0:0:0:
160,128,323991,1,0,0:0:0:0:
352,192,324191,2,0,P|336:256|304:288,1,80,4|0,0:0|0:0,0:0:0:0:
104,296,324591,2,0,P|128:216|144:200,1,80
232,112,324991,6,0,P|304:88|376:216,1,240.000009155274,4|0,0:0|0:0,0:0:0:0:
288,184,325791,1,4,0:0:0:0:
168,312,325991,2,0,L|232:248,1,80
288,184,326391,1,0,0:0:0:0:
184,80,326591,2,0,B|128:88|128:88|104:136,1,80,4|0,0:0|0:0,0:0:0:0:
104,136,326991,2,0,B|80:192|80:192|104:240,1,80
192,328,327391,5,4,0:0:0:0:
328,192,327591,1,0,0:0:0:0:
136,192,327791,1,0,0:0:0:0:
296,296,327991,1,0,0:0:0:0:
144,296,328191,2,0,P|112:256|112:144,1,160,4|0,0:0|0:0,0:0:0:0:
168,40,328791,1,0,0:0:0:0:
296,168,328991,1,4,0:0:0:0:
160,272,329191,2,0,P|128:232|128:168,1,80
176,96,329591,2,0,P|224:136|232:184,2,80,0|4|0,0:0|0:0|0:0,0:0:0:0:
88,256,330391,6,0,P|112:296|160:312,1,80,0|4,0:0|0:0,0:0:0:0:
240,96,330991,2,0,P|304:112|328:128,1,80
344,144,331391,2,0,P|368:200|360:240,1,80,4|0,0:0|0:0,0:0:0:0:
152,264,331991,2,0,P|128:208|144:160,1,80,0|4,0:0|0:0,0:0:0:0:
352,96,332591,1,4,0:0:0:0:
176,112,332991,5,8,0:0:0:0:
360,104,333191,1,0,0:0:0:0:
264,192,333391,1,0,0:0:0:0:
416,176,333591,1,0,0:0:0:0:
360,272,333791,1,8,0:0:0:0:
488,272,333991,1,0,0:0:0:0:
352,176,334191,5,0,0:0:0:0:
288,272,334391,1,0,0:0:0:0:
208,184,334591,1,8,0:0:0:0:
400,192,334791,1,0,0:0:0:0:
240,296,334991,1,0,0:0:0:0:
296,128,335191,1,0,0:0:0:0:
168,224,335391,6,2,P|128:168|128:112,1,120.000004577637,10|2,0:0|0:0,0:0:0:0:
288,40,335791,1,0,0:0:0:0:
296,192,335991,1,0,0:0:0:0:
424,264,336191,2,2,P|392:312|328:320,1,120.000004577637
152,264,336591,1,0,0:0:0:0:
232,104,336791,1,0,0:0:0:0:
232,104,336991,2,2,P|312:96|360:120,1,120.000004577637
224,168,337391,5,0,0:0:0:0:
384,168,337591,1,0,0:0:0:0:
176,224,337791,1,8,0:0:0:0:
352,224,337991,1,0,0:0:0:0:
144,280,338191,1,0,0:0:0:0:
312,280,338391,1,0,0:0:0:0:
304,344,338591,2,2,P|368:320|384:264,1,120.000004577637
264,168,338991,1,0,0:0:0:0:
144,96,339191,1,0,0:0:0:0:
144,96,339391,2,2,P|96:152|96:200,1,120.000004577637
248,192,339791,5,0,0:0:0:0:
144,160,339991,1,0,0:0:0:0:
312,104,340191,1,8,0:0:0:0:
200,240,340391,1,0,0:0:0:0:
352,208,340591,1,0,0:0:0:0:
224,144,340791,1,0,0:0:0:0:
336,80,340991,2,2,P|400:104|424:152,1,120.000004577637
424,232,341391,1,0,0:0:0:0:
296,304,341591,1,0,0:0:0:0:
224,280,341791,2,2,P|176:240|168:184,1,120.000004577637
424,168,342191,5,0,0:0:0:0:
232,80,342391,1,0,0:0:0:0:
384,72,342591,1,8,0:0:0:0:
208,168,342791,1,0,0:0:0:0:
352,120,342991,1,0,0:0:0:0:
288,232,343191,1,0,0:0:0:0:
424,264,343391,2,2,P|392:312|328:320,1,120.000004577637
152,264,343791,1,0,0:0:0:0:
232,104,343991,1,0,0:0:0:0:
232,104,344191,2,2,P|312:96|360:120,1,120.000004577637
232,168,344591,5,0,0:0:0:0:
384,168,344791,1,0,0:0:0:0:
192,224,344991,1,8,0:0:0:0:
352,224,345191,1,0,0:0:0:0:
160,280,345391,1,0,0:0:0:0:
328,280,345591,1,0,0:0:0:0:
320,352,345791,2,2,P|384:328|400:272,1,120.000004577637
264,168,346191,1,0,0:0:0:0:
144,96,346391,1,0,0:0:0:0:
144,96,346591,2,2,P|96:152|96:200,1,120.000004577637
248,192,346991,5,0,0:0:0:0:
144,160,347191,1,0,0:0:0:0:
312,104,347391,1,8,0:0:0:0:
200,240,347591,1,0,0:0:0:0:
352,208,347791,1,0,0:0:0:0:
224,144,347991,1,0,0:0:0:0:
336,80,348191,2,2,P|400:104|424:152,1,120.000004577637
424,232,348591,1,0,0:0:0:0:
296,304,348791,1,0,0:0:0:0:
224,280,348991,2,2,P|176:240|168:184,1,120.000004577637
424,168,349391,5,0,0:0:0:0:
232,80,349591,1,0,0:0:0:0:
384,72,349791,1,8,0:0:0:0:
160,136,349991,1,0,0:0:0:0:
336,168,350191,1,0,0:0:0:0:
216,248,350391,1,0,0:0:0:0:
216,248,350591,2,2,P|272:304|320:304,1,120.000004577637
336,144,350991,1,0,0:0:0:0:
200,128,351191,1,0,0:0:0:0:
200,128,351391,2,2,P|136:176|128:224,1,120.000004577637
288,240,351791,1,0,0:0:0:0:
128,312,351991,1,0,0:0:0:0:
128,312,352191,2,2,L|128:192,1,120.000004577637
136,96,352591,5,0,0:0:0:0:
240,200,352791,1,0,0:0:0:0:
112,152,352991,1,8,0:0:0:0:
256,136,353191,1,0,0:0:0:0:
136,208,353391,1,0,0:0:0:0:
240,80,353591,1,0,0:0:0:0:
192,216,353791,2,2,P|256:280|328:272,1,120.000004577637
328,152,354191,1,0,0:0:0:0:
208,72,354391,1,0,0:0:0:0:
208,72,354591,2,2,L|104:136,1,120.000004577637
104,280,354991,5,0,0:0:0:0:
104,280,355191,1,0,0:0:0:0:
104,280,355391,2,2,L|224:248,1,120.000004577637
336,104,355791,2,2,L|208:136,2,120.000004577637
416,216,356391,1,0,0:0:0:0:
256,272,356591,1,0,0:0:0:0:
256,112,356791,1,0,0:0:0:0:
128,128,356991,2,2,P|80:216|96:272,1,120.000004577637
352,288,357391,2,2,P|400:232|408:160,1,120.000004577637
256,192,357791,1,4,0:0:0:0:
256,192,358591,12,0,360191,0:0:0:0:
