osu file format v14

[General]
AudioFilename: audio.mp3
AudioLeadIn: 0
PreviewTime: -1
Countdown: 1
SampleSet: Normal
StackLeniency: 0.7
Mode: 0
LetterboxInBreaks: 0
WidescreenStoryboard: 0

[Editor]
DistanceSpacing: 1.7
BeatDivisor: 4
GridSize: 8
TimelineZoom: 2.1

[Metadata]
Title:Kiko
TitleUnicode:Kiko
Artist:Panda Eyes
ArtistUnicode:Panda Eyes
Creator:Sniper1OO
Version:Insane
Source:
Tags:dubstep
BeatmapID:1577627
BeatmapSetID:748925

[Difficulty]
HPDrainRate:7
CircleSize:4
OverallDifficulty:6.5
ApproachRate:9
SliderMultiplier:1.6
SliderTickRate:1

[Events]
//Background and Video events
0,0,"21768356_816492375197733_6341542334439016115_n.jpg",0,0
//Break Periods
//Storyboard Layer 0 (Background)
//Storyboard Layer 1 (Fail)
//Storyboard Layer 2 (Pass)
//Storyboard Layer 3 (Foreground)
//Storyboard Sound Samples

[TimingPoints]
1290,545.454545454546,4,1,0,100,1,0

[HitObjects]
256,192,35244,5,0,0:0:0:0:
256,192,35380,12,0,37153,0:0:0:0:
80,96,37426,6,2,L|200:96,1,120
208,160,37971,2,0,L|248:160,1,40
64,192,38244,2,0,L|104:192,1,40
144,296,38517,6,0,L|200:296,1,40
208,176,38790,2,0,L|248:176,1,40
296,288,39062,2,0,L|344:288,1,40
400,184,39335,2,0,L|448:184,1,40
192,184,39608,6,0,L|336:184,1,120
120,256,40153,2,0,L|160:280,1,40
240,288,40426,2,0,L|288:280,1,40
344,216,40699,6,0,L|344:168,1,40
304,96,40971,2,0,L|248:80,1,40
168,72,41244,2,0,L|120:112,1,40
104,184,41517,2,0,L|104:232,1,40
160,72,41790,6,0,L|304:72,1,120
152,184,42335,2,0,L|200:184,1,40
192,288,42608,2,0,L|240:288,1,40
232,184,42880,6,0,L|280:184,1,40
272,288,43153,2,0,L|320:288,1,40
312,184,43426,2,0,L|360:184,1,40
352,288,43699,2,0,L|400:288,1,40
96,256,43971,6,0,L|240:248,1,120
80,64,44517,2,0,L|104:96,1,40
160,48,44790,2,0,L|184:80,1,40
128,128,45062,6,0,L|160:168,1,40
208,112,45335,2,0,L|240:152,1,40
184,192,45608,2,0,L|224:240,1,40
256,168,45880,2,0,L|288:208,1,40
224,288,46153,6,0,L|344:280,1,120
400,200,46699,2,0,L|384:136,1,40
336,96,46971,2,0,L|288:96,1,40
208,104,47244,6,0,L|176:136,1,40
152,208,47517,2,0,L|152:264,1,40
208,312,47790,2,0,L|264:312,1,40
328,288,48062,2,0,L|368:248,1,40
136,176,48335,6,0,L|256:168,1,120
416,64,48880,2,0,L|368:64,1,40
376,168,49153,2,0,L|328:168,1,40
336,64,49426,6,0,L|280:64,1,40
296,168,49699,2,0,L|240:168,1,40
256,64,49971,2,0,L|208:64,1,40
216,168,50244,2,0,L|160:168,1,40
280,112,50517,6,0,L|408:112,1,120
96,232,51062,2,0,L|160:232,1,40
184,312,51335,2,0,L|232:312,1,40
272,232,51608,6,0,L|320:232,1,40
368,320,51880,2,0,L|416:320,1,40
264,144,52153,5,0,0:0:0:0:
160,144,52699,6,0,L|264:64,1,120
296,224,53244,1,2,0:0:0:0:
384,152,53380,1,0,0:0:0:0:
304,72,53517,2,0,L|264:104,1,40
152,72,53790,5,2,0:0:0:0:
112,240,53926,1,0,0:0:0:0:
200,176,54062,2,0,L|200:240,1,40
360,88,54335,5,2,0:0:0:0:
304,208,54471,1,0,0:0:0:0:
408,224,54608,2,0,L|360:200,1,40
248,40,54880,6,0,P|192:112|224:144,1,120
208,240,55426,1,2,0:0:0:0:
104,336,55562,1,0,0:0:0:0:
232,336,55699,2,0,L|288:336,1,40
368,304,55971,6,0,L|400:272,1,40
216,120,56244,1,8,0:0:0:0:
296,208,56380,1,0,0:0:0:0:
144,256,56517,2,0,L|200:216,1,40
344,80,56790,2,0,L|304:120,1,40
120,112,57062,6,0,P|120:200|176:224,1,120
232,176,57608,2,0,L|288:224,1,40
368,128,57880,2,0,L|312:88,1,40
184,72,58153,5,2,0:0:0:0:
328,208,58290,2,0,L|288:176,1,40
160,200,58562,1,0,0:0:0:0:
320,80,58699,6,0,L|280:120,1,40
168,88,58971,1,8,0:0:0:0:
288,208,59108,1,0,0:0:0:0:
264,64,59244,6,0,P|176:104|176:144,1,120
176,264,59790,2,0,L|232:232,1,40
368,272,60062,1,8,0:0:0:0:
272,136,60199,1,0,0:0:0:0:
120,88,60335,6,0,L|120:144,1,40
272,232,60608,1,8,0:0:0:0:
368,96,60744,1,0,0:0:0:0:
184,136,60880,1,2,0:0:0:0:
376,192,61017,1,0,0:0:0:0:
256,64,61153,2,0,L|264:128,1,40
272,248,61426,6,0,P|160:208|160:200,1,120
240,136,61971,1,2,0:0:0:0:
408,72,62108,2,0,L|352:72,1,40
416,184,62380,1,0,0:0:0:0:
296,256,62517,6,0,L|352:272,1,40
152,288,62790,1,8,0:0:0:0:
224,152,62926,1,0,0:0:0:0:
360,104,63062,6,0,L|312:160,1,40
168,136,63335,2,0,L|176:80,1,40
288,96,63608,6,0,P|360:152|352:200,1,120
168,144,64153,2,0,L|184:200,1,40
328,264,64426,2,0,L|312:216,1,40
336,96,64699,5,2,0:0:0:0:
176,224,64835,1,0,0:0:0:0:
208,104,64971,1,8,0:0:0:0:
320,240,65108,1,0,0:0:0:0:
416,160,65244,2,0,L|344:160,1,40
168,160,65517,2,0,L|232:160,1,40
272,72,65790,6,0,P|344:120|328:168,1,120
144,144,66335,2,0,L|152:200,1,40
248,264,66608,2,0,L|288:224,1,40
304,136,66880,5,2,0:0:0:0:
384,240,67017,1,0,0:0:0:0:
216,200,67153,1,8,0:0:0:0:
288,320,67290,1,0,0:0:0:0:
128,240,67426,6,0,L|136:184,1,40
224,96,67699,2,0,L|280:128,1,40
384,192,67971,6,0,P|280:208|240:192,1,120
152,128,68517,2,0,L|192:96,1,40
280,144,68790,2,0,L|240:184,1,40
216,48,69062,5,2,0:0:0:0:
184,200,69199,1,0,0:0:0:0:
336,96,69335,1,8,0:0:0:0:
320,240,69471,1,0,0:0:0:0:
216,128,69608,6,0,L|264:128,3,40
136,128,70153,6,0,L|232:208,1,120
352,200,70699,2,0,L|248:112,1,120
168,120,71244,5,2,0:0:0:0:
208,240,71380,1,0,0:0:0:0:
304,128,71517,1,8,0:0:0:0:
352,264,71653,1,0,0:0:0:0:
232,56,71790,6,0,L|240:120,1,40
264,288,72062,2,0,L|248:240,1,40
144,168,72335,6,0,P|216:144|272:160,1,120
416,112,72880,2,0,L|352:112,1,40
296,216,73153,2,0,L|248:216,1,40
144,144,73426,2,0,P|224:88|264:88,1,120
288,160,73971,2,0,L|344:160,1,40
224,248,74244,2,0,L|168:248,1,40
128,152,74517,6,0,P|208:88|256:96,1,120
344,216,75062,2,0,P|288:280|232:264,1,120
216,136,75608,5,0,0:0:0:0:
320,240,75744,1,0,0:0:0:0:
320,128,75880,1,0,0:0:0:0:
208,248,76017,1,0,0:0:0:0:
192,128,76153,6,0,L|192:80,1,40
320,88,76426,2,0,L|320:136,1,40
328,280,76699,6,0,P|224:272|216:240,1,120
240,152,77244,2,0,P|328:120|360:144,1,120
336,216,77790,6,0,L|288:216,1,40
208,128,78062,1,8,0:0:0:0:
136,192,78199,1,0,0:0:0:0:
192,264,78335,1,2,0:0:0:0:
264,208,78471,1,0,0:0:0:0:
320,120,78608,2,0,L|272:88,1,40
136,88,78880,6,0,P|120:176|152:208,1,120
264,216,79426,6,0,P|312:144|280:112,1,120
184,64,79971,6,0,L|184:104,1,40
312,208,80244,2,0,L|312:160,1,40
176,192,80517,5,2,0:0:0:0:
272,112,80653,1,0,0:0:0:0:
360,200,80790,1,8,0:0:0:0:
264,272,80926,1,0,0:0:0:0:
160,88,81062,6,0,P|272:88|288:112,1,120
288,200,81608,2,0,L|240:184,1,40
120,240,81880,2,0,L|176:264,1,40
272,288,82153,6,0,P|352:240|344:192,1,120
224,192,82699,2,0,L|256:160,1,40
192,72,82971,2,0,L|136:120,1,40
368,88,83244,6,0,L|336:208,1,120
144,216,83790,6,0,L|192:88,1,120
328,136,84335,6,0,L|312:184,1,40
176,80,84608,1,8,0:0:0:0:
96,192,84744,1,0,0:0:0:0:
168,304,84880,2,0,L|216:296,1,40
304,248,85153,1,8,0:0:0:0:
352,152,85290,1,0,0:0:0:0:
240,72,85426,6,0,P|160:96|152:128,1,120
240,248,85971,6,0,P|312:208|304:152,1,120
176,152,86517,6,0,L|216:120,1,40
328,88,86790,1,8,0:0:0:0:
224,184,86926,1,0,0:0:0:0:
368,208,87062,1,2,0:0:0:0:
248,104,87199,1,0,0:0:0:0:
288,272,87335,2,0,L|304:224,1,40
352,112,87608,5,6,0:0:0:0:
