osu file format v14

[General]
AudioFilename: KIKO - Panda Eyes.mp3
AudioLeadIn: 0
PreviewTime: 52270
Countdown: 0
SampleSet: Normal
StackLeniency: 0.7
Mode: 0
LetterboxInBreaks: 0
WidescreenStoryboard: 0

[Editor]
Bookmarks: 44099,61490,69462,91553,124826
DistanceSpacing: 1.6
BeatDivisor: 4
GridSize: 8
TimelineZoom: 1.7

[Metadata]
Title:KIKO
TitleUnicode:KIKO
Artist:Panda Eyes
ArtistUnicode:Panda Eyes
Creator:Stingy
Version:Insane
Source:
Tags:midtempo edm dubstep glitchhop insane electro panda eyes pandaeyes kiko [ M I N A K O ] hyouri Alveryn HappyHorse191
BeatmapID:966427
BeatmapSetID:439926

[Difficulty]
HPDrainRate:6
CircleSize:4
OverallDifficulty:7
ApproachRate:8.5
SliderMultiplier:1.4
SliderTickRate:1

[Events]
//Background and Video events
0,0,"240803-hatsune-anime-girl-blue-hair-wallpaper-1366x768.jpg",0,0
//Break Periods
2,61606,69595
//Storyboard Layer 0 (Background)
//Storyboard Layer 1 (Fail)
//Storyboard Layer 2 (Pass)
//Storyboard Layer 3 (Foreground)
//Storyboard Sound Samples

[TimingPoints]
9180,545.454545454546,4,1,0,5,1,0
9180,-133.333333333333,4,1,0,5,0,0
17907,-100,4,1,0,5,0,0
35361,-66.6666666666667,4,1,0,5,0,0
46270,-100,4,1,0,25,0,0
48452,-100,4,1,0,40,0,0
50634,-83.3333333333333,4,1,0,55,0,0
52816,-100,4,1,0,60,0,1
53361,-76.9230769230769,4,1,0,60,0,1
70270,-50,4,1,0,60,0,1
87725,-50,4,1,0,60,0,0
92089,-100,4,1,0,70,0,0
103816,-50,4,1,0,100,0,1
105180,-133.333333333333,4,1,0,100,0,1
105725,-50,4,1,0,100,0,1
107361,-133.333333333333,4,1,0,100,0,1
107907,-50,4,1,0,100,0,1
109543,-133.333333333333,4,1,0,100,0,1
110089,-50,4,1,0,100,0,1
111725,-133.333333333333,4,1,0,100,0,1
112270,-50,4,1,0,100,0,1
113907,-133.333333333333,4,1,0,100,0,1
116089,-133.333333333333,4,1,0,100,0,1
118816,-50,4,1,0,100,0,1
120452,-133.333333333333,4,1,0,100,0,1
120998,-50,4,1,0,100,0,1
122702,-50,4,1,0,100,0,0
124816,-133.333333333333,4,1,0,100,0,1
125361,-50,4,1,0,100,0,1
126998,-133.333333333333,4,1,0,100,0,1
127543,-50,4,1,0,100,0,1
129180,-133.333333333333,4,1,0,100,0,1
129725,-50,4,1,0,100,0,1
131361,-200,4,1,0,100,0,1
131907,-50,4,1,0,100,0,1
133543,-200,4,1,0,100,0,1
134089,-50,4,1,0,100,0,1
135725,-200,4,1,0,100,0,1
136270,-50,4,1,0,100,0,1
137907,-133.333333333333,4,1,0,100,0,0
141180,-133.333333333333,4,1,0,85,0,0
142270,-133.333333333333,4,1,0,70,0,0
143361,-133.333333333333,4,1,0,55,0,0
144452,-133.333333333333,4,1,0,30,0,0
145543,-133.333333333333,4,1,0,15,0,0
146498,-133.333333333333,4,1,0,5,0,0

[Colours]
Combo1 : 146,89,5
Combo2 : 110,0,0
Combo3 : 17,3,110
Combo4 : 7,46,5

[HitObjects]
32,112,9180,6,0,B|112:48|144:160|240:80,1,210.000008010865
400,96,11361,2,0,P|448:160|416:288,1,210.000008010865
256,272,13543,2,0,B|208:256|208:256|160:312|96:288|64:256,1,210.000008010865
80,96,15725,2,0,B|128:112|128:112|176:56|240:80|272:112,1,210.000008010865
271,95,17907,6,0,B|319:-1|399:15|447:63|447:63|431:127,1,280
416,288,20089,6,0,B|368:384|288:368|240:320|240:320|256:256,1,280
64,48,22270,6,0,B|112:16|192:48|240:112|288:112|320:64,1,280
448,288,24452,6,0,B|416:336|368:336|320:272|240:240|192:272,1,280
64,256,26634,6,0,B|16:176|112:96|192:240|256:160|160:96,1,280
320,176,28270,2,0,B|368:144|416:160|448:208|416:256|368:224|352:272|432:288|352:352,1,280
144,336,30998,6,0,B|32:320|16:128|272:224|336:80|208:-32|16:64,1,560
256,192,35361,12,0,43543,0:0:0:0:
480,320,44089,5,0,0:0:0:0:
416,160,44634,2,0,L|464:192,3,52.5000020027161
368,240,45180,2,0,L|336:288,3,52.5000020027161
288,192,45725,2,0,L|235:192,3,52.5000020027161
64,192,46270,5,0,0:0:0:0:
176,192,46543,1,0,0:0:0:0:
120,192,46816,5,0,0:0:0:0:
120,160,46952,1,0,0:0:0:0:
120,128,47089,1,0,0:0:0:0:
128,96,47225,1,0,0:0:0:0:
144,72,47361,5,0,0:0:0:0:
176,56,47498,1,0,0:0:0:0:
208,64,47634,1,0,0:0:0:0:
232,88,47770,1,0,0:0:0:0:
240,120,47907,1,0,0:0:0:0:
240,152,48043,1,0,0:0:0:0:
248,184,48180,1,0,0:0:0:0:
272,208,48316,1,0,0:0:0:0:
352,256,48452,5,0,0:0:0:0:
272,208,48725,1,0,0:0:0:0:
352,256,48998,5,0,0:0:0:0:
368,224,49134,1,0,0:0:0:0:
376,184,49270,1,0,0:0:0:0:
376,144,49407,1,0,0:0:0:0:
368,104,49543,5,0,0:0:0:0:
352,72,49680,1,0,0:0:0:0:
320,96,49816,1,0,0:0:0:0:
280,112,49952,1,0,0:0:0:0:
240,120,50089,1,0,0:0:0:0:
200,128,50225,1,0,0:0:0:0:
160,128,50361,1,0,0:0:0:0:
120,120,50498,1,0,0:0:0:0:
80,208,50634,5,0,0:0:0:0:
120,120,50907,1,0,0:0:0:0:
80,208,51180,5,0,0:0:0:0:
104,232,51316,1,0,0:0:0:0:
136,248,51452,1,0,0:0:0:0:
176,256,51589,1,0,0:0:0:0:
216,256,51725,2,0,P|280:224|296:208,1,83.9999974365235
336,128,52270,1,0,0:0:0:0:
48,72,52816,6,0,P|104:128|128:136,1,105
32,240,53361,6,0,L|80:240,1,45.4999979171754
160,240,53634,1,0,0:0:0:0:
240,240,53770,1,0,0:0:0:0:
200,152,53907,2,0,L|264:152,1,45.4999979171754
328,152,54180,1,0,0:0:0:0:
328,232,54316,1,0,0:0:0:0:
416,192,54452,2,0,L|416:144,1,45.4999979171754
416,64,54725,1,0,0:0:0:0:
336,64,54861,1,0,0:0:0:0:
256,64,54998,6,0,B|248:144|176:184,1,136.499993751526
112,216,55543,2,0,L|56:248,1,45.4999979171754
160,288,55816,2,0,L|224:288,1,45.4999979171754
288,288,56089,1,0,0:0:0:0:
368,288,56225,1,0,0:0:0:0:
368,208,56361,1,0,0:0:0:0:
368,128,56498,1,0,0:0:0:0:
288,88,56634,2,0,L|288:144,1,45.4999979171754
288,216,56907,1,0,0:0:0:0:
208,216,57043,1,0,0:0:0:0:
120,216,57180,6,0,P|144:152|128:88,1,136.499993751526
48,152,57725,2,0,L|24:200,1,45.4999979171754
24,272,57998,2,0,L|56:320,1,45.4999979171754
104,368,58270,1,0,0:0:0:0:
184,368,58407,1,0,0:0:0:0:
264,352,58543,1,0,0:0:0:0:
328,304,58680,1,0,0:0:0:0:
360,232,58816,2,0,L|376:176,1,45.4999979171754
392,104,59089,2,0,L|328:128,1,45.4999979171754
272,152,59361,6,0,P|248:216|184:224,1,136.499993751526
112,192,59907,2,0,L|152:144,1,45.4999979171754
192,96,60180,1,0,0:0:0:0:
256,56,60316,1,0,0:0:0:0:
336,40,60452,2,0,L|352:88,1,45.4999979171754
384,160,60725,1,0,0:0:0:0:
416,232,60861,1,0,0:0:0:0:
344,272,60998,2,0,L|272:272,1,45.4999979171754
248,192,61270,2,0,L|200:192,1,45.4999979171754
448,352,70270,6,0,P|464:288|416:224,1,140
384,304,70816,2,0,P|336:240|304:176,1,140
256,64,71361,2,0,L|176:104,1,70
308,186,71634,2,0,L|376:158,1,70
193,95,71907,2,0,L|192:176,1,70
308,186,72180,2,0,L|308:114,1,70
272,48,72452,6,0,B|304:16|376:40|389:84,1,140
448,240,72998,1,0,0:0:0:0:
272,336,73270,1,0,0:0:0:0:
96,304,73543,2,0,P|144:272|160:192,1,140
80,224,74089,2,0,P|32:192|16:112,1,140
96,144,74634,5,0,0:0:0:0:
224,240,74907,1,0,0:0:0:0:
176,64,75180,1,0,0:0:0:0:
320,112,75452,1,0,0:0:0:0:
176,64,75725,2,0,L|96:32,1,70
176,144,75998,2,0,P|192:144|240:112,1,70
272,32,76270,1,0,0:0:0:0:
352,96,76407,1,0,0:0:0:0:
384,192,76543,2,0,P|368:224|320:256,1,70
256,304,76816,6,0,B|224:368|80:336|256:192|224:112|128:176,1,280
40,216,77634,1,0,0:0:0:0:
64,96,77907,2,0,P|112:64|144:64,1,70
128,144,78180,1,0,0:0:0:0:
176,208,78316,1,0,0:0:0:0:
128,272,78452,2,0,P|208:288|224:272,1,70
272,288,78725,1,0,0:0:0:0:
352,272,78861,1,0,0:0:0:0:
432,240,78998,5,0,0:0:0:0:
320,352,79270,1,0,0:0:0:0:
160,336,79543,2,0,B|96:336|96:288|96:224,1,140
80,48,80089,1,0,0:0:0:0:
160,64,80225,1,0,0:0:0:0:
240,64,80361,2,0,P|272:48|336:64,1,70
288,128,80634,1,0,0:0:0:0:
224,192,80770,1,0,0:0:0:0:
128,208,80907,2,0,P|96:192|80:160,1,70
64,80,81180,6,0,P|96:48|208:48,1,140
352,96,81725,2,0,B|400:176|336:224|336:224,1,140
240,304,82270,2,0,P|144:304|96:288,3,140
16,80,83361,2,0,P|160:48|176:64,1,140
96,112,83907,2,0,P|145:160|214:169,1,140
336,48,84452,1,0,0:0:0:0:
384,64,84589,1,0,0:0:0:0:
416,96,84725,1,0,0:0:0:0:
432,144,84861,1,0,0:0:0:0:
432,192,84998,1,0,0:0:0:0:
416,240,85134,1,0,0:0:0:0:
384,272,85270,1,0,0:0:0:0:
336,288,85407,1,0,0:0:0:0:
288,288,85543,6,0,B|80:288|64:128,1,280
240,200,86361,1,0,0:0:0:0:
224,32,86634,5,0,0:0:0:0:
320,104,86770,2,0,L|432:72,2,70
360,216,87180,1,0,0:0:0:0:
296,312,87316,2,0,L|360:360,2,70
256,192,87725,12,0,91543,0:0:0:0:
48,128,92089,6,0,P|112:144|144:128,1,105
160,96,92634,5,0,0:0:0:0:
188,75,92770,1,0,0:0:0:0:
221,66,92907,1,0,0:0:0:0:
256,68,93043,1,0,0:0:0:0:
280,88,93180,6,0,L|304:120,1,35
317,145,93452,1,0,0:0:0:0:
309,179,93589,1,0,0:0:0:0:
289,207,93725,1,0,0:0:0:0:
263,230,93861,1,0,0:0:0:0:
232,248,93998,2,0,L|192:272,1,35
176,288,94270,6,0,P|96:304|80:288,1,105
64,272,94816,1,0,0:0:0:0:
51,239,94952,1,0,0:0:0:0:
39,206,95089,1,0,0:0:0:0:
27,173,95225,1,0,0:0:0:0:
16,144,95361,6,0,L|56:144,1,35
87,131,95634,1,0,0:0:0:0:
119,117,95770,1,0,0:0:0:0:
150,100,95907,1,0,0:0:0:0:
180,82,96043,1,0,0:0:0:0:
208,64,96180,2,0,L|248:40,1,35
272,48,96452,6,0,P|320:96|336:128,1,105
352,160,96998,1,0,0:0:0:0:
348,194,97134,1,0,0:0:0:0:
336,227,97270,1,0,0:0:0:0:
318,257,97407,1,0,0:0:0:0:
296,280,97543,6,0,L|256:312,1,35
232,314,97816,1,0,0:0:0:0:
198,316,97952,1,0,0:0:0:0:
164,307,98089,1,0,0:0:0:0:
134,289,98225,1,0,0:0:0:0:
112,272,98361,2,0,L|80:232,1,35
72,216,98634,6,0,B|48:176|48:176|104:160,1,105
128,176,99180,1,0,0:0:0:0:
156,196,99316,1,0,0:0:0:0:
187,213,99452,1,0,0:0:0:0:
220,224,99589,1,0,0:0:0:0:
256,224,99725,6,0,L|296:208,1,35
314,193,99998,1,0,0:0:0:0:
330,162,100134,1,0,0:0:0:0:
337,127,100270,1,0,0:0:0:0:
336,93,100407,1,0,0:0:0:0:
328,64,100543,2,0,L|312:32,1,35
288,0,100816,6,0,P|208:16|176:32,1,105
176,64,101361,1,0,0:0:0:0:
185,106,101498,1,0,0:0:0:0:
209,142,101634,1,0,0:0:0:0:
238,175,101770,1,0,0:0:0:0:
264,208,101907,6,0,L|288:264,1,35
288,280,102180,1,0,0:0:0:0:
257,310,102316,1,0,0:0:0:0:
214,315,102452,1,0,0:0:0:0:
170,311,102589,1,0,0:0:0:0:
128,296,102725,2,0,L|96:272,1,35
72,240,102998,6,0,B|120:192|120:192|24:128|104:80,1,210
192,48,104089,2,0,B|304:16|304:48|240:240|416:128|416:128,1,280
384,288,105180,6,0,P|424:272|448:240,1,78.7500030040742
432,176,105725,6,0,L|368:128,1,70
288,192,105998,2,0,L|224:136,1,70
224,32,106270,2,0,L|160:96,1,70
72,80,106543,2,0,L|72:160,1,70
120,232,106816,2,0,L|208:272,1,70
272,280,107089,1,0,0:0:0:0:
336,224,107225,1,0,0:0:0:0:
320,144,107361,2,0,P|304:112|272:80,1,78.7500030040742
32,48,107907,6,0,L|96:16,1,70
176,120,108180,2,0,L|112:80,1,70
32,184,108452,2,0,L|96:152,1,70
168,256,108725,2,0,L|104:224,1,70
48,296,108998,2,0,L|112:328,1,70
200,352,109270,2,0,L|296:336,1,70
360,312,109543,2,0,P|392:264|408:232,1,78.7500030040742
368,96,110089,6,0,P|348:67|318:51,1,70
272,128,110361,2,0,P|241:111|221:82,1,70
176,0,110634,2,0,P|148:19|131:50,1,70
272,128,110907,2,0,P|302:144|322:173,1,70
240,208,111180,2,0,P|192:256|160:256,1,70
152,168,111452,2,0,P|184:136|240:128,1,70
304,128,111725,6,0,P|288:160|256:192,1,78.7500030040742
160,224,112270,2,0,P|96:192|80:176,1,70
16,144,112543,2,0,P|80:112|96:96,1,70
112,48,112816,2,0,P|141:66|174:78,1,70
240,64,113089,2,0,P|269:82|302:94,1,70
398,161,113361,2,0,P|368:180|336:192,1,70
288,240,113634,2,0,P|255:228|225:209,1,70
160,224,113907,6,0,P|128:192|112:160,1,78.7500030040742
112,112,114452,1,0,0:0:0:0:
128,64,114589,1,0,0:0:0:0:
176,48,114725,1,0,0:0:0:0:
224,64,114861,1,0,0:0:0:0:
240,112,114998,1,0,0:0:0:0:
240,160,115134,1,0,0:0:0:0:
224,208,115270,1,0,0:0:0:0:
240,256,115407,1,0,0:0:0:0:
288,272,115543,1,0,0:0:0:0:
336,256,115680,1,0,0:0:0:0:
352,208,115816,1,0,0:0:0:0:
384,176,115952,1,0,0:0:0:0:
432,160,116089,6,0,P|464:128|464:96,1,78.7500030040742
368,88,116634,2,0,L|360:48,1,26.2500010013581
264,112,116907,2,0,L|256:72,1,26.2500010013581
168,136,117180,2,0,L|160:96,1,26.2500010013581
72,152,117452,2,0,L|64:111,1,26.2500010013581
64,80,117725,1,0,0:0:0:0:
80,32,117861,1,0,0:0:0:0:
128,16,117998,1,0,0:0:0:0:
176,32,118134,1,0,0:0:0:0:
208,64,118270,6,0,P|256:64|288:32,1,78.7500030040742
320,64,118816,1,0,0:0:0:0:
352,96,118952,1,0,0:0:0:0:
320,128,119089,1,0,0:0:0:0:
288,160,119225,1,0,0:0:0:0:
256,192,119361,1,0,0:0:0:0:
224,224,119498,1,0,0:0:0:0:
240,256,119634,1,0,0:0:0:0:
224,288,119770,1,0,0:0:0:0:
192,304,119907,1,0,0:0:0:0:
160,288,120043,1,0,0:0:0:0:
144,256,120180,1,0,0:0:0:0:
160,224,120316,1,0,0:0:0:0:
192,208,120452,6,0,B|224:192|272:224|272:224,1,78.7500030040742
360,336,120998,2,0,L|422:304,1,70
480,192,121270,2,0,L|416:128,1,70
320,64,121543,2,0,L|208:32,1,70
112,32,121816,2,0,L|64:128,1,70
48,208,122089,2,0,L|160:208,1,70
256,208,122361,2,0,B|160:208,1,70
96,208,122634,5,0,0:0:0:0:
256,192,122702,12,0,124270,0:0:0:0:
400,208,124816,6,0,P|400:176|368:128,1,78.7500030040742
312,192,125361,6,0,L|242:185,1,70
272,128,125634,2,0,L|202:121,1,70
120,112,125907,1,0,0:0:0:0:
144,264,126043,1,0,0:0:0:0:
176,184,126180,1,0,0:0:0:0:
56,176,126316,1,0,0:0:0:0:
32,96,126452,2,0,P|48:48|96:32,1,70
160,64,126725,2,0,P|192:32|224:32,1,70
288,80,126998,6,0,B|320:80|368:64|368:64,1,78.7500030040742
464,176,127543,6,0,L|384:160,1,70
456,264,127816,2,0,L|384:272,1,70
288,280,128089,2,0,L|264:200,1,70
336,152,128361,2,0,L|264:128,1,70
192,96,128634,2,0,L|232:32,1,70
160,160,128907,2,0,L|120:224,1,70
240,160,129180,6,0,P|240:192|280:240,1,78.7500030040742
424,320,129725,6,0,L|360:264,1,70
440,224,129998,2,0,L|504:176,1,70
304,208,130270,2,0,L|368:160,1,70
424,112,130543,2,0,L|360:56,1,70
280,64,130816,2,0,L|224:112,1,70
288,184,131089,2,0,L|232:232,1,70
384,288,131361,6,0,P|368:256|352:240,1,52.5
208,96,131907,2,0,P|176:120|152:160,1,70
353,144,132180,2,0,P|332:116|304:96,1,70
304,288,132452,2,0,P|336:264|360:224,1,70
158,239,132725,2,0,P|179:267|208:288,1,70
208,96,132998,2,0,P|176:120|152:160,1,70
352,143,133270,2,0,P|331:115|303:95,1,70
256,192,133543,6,0,L|208:216,1,52.5
160,240,134089,6,0,P|180:268|208:289,1,70
208,94,134362,2,0,P|180:115|159:144,1,70
352,144,134634,2,0,P|331:115|303:94,1,70
303,289,134907,2,0,P|331:268|352:239,1,70
159,239,135180,2,0,P|180:268|208:289,1,70
207,95,135452,2,0,P|179:116|158:145,1,70
256,192,135725,2,0,L|280:248,1,52.5
304,288,136270,6,0,P|336:264|360:224,1,70
158,239,136543,2,0,P|179:267|208:288,1,70
208,96,136815,2,0,P|176:120|152:160,1,70
353,144,137088,2,0,P|332:116|304:96,1,70
304,288,137361,2,0,P|336:264|360:224,1,70
160,232,137633,2,0,P|181:260|210:281,1,70
304,128,137907,6,0,P|288:96|256:64,1,78.7500030040742
160,16,138452,1,0,0:0:0:0:
120,160,138589,1,0,0:0:0:0:
80,48,138725,1,0,0:0:0:0:
208,112,138861,1,0,0:0:0:0:
160,16,138998,6,0,L|136:56,1,26.2500010013581
80,192,139270,2,0,L|91:215,1,26.2500010013581
136,288,139543,5,0,0:0:0:0:
224,152,139680,1,0,0:0:0:0:
248,312,139816,1,0,0:0:0:0:
136,184,139952,1,0,0:0:0:0:
304,224,140089,1,0,0:0:0:0:
256,192,140157,12,0,146634,0:0:0:0:
