osu file format v14

[General]
AudioFilename: audio.mp3
AudioLeadIn: 0
PreviewTime: 89603
Countdown: 0
SampleSet: Normal
StackLeniency: 0.7
Mode: 0
LetterboxInBreaks: 0
WidescreenStoryboard: 0

[Editor]
Bookmarks: 64512,71058,90694,105694
DistanceSpacing: 1
BeatDivisor: 4
GridSize: 4
TimelineZoom: 1.5

[Metadata]
Title:KIKO
TitleUnicode:KIKO
Artist:Panda Eyes
ArtistUnicode:Panda Eyes
Creator:Fanteer
Version:Incomprehensible
Source:
Tags:Jump 110 bpm nonstreams
BeatmapID:986943
BeatmapSetID:457187

[Difficulty]
HPDrainRate:6
CircleSize:4
OverallDifficulty:8.5
ApproachRate:9.6
SliderMultiplier:2.59999990463257
SliderTickRate:1

[Events]
//Background and Video events
0,0,"12822604_1299483336734404_1051141165_o.jpg",0,0
//Break Periods
//Storyboard Layer 0 (Background)
//Storyboard Layer 1 (Fail)
//Storyboard Layer 2 (Pass)
//Storyboard Layer 3 (Foreground)
//Storyboard Sound Samples

[TimingPoints]
1290,545.454545454546,4,1,4,15,1,0
1500,-133.333333333333,4,1,4,10,0,0
3421,-133.333333333333,4,1,1,10,0,0
5467,-133.333333333333,4,1,1,30,0,0
18012,-100,4,2,3,50,0,0
18744,-76.9230769230769,4,2,5,70,0,1
19153,-76.9230769230769,4,3,1,95,0,1
19426,-76.9230769230769,4,1,1,95,0,1
21335,-76.9230769230769,4,3,1,95,0,1
21592,-76.9230769230769,4,1,1,95,0,1
23517,-76.9230769230769,4,3,1,95,0,1
23653,-76.9230769230769,4,1,1,95,0,1
25699,-76.9230769230769,4,3,1,95,0,1
25956,-76.9230769230769,4,1,1,95,0,1
27880,-76.9230769230769,4,3,1,95,0,1
28140,-76.9230769230769,4,1,1,95,0,1
30062,-76.9230769230769,4,3,1,95,0,1
30199,-76.9230769230769,4,1,1,95,0,1
32244,-76.9230769230769,4,3,1,95,0,1
32501,-76.9230769230769,4,1,1,95,0,1
34426,-76.9230769230769,4,3,1,95,0,1
34699,-76.9230769230769,4,1,1,95,0,1
35653,-76.9230769230769,4,1,1,30,0,1
36199,-76.9230769230769,4,1,1,95,0,1
36608,-76.9230769230769,4,1,4,95,0,0
37153,-76.9230769230769,4,3,1,95,0,0
37410,-76.9230769230769,4,1,1,95,0,0
38244,-76.9230769230769,4,1,1,95,0,0
41058,-76.9230769230769,4,1,1,80,0,0
41517,-76.9230769230769,4,3,1,95,0,0
41721,-76.9230769230769,4,1,1,95,0,0
43699,-76.9230769230769,4,3,1,95,0,0
43903,-76.9230769230769,4,1,1,95,0,0
45864,-76.9230769230769,4,3,1,95,0,0
46153,-76.9230769230769,4,1,1,95,0,0
46999,-76.9230769230769,4,1,1,95,0,0
50194,-76.9230769230769,4,3,1,95,0,0
50380,-76.9230769230769,4,1,1,95,0,0
52376,-76.9230769230769,4,3,1,95,0,0
52683,-76.9230769230769,4,1,1,95,0,0
53602,-100,4,1,2,75,0,0
55562,-200,4,1,1,20,0,0
70512,-100,4,2,3,65,0,0
71108,-76.9230769230769,4,1,1,65,0,1
71330,-76.9230769230769,4,3,1,65,0,1
71790,-76.9230769230769,4,1,1,65,0,1
72456,-76.9230769230769,4,1,1,65,0,1
73410,-76.9230769230769,4,1,1,65,0,1
73649,-76.9230769230769,4,3,1,95,0,1
73956,-76.9230769230769,4,1,1,95,0,1
75830,-76.9230769230769,4,3,1,95,0,1
76137,-76.9230769230769,4,1,1,95,0,1
78062,-76.9230769230769,4,3,1,95,0,1
78308,-76.9230769230769,4,1,1,95,0,1
80194,-76.9230769230769,4,3,1,95,0,1
80501,-76.9230769230769,4,1,1,95,0,1
82395,-76.9230769230769,4,3,1,95,0,1
82702,-76.9230769230769,4,1,1,95,0,1
84558,-76.9230769230769,4,3,1,95,0,1
84865,-76.9230769230769,4,1,1,95,0,1
86740,-76.9230769230769,4,3,1,95,0,1
87047,-76.9230769230769,4,1,1,95,0,1
88426,-100,4,1,2,75,0,0
90744,-76.9230769230769,4,2,5,75,0,1
91153,-76.9230769230769,4,3,1,95,0,1
91410,-76.9230769230769,4,1,1,95,0,1
93285,-76.9230769230769,4,3,1,95,0,1
93592,-76.9230769230769,4,1,1,95,0,1
95467,-76.9230769230769,4,3,1,95,0,1
95774,-76.9230769230769,4,1,1,95,0,1
97658,-76.9230769230769,4,3,1,95,0,1
97965,-76.9230769230769,4,1,1,95,0,1
99830,-76.9230769230769,4,3,1,95,0,1
100137,-76.9230769230769,4,1,1,95,0,1
102012,-76.9230769230769,4,3,1,95,0,1
102319,-76.9230769230769,4,1,1,95,0,1
104194,-76.9230769230769,4,3,1,95,0,1
104501,-76.9230769230769,4,1,1,95,0,1
106017,-100,4,1,2,90,0,0
106153,-100,4,1,1,20,0,0
108011,-200,4,3,2,10,0,0

[Colours]
Combo1 : 0,128,192
Combo2 : 0,128,128
Combo3 : 64,0,128
Combo4 : 0,255,255

[HitObjects]
256,192,1290,5,2,0:0:0:0:
256,192,1426,12,0,3199,0:0:0:0:
294,134,3471,6,0,B|228:112|228:112|152:120,1,146.250000214577,6|0,0:0|0:0,0:0:0:0:
96,216,4017,6,0,L|100:266,2,48.7500000715256,2|0|0,0:0|0:0|0:0,0:0:0:0:
151,120,4426,1,0,0:0:0:0:
224,36,4562,2,0,L|272:28,2,48.7500000715256,2|0|0,0:0|0:0|0:0,0:0:0:0:
424,96,4971,5,0,0:0:0:0:
432,192,5108,1,2,0:0:0:0:
336,208,5244,1,0,0:0:0:0:
352,304,5380,1,0,0:0:0:0:
448,288,5517,1,0,0:0:0:0:
248,288,5653,6,0,B|104:264,1,146.250000214577,6|0,0:0|0:0,0:0:0:0:
84,150,6199,6,0,L|16:143,2,48.7500000715256,2|0|0,0:0|0:0|0:0,0:0:0:0:
176,312,6608,1,0,0:0:0:0:
160,96,6744,2,0,L|184:48,2,48.7500000715256,2|0|0,0:0|0:0|0:0,0:0:0:0:
268,264,7153,5,0,0:0:0:0:
336,184,7290,1,2,0:0:0:0:
238,148,7426,1,0,0:0:0:0:
137,168,7562,1,0,0:0:0:0:
35,145,7699,1,0,0:0:0:0:
176,312,7835,6,0,B|348:312,1,146.250000214577,6|0,0:0|0:0,0:0:0:0:
408,352,8380,6,0,L|480:344,2,48.7500000715256,2|0|0,0:0|0:0|0:0,0:0:0:0:
352,144,8790,1,0,0:0:0:0:
322,312,8926,2,0,L|273:318,2,48.7500000715256,2|0|0,0:0|0:0|0:0,0:0:0:0:
304,56,9335,5,0,0:0:0:0:
224,238,9471,1,2,0:0:0:0:
432,200,9608,1,0,0:0:0:0:
224,120,9744,1,0,0:0:0:0:
322,312,9880,1,0,0:0:0:0:
224,120,10017,6,0,B|57:104,1,146.250000214577,6|0,0:0|0:0,0:0:0:0:
153,22,10562,6,0,L|105:31,2,48.7500000715256,2|0|0,0:0|0:0|0:0,0:0:0:0:
39,230,10971,1,0,0:0:0:0:
120,184,11108,2,0,L|168:188,2,48.7500000715256,2|0|0,0:0|0:0|0:0,0:0:0:0:
254,224,11517,1,0,0:0:0:0:
400,90,11653,5,2,0:0:0:0:
246,141,11790,1,0,0:0:0:0:
314,289,11926,1,0,0:0:0:0:
136,264,12062,1,0,0:0:0:0:
388,321,12199,6,0,B|220:321,1,146.250000214577,6|0,0:0|0:0,0:0:0:0:
80,344,12744,6,0,L|32:344,2,48.7500000715256,2|0|0,0:0|0:0|0:0,0:0:0:0:
368,224,13153,1,0,0:0:0:0:
136,264,13290,6,0,L|72:264,2,48.7500000715256,2|0|0,0:0|0:0|0:0,0:0:0:0:
342,145,13699,1,0,0:0:0:0:
176,344,13835,1,2,0:0:0:0:
230,137,13971,1,0,0:0:0:0:
340,345,14108,1,0,0:0:0:0:
291,75,14244,1,0,0:0:0:0:
367,370,14380,6,0,B|368:224,1,146.250000214577,6|0,0:0|0:0,0:0:0:0:
368,223,14926,6,0,L|320:217,2,48.7500000715256,2|0|0,0:0|0:0|0:0,0:0:0:0:
230,137,15335,1,0,0:0:0:0:
425,57,15471,2,0,L|474:43,2,48.7500000715256,2|0|0,0:0|0:0|0:0,0:0:0:0:
404,296,15880,1,0,0:0:0:0:
268,100,16017,5,2,0:0:0:0:
456,190,16153,1,0,0:0:0:0:
255,273,16290,1,0,0:0:0:0:
416,84,16426,1,0,0:0:0:0:
255,273,16562,6,0,B|256:104,1,146.250000214577,6|0,0:0|0:0,0:0:0:0:
255,273,17108,6,0,L|303:272,2,48.7500000715256,2|0|0,0:0|0:0|0:0,0:0:0:0:
71,213,17517,1,0,0:0:0:0:
217,157,17653,2,0,L|266:118,2,48.7500000715256,2|0|0,0:0|0:0|0:0,0:0:0:0:
131,336,18062,1,0,0:0:0:0:
392,276,18199,5,6,0:0:0:0:
408,304,18744,6,0,B|388:224|388:224|412:164|412:164|400:52,1,253.499979097367,6|4,0:0|0:0,0:0:0:0:
230,319,19290,5,2,0:0:0:0:
208,72,19426,1,0,0:0:0:0:
153,288,19562,2,0,B|176:304|176:304|233:320,1,84.4999930324558,8|0,0:0|0:0,0:0:0:0:
135,104,19835,5,2,0:0:0:0:
446,165,19971,1,0,0:0:0:0:
109,184,20108,2,0,B|117:144|117:144|141:93,1,84.4999930324558,8|0,0:0|0:0,0:0:0:0:
380,105,20380,5,2,0:0:0:0:
82,257,20517,1,0,0:0:0:0:
197,49,20653,5,8,0:0:0:0:
313,319,20790,1,0,0:0:0:0:
446,165,20926,6,0,P|460:66|328:33,1,253.499979097367,6|0,0:0|0:0,0:0:0:0:
159,139,21471,6,0,B|135:110|135:110|115:67,2,84.4999930324558,2|0|8,0:0|0:0|0:0,0:0:0:0:
317,288,21880,1,0,0:0:0:0:
152,272,22017,6,0,B|136:313|136:313|130:354,2,84.4999930324558,2|0|8,0:0|0:0|0:0,0:0:0:0:
261,72,22426,1,0,0:0:0:0:
104,204,22562,6,0,B|115:203|60:212|60:212|4:203,2,84.4999930324558,2|0|8,0:0|0:0|0:0,0:0:0:0:
400,149,22971,1,0,0:0:0:0:
56,120,23108,6,0,B|128:104|176:136|176:136|232:176|304:152,1,253.499979097367,6|0,0:0|0:0,0:0:0:0:
216,320,23653,5,2,0:0:0:0:
432,203,23790,1,0,0:0:0:0:
248,76,23926,1,8,0:0:0:0:
363,328,24062,1,0,0:0:0:0:
152,44,24199,5,2,0:0:0:0:
362,246,24335,1,0,0:0:0:0:
104,215,24471,1,8,0:0:0:0:
331,49,24608,1,0,0:0:0:0:
216,320,24744,1,2,0:0:0:0:
312,16,24880,1,0,0:0:0:0:
292,287,25017,5,8,0:0:0:0:
236,48,25153,1,0,0:0:0:0:
418,256,25290,6,0,B|362:260|362:260|290:252|290:252|234:260|234:260|158:256,1,253.499979097367,6|0,0:0|0:0,0:0:0:0:
217,86,25835,5,2,0:0:0:0:
286,343,25971,1,0,3:0:0:0:
133,244,26107,1,8,0:0:0:0:
445,330,26244,1,0,0:0:0:0:
119,160,26380,5,2,0:0:0:0:
367,362,26516,1,0,0:0:0:0:
217,86,26653,1,8,0:0:0:0:
200,336,26790,1,0,3:0:0:0:
81,171,26926,5,2,0:0:0:0:
406,263,27062,1,0,3:0:0:0:
133,244,27199,5,8,0:0:0:0:
448,192,27335,1,0,3:0:0:0:
265,22,27471,6,2,P|137:80|235:163,1,253.499979097367,6|0,0:0|0:0,0:0:0:0:
368,271,28017,5,2,0:0:0:0:
99,270,28153,1,0,0:0:0:0:
433,348,28290,2,0,B|433:319|433:319|448:287|448:287|448:260,1,84.4999930324558,8|0,0:0|0:0,0:0:0:0:
402,77,28562,2,0,B|360:66|360:66|319:74,1,84.4999930324558,2|0,0:0|0:0,0:0:0:0:
129,129,28835,5,0,0:0:0:0:
408,276,28971,1,0,0:0:0:0:
359,147,29108,1,2,0:0:0:0:
285,301,29244,1,0,0:0:0:0:
360,41,29380,1,8,0:0:0:0:
402,368,29517,1,0,0:0:0:0:
191,79,29653,6,0,P|67:77|78:190,1,253.499979097367,6|0,0:0|0:0,0:0:0:0:
298,327,30199,5,2,0:0:0:0:
96,276,30335,1,0,0:0:0:0:
313,150,30472,1,8,0:0:0:0:
154,340,30608,1,0,0:0:0:0:
368,216,30744,5,2,0:0:0:0:
16,295,30880,1,0,0:0:0:0:
416,296,31017,5,8,0:0:0:0:
72,136,31153,1,0,0:0:0:0:
394,140,31290,5,2,0:0:0:0:
40,215,31426,1,0,0:0:0:0:
460,200,31562,5,8,0:0:0:0:
32,64,31699,1,0,0:0:0:0:
460,200,31835,6,0,P|417:53|328:82,1,253.499979097367,6|0,0:0|0:0,0:0:0:0:
138,161,32380,5,2,0:0:0:0:
203,274,32517,1,0,0:0:0:0:
292,17,32653,1,8,0:0:0:0:
336,191,32790,1,0,0:0:0:0:
259,93,32926,5,2,0:0:0:0:
397,253,33062,1,0,0:0:0:0:
203,274,33199,1,8,0:0:0:0:
281,375,33335,1,0,0:0:0:0:
255,214,33471,5,2,0:0:0:0:
205,354,33608,1,0,0:0:0:0:
259,93,33744,5,8,0:0:0:0:
281,375,33880,1,0,0:0:0:0:
448,314,34017,6,0,P|458:200|341:196,1,253.499979097367,6|0,0:0|0:0,0:0:0:0:
210,305,34562,5,2,0:0:0:0:
318,79,34699,1,0,0:0:0:0:
335,287,34835,1,8,0:0:0:0:
257,31,34971,1,0,0:0:0:0:
265,244,35108,5,2,0:0:0:0:
246,107,35244,1,0,0:0:0:0:
128,306,35380,2,0,P|161:335|206:340,1,84.4999930324558
284,331,35653,5,2,0:0:0:0:
363,300,35790,1,0,0:0:0:0:
385,218,35926,1,0,0:0:0:0:
338,148,36062,1,0,0:0:0:0:
256,136,36199,6,0,P|294:76|419:167,1,253.499979097367,6|0,0:0|0:0,0:0:0:0:
144,344,36744,6,0,B|104:384|56:360|56:360|72:328|72:296|72:296|32:280|32:216,1,253.499979097367,6|0,0:0|0:0,0:0:0:0:
297,24,37290,5,2,0:0:0:0:
168,195,37426,1,0,0:0:0:0:
324,116,37562,5,8,0:0:0:0:
94,159,37699,1,0,0:0:0:0:
400,275,37835,5,2,0:0:0:0:
109,261,37971,1,0,0:0:0:0:
439,173,38108,5,8,0:0:0:0:
64,332,38244,1,0,0:0:0:0:
400,105,38380,6,0,P|502:125|469:247,1,253.499979097367,6|0,0:0|0:0,0:0:0:0:
230,342,38926,6,0,B|189:351|189:351|147:350,1,84.4999930324558,2|0,0:0|0:0,0:0:0:0:
200,48,39199,2,0,B|241:38|241:38|283:40,1,84.4999930324558,8|0,0:0|0:0,0:0:0:0:
209,262,39471,6,0,P|103:217|147:111,1,253.499979097367,2|0,0:0|0:0,0:0:0:0:
367,95,40017,1,2,0:0:0:0:
180,188,40153,1,0,0:0:0:0:
432,160,40290,1,8,0:0:0:0:
240,128,40426,1,0,0:0:0:0:
375,339,40562,6,0,L|121:339,1,253.499979097367,6|0,0:0|0:0,0:0:0:0:
375,339,41108,6,0,P|366:226|247:235,1,253.499979097367,2|0,0:0|0:0,0:0:0:0:
168,352,41653,5,2,0:0:0:0:
248,72,41790,1,0,0:0:0:0:
312,284,41926,1,8,0:0:0:0:
96,32,42062,1,0,0:0:0:0:
328,56,42199,5,2,0:0:0:0:
238,323,42335,1,0,0:0:0:0:
48,96,42471,1,8,0:0:0:0:
348,88,42608,1,0,0:0:0:0:
62,308,42744,6,0,B|151:308|151:308|231:284|231:284|311:284,1,253.499979097367,6|0,0:0|0:0,0:0:0:0:
135,223,43290,6,0,P|117:112|229:109,1,253.499979097367,2|0,0:0|0:0,0:0:0:0:
240,360,43835,5,2,0:0:0:0:
348,88,43971,1,0,0:0:0:0:
348,336,44108,1,0,0:0:0:0:
213,17,44244,1,8,0:0:0:0:
448,240,44380,5,2,0:0:0:0:
175,159,44517,1,0,0:0:0:0:
370,0,44653,1,8,0:0:0:0:
476,248,44790,1,8,0:0:0:0:
259,68,44926,6,0,P|163:44|195:164,1,253.499979097367,6|0,0:0|0:0,0:0:0:0:
496,192,45471,6,0,B|452:201|452:201|404:193|404:193|344:181|344:181|296:193|296:193|232:193,1,253.499979097367,2|0,0:0|0:0,0:0:0:0:
208,320,46017,5,2,0:0:0:0:
384,96,46153,1,0,0:0:0:0:
88,312,46290,5,8,0:0:0:0:
264,96,46426,1,0,0:0:0:0:
296,336,46562,5,2,0:0:0:0:
60,121,46699,1,0,0:0:0:0:
408,312,46835,5,8,0:0:0:0:
176,104,46971,1,0,0:0:0:0:
16,184,47108,6,0,P|0:72|112:64,1,253.499979097367,6|0,0:0|0:0,0:0:0:0:
440,352,47653,6,0,L|368:288,1,84.4999930324558,2|0,0:0|0:0,0:0:0:0:
144,96,47926,2,0,L|208:152,1,84.4999930324558
184,312,48199,6,0,B|145:272|145:272|160:208|160:208|56:120,1,253.499979097367,2|0,0:0|0:0,0:0:0:0:
344,216,48744,5,2,0:0:0:0:
320,360,48880,1,0,0:0:0:0:
416,168,49017,1,8,0:0:0:0:
240,368,49153,1,0,0:0:0:0:
432,248,49290,6,0,P|496:152|393:88,1,253.499979097367,6|0,0:0|0:0,0:0:0:0:
240,368,49835,6,0,B|232:280|232:280|248:180|248:180|240:96,1,253.499979097367,2|0,0:0|0:0,0:0:0:0:
124,104,50380,5,2,0:0:0:0:
360,280,50517,1,0,0:0:0:0:
96,76,50653,1,8,0:0:0:0:
396,300,50790,1,0,0:0:0:0:
76,328,50926,5,2,0:0:0:0:
416,44,51062,1,0,0:0:0:0:
422,323,51199,1,8,0:0:0:0:
69,49,51335,1,0,0:0:0:0:
405,210,51471,6,2,B|368:229|368:229|283:225|283:225|212:250|212:250|161:249,1,253.499979097367,6|0,0:0|0:0,0:0:0:0:
59,289,52017,6,0,P|100:176|220:168,1,253.499979097367,2|0,0:0|0:0,0:0:0:0:
348,299,52562,5,2,0:0:0:0:
163,87,52699,1,0,0:0:0:0:
372,328,52835,1,8,0:0:0:0:
140,60,52972,1,0,0:0:0:0:
116,357,53108,5,2,0:0:0:0:
395,26,53244,1,0,0:0:0:0:
117,27,53380,1,8,0:0:0:0:
394,356,53517,1,0,0:0:0:0:
256,192,53653,5,6,0:0:0:0:
256,192,53790,12,0,55562,0:0:0:0:
320,144,55835,6,0,B|268:128|268:128|216:128,1,97.4999964237214,6|0,0:0|0:0,0:0:0:0:
136,256,56380,6,0,L|142:287,2,32.4999988079071,2|0|0,0:0|0:0|0:0,0:0:0:0:
120,128,56789,1,0,0:0:0:0:
256,216,56926,2,0,L|288:232,2,32.4999988079071,2|0|0,0:0|0:0|0:0,0:0:0:0:
72,200,57335,1,0,0:0:0:0:
120,128,57471,1,2,0:0:0:0:
208,112,57608,1,0,0:0:0:0:
248,32,57744,1,0,0:0:0:0:
336,32,57880,1,0,0:0:0:0:
256,216,58017,6,0,L|288:328,1,97.4999964237214,6|0,0:0|0:0,0:0:0:0:
344,256,58562,5,2,0:0:0:0:
160,200,58699,2,0,L|124:200,2,32.4999988079071
424,224,59108,2,0,L|456:240,2,32.4999988079071,2|0|0,0:0|0:0|0:0,0:0:0:0:
248,128,59517,1,0,0:0:0:0:
176,280,59653,2,0,L|168:312,1,32.4999988079071,2|0,0:0|0:0,0:0:0:0:
128,48,59926,2,0,L|96:40,1,32.4999988079071
266,301,60199,6,0,L|254:205,1,97.4999964237214,6|0,0:0|0:0,0:0:0:0:
332,168,60744,5,2,0:0:0:0:
128,208,60880,2,0,L|72:224,2,32.4999988079071
368,280,61290,1,2,0:0:0:0:
128,120,61426,2,0,L|88:112,2,32.4999988079071
128,208,61835,5,2,0:0:0:0:
224,120,61971,1,0,0:0:0:0:
120,24,62108,1,0,0:0:0:0:
200,248,62244,1,0,0:0:0:0:
40,168,62380,6,0,L|51:268,1,97.4999964237214,6|0,0:0|0:0,0:0:0:0:
120,320,62926,5,2,0:0:0:0:
225,269,63062,1,0,0:0:0:0:
338,305,63199,1,0,0:0:0:0:
448,264,63335,1,0,0:0:0:0:
494,190,63471,1,2,0:0:0:0:
420,144,63608,1,0,0:0:0:0:
373,218,63744,1,0,0:0:0:0:
277,125,63880,5,0,0:0:0:0:
259,39,64017,1,2,0:0:0:0:
173,58,64153,1,0,0:0:0:0:
192,144,64290,1,0,0:0:0:0:
284,132,64426,1,0,0:0:0:0:
108,239,64562,6,0,L|10:242,1,97.4999964237214,6|0,0:0|0:0,0:0:0:0:
123,157,65108,6,0,L|88:136,2,32.4999988079071,2|0|0,0:0|0:0|0:0,0:0:0:0:
190,215,65517,1,0,0:0:0:0:
252,153,65653,1,2,0:0:0:0:
338,135,65790,1,0,0:0:0:0:
342,47,65926,1,0,0:0:0:0:
257,23,66062,1,0,0:0:0:0:
176,59,66199,6,0,L|120:79,2,32.4999988079071,2|0|0,0:0|0:0|0:0,0:0:0:0:
257,23,66608,1,0,0:0:0:0:
342,47,66744,6,0,L|353:143,1,97.4999964237214,6|0,0:0|0:0,0:0:0:0:
496,72,67290,5,2,0:0:0:0:
435,171,67426,1,0,0:0:0:0:
474,280,67562,1,0,0:0:0:0:
366,330,67699,1,0,0:0:0:0:
279,353,67835,1,0,0:0:0:0:
257,267,67971,1,0,0:0:0:0:
342,244,68108,1,0,0:0:0:0:
152,211,68244,5,0,0:0:0:0:
232,176,68380,1,2,0:0:0:0:
311,138,68517,1,0,0:0:0:0:
268,61,68653,1,0,0:0:0:0:
187,96,68790,1,0,0:0:0:0:
152,211,68926,6,0,L|149:324,1,97.4999964237214,6|0,0:0|0:0,0:0:0:0:
226,267,69471,5,2,0:0:0:0:
248,181,69608,1,0,0:0:0:0:
323,136,69744,1,0,0:0:0:0:
247,92,69880,1,0,0:0:0:0:
328,224,70017,5,2,0:0:0:0:
416,224,70153,1,0,0:0:0:0:
416,312,70290,1,8,0:2:0:0:
328,312,70426,1,8,0:2:0:0:
176,136,70562,5,6,0:0:0:0:
208,272,71108,6,0,B|190:225|190:225|110:201|110:201|70:81,1,253.499979097367
403,214,71653,5,2,0:0:0:0:
272,80,71790,1,0,0:0:0:0:
308,288,71926,1,8,0:0:0:0:
336,32,72062,1,0,0:0:0:0:
180,135,72199,5,2,0:0:0:0:
475,168,72335,1,0,0:0:0:0:
159,60,72471,5,0,0:0:0:0:
390,292,72608,1,8,0:0:0:0:
88,156,72744,5,2,0:0:0:0:
403,214,72880,1,0,0:3:0:0:
159,213,73017,5,8,0:0:0:0:
503,96,73153,1,0,0:0:0:0:
227,176,73290,6,0,P|119:147|98:260,1,253.499979097367,6|0,0:0|0:0,0:0:0:0:
401,326,73835,5,2,0:0:0:0:
159,213,73971,1,0,0:0:0:0:
275,368,74108,1,8,0:0:0:0:
339,59,74244,1,0,0:0:0:0:
434,327,74380,5,2,0:0:0:0:
165,185,74517,1,0,0:0:0:0:
245,379,74653,1,8,0:0:0:0:
323,38,74790,1,0,0:0:0:0:
148,358,74926,5,2,0:0:0:0:
454,197,75062,1,0,0:0:0:0:
128,193,75199,5,8,0:0:0:0:
418,358,75335,1,0,0:0:0:0:
294,147,75471,6,0,P|330:35|220:7,1,253.499979097367,6|0,0:0|0:0,0:0:0:0:
128,193,76017,5,2,0:0:0:0:
261,75,76153,1,0,0:0:0:0:
203,301,76290,1,8,0:0:0:0:
136,12,76426,1,0,0:0:0:0:
284,320,76562,5,2,0:0:0:0:
64,68,76699,1,0,0:0:0:0:
441,166,76835,1,8,0:0:0:0:
113,278,76971,1,0,0:0:0:0:
388,98,77108,5,2,0:0:0:0:
140,357,77244,1,0,0:0:0:0:
494,237,77380,5,8,0:0:0:0:
63,148,77517,1,0,0:0:0:0:
324,165,77653,6,0,P|372:109|224:80,1,253.499979097367,6|0,0:0|0:0,0:0:0:0:
116,233,78199,5,2,0:0:0:0:
296,96,78335,1,0,0:0:0:0:
203,359,78471,1,0,0:0:0:0:
176,52,78608,1,0,0:0:0:0:
292,325,78744,5,2,0:0:0:0:
97,202,78880,1,0,0:0:0:0:
366,294,79017,2,0,B|385:251|385:251|382:194,1,84.4999930324558
159,140,79290,2,0,B|205:140|205:140|269:155,1,84.4999930324558
62,42,79562,2,0,B|61:81|61:81|80:123,1,84.4999930324558
366,294,79835,6,0,P|473:263|430:159,1,253.499979097367,6|0,0:0|0:0,0:0:0:0:
275,89,80380,5,2,0:0:0:0:
406,230,80517,1,8,0:0:0:0:
240,256,80653,1,0,0:0:0:0:
496,100,80790,1,0,0:0:0:0:
61,63,80926,5,2,0:0:0:0:
308,103,81062,1,8,0:0:0:0:
69,240,81199,1,0,0:0:0:0:
297,344,81336,1,0,0:0:0:0:
80,274,81472,5,2,0:0:0:0:
280,78,81608,1,0,0:0:0:0:
332,360,81744,1,8,0:0:0:0:
472,124,81880,1,0,0:0:0:0:
31,337,82017,6,0,P|16:223|129:210,1,253.499979097367,6|0,0:0|0:0,0:0:0:0:
288,344,82562,5,2,0:0:0:0:
364,168,82699,1,0,0:0:0:0:
80,274,82835,1,8,0:0:0:0:
461,340,82971,1,0,0:0:0:0:
238,236,83108,5,2,0:0:0:0:
436,364,83244,1,0,0:0:0:0:
428,68,83380,1,8,0:0:0:0:
316,360,83516,1,0,0:0:0:0:
340,184,83653,2,0,B|338:172|338:172|358:131|358:131|357:105,1,84.4999930324558,2|0,0:0|0:0,0:0:0:0:
125,340,83926,2,0,B|138:337|138:337|179:357|179:357|205:356,1,84.4999930324558,8|0,0:0|0:0,0:0:0:0:
53,139,84199,6,0,P|26:34|171:64,1,253.499979097367,6|0,0:0|0:0,0:0:0:0:
240,160,84744,5,2,0:0:0:0:
93,71,84880,1,0,0:0:0:0:
128,288,85017,1,8,0:0:0:0:
336,256,85153,1,0,0:0:0:0:
96,368,85290,5,2,0:0:0:0:
368,176,85426,1,0,0:0:0:0:
71,226,85562,5,8,0:0:0:0:
403,319,85699,1,0,0:0:0:0:
150,195,85835,5,0,0:0:0:0:
174,87,85971,1,0,0:0:0:0:
252,356,86108,1,0,0:0:0:0:
227,248,86244,1,0,0:0:0:0:
144,64,86380,6,0,B|192:48|192:48|256:68|256:68|340:56|340:56|416:72,1,253.499979097367,6|0,0:0|0:0,0:0:0:0:
172,136,86926,6,0,B|140:144|140:144|108:136|108:136|89:136,1,84.4999930324558
400,304,87199,2,0,B|432:312|432:312|464:304|464:304|482:304,1,84.4999930324558
144,64,87471,1,2,0:0:0:0:
256,360,87607,1,0,0:0:0:0:
232,24,87744,5,8,0:0:0:0:
184,316,87880,1,8,0:0:0:0:
444,68,88017,5,2,0:0:0:0:
96,336,88153,1,0,0:0:0:0:
456,208,88290,5,8,0:0:0:0:
60,56,88426,1,0,0:0:0:0:
256,192,88562,5,6,0:0:0:0:
64,347,90744,6,4,P|83:243|219:211,1,253.499979097367
382,311,91290,5,2,0:0:0:0:
312,58,91426,1,0,0:0:0:0:
166,307,91562,1,8,0:0:0:0:
431,162,91699,1,0,0:0:0:0:
63,155,91835,2,0,B|55:115|55:115|63:71,1,84.4999930324558,2|0,0:0|0:0,0:0:0:0:
448,189,92108,5,8,0:0:0:0:
140,30,92244,1,0,0:0:0:0:
294,342,92380,2,0,B|302:301|302:301|287:256,1,84.4999930324558,2|0,0:0|0:0,0:0:0:0:
140,30,92653,2,0,B|228:25,1,84.4999930324558,8|0,0:0|0:0,0:0:0:0:
216,305,92926,6,0,P|117:259|197:157,1,253.499979097367,6|0,0:0|0:0,0:0:0:0:
310,123,93471,5,2,0:0:0:0:
224,25,93608,1,0,0:0:0:0:
288,260,93744,1,0,0:3:0:0:
344,0,93880,1,0,0:0:0:0:
189,233,94017,5,2,0:0:0:0:
385,72,94153,1,0,0:0:0:0:
157,78,94290,1,8,0:0:0:0:
366,302,94426,1,0,0:3:0:0:
131,54,94562,5,2,0:0:0:0:
216,251,94699,1,0,0:0:0:0:
416,44,94835,1,8,0:0:0:0:
337,313,94971,1,0,0:0:0:0:
199,177,95108,6,0,P|141:267|245:322,1,253.499979097367,6|0,0:0|0:0,0:0:0:0:
480,268,95653,5,2,0:0:0:0:
280,200,95790,1,0,0:0:0:0:
408,352,95926,1,8,0:0:0:0:
348,40,96062,1,0,0:0:0:0:
64,152,96199,2,0,L|160:160,1,84.4999930324558,2|0,0:0|0:0,0:0:0:0:
420,212,96471,2,0,L|328:256,1,84.4999930324558,8|0,0:0|0:0,0:0:0:0:
132,348,96744,5,2,0:0:0:0:
176,140,96880,1,0,0:0:0:0:
328,280,97017,1,8,0:0:0:0:
380,24,97153,1,0,0:0:0:0:
320,316,97290,6,0,B|259:294|259:294|131:326|131:326|48:316,1,253.499979097367,6|0,0:0|0:0,0:0:0:0:
44,228,97835,6,0,B|40:184|40:184|60:132,1,84.4999930324558,2|0,0:0|0:0,0:0:0:0:
264,260,98108,1,8,0:0:0:0:
188,32,98244,1,0,0:0:0:0:
400,168,98380,2,0,B|492:156,1,84.4999930324558,2|0,0:0|0:0,0:0:0:0:
138,135,98653,2,0,B|54:145,1,84.4999930324558,8|0,0:0|0:0,0:0:0:0:
328,128,98926,5,0,0:0:0:0:
175,208,99062,1,0,0:0:0:0:
396,200,99199,1,8,0:0:0:0:
36,120,99335,1,0,0:0:0:0:
351,270,99471,6,0,P|463:248|445:134,1,253.499979097367,6|0,0:0|0:0,0:0:0:0:
322,77,100017,5,2,0:0:0:0:
396,200,100153,1,0,0:0:0:0:
179,122,100290,1,8,0:0:0:0:
231,353,100426,1,0,0:0:0:0:
239,59,100562,5,2,0:0:0:0:
159,316,100699,1,0,0:0:0:0:
161,44,100835,5,8,0:0:0:0:
309,337,100971,1,0,0:0:0:0:
262,138,101108,5,2,0:0:0:0:
83,283,101244,1,0,0:0:0:0:
351,270,101380,1,8,0:0:0:0:
35,215,101517,1,0,0:0:0:0:
222,70,101653,6,0,P|334:104|282:216,1,253.499979097367,6|0,0:0|0:0,0:0:0:0:
207,267,102199,5,2,0:0:0:0:
262,138,102335,1,0,0:0:0:0:
265,343,102471,1,8,0:0:0:0:
195,187,102608,1,0,0:0:0:0:
322,285,102744,5,2,0:0:0:0:
149,116,102880,1,0,0:0:0:0:
374,120,103017,1,8,0:0:0:0:
186,346,103153,1,0,0:0:0:0:
222,70,103290,5,0,0:0:0:0:
345,360,103426,1,0,0:0:0:0:
82,69,103562,1,0,0:0:0:0:
443,69,103699,1,0,0:0:0:0:
196,183,103835,6,0,B|260:241|327:188|327:188|388:143|464:198,1,253.499979097367
343,328,104380,5,2,0:0:0:0:
238,32,104517,1,0,0:0:0:0:
183,340,104653,1,8,0:0:0:0:
384,100,104790,1,0,0:0:0:0:
80,208,104926,5,2,0:0:0:0:
407,266,105062,1,0,0:0:0:0:
153,53,105199,1,8,0:0:0:0:
266,364,105335,1,0,0:0:0:0:
327,30,105471,5,2,0:0:0:0:
103,296,105608,1,0,0:0:0:0:
430,178,105744,1,8,0:0:0:0:
88,118,105880,1,0,0:0:0:0:
256,192,106017,5,6,0:0:0:0:
256,192,106153,12,0,107653,0:0:0:0:
496,332,108199,6,0,B|464:360|428:352|428:352|416:308|448:268|448:268|392:256|386:215|386:215|376:173|336:176|336:176|312:253|228:232,1,454.9999833107,2|8,0:0|0:0,0:0:0:0:
53,173,110380,6,0,B|-49:20|162:-13|169:84|169:84|259:29|266:124|259:173|259:173,1,454.9999833107,2|8,0:0|0:0,0:0:0:0:
344,40,112562,6,0,B|322:124|348:167|348:167|398:272|311:323|238:300|238:300|206:362|139:336,1,454.9999833107,2|8,0:0|0:0,0:0:0:0:
448,104,114744,5,2,0:0:0:0:
