osu file format v14

[General]
AudioFilename: audio.mp3
AudioLeadIn: 0
PreviewTime: 52969
Countdown: 0
SampleSet: Normal
StackLeniency: 0.7
Mode: 1
LetterboxInBreaks: 0
WidescreenStoryboard: 1

[Editor]
DistanceSpacing: 0.8
BeatDivisor: 1
GridSize: 32
TimelineZoom: 1.300001

[Metadata]
Title:Insomnia
TitleUnicode:Insomnia
Artist:Panda Eyes
ArtistUnicode:Panda Eyes
Creator:Capu
Version:Kantan
Source:osu!
Tags:fa featured artist mappers guild mpg mg electronic instrumental wub dubstep vulkin cychloryn hirok eae
BeatmapID:2235430
BeatmapSetID:1065505

[Difficulty]
HPDrainRate:8
CircleSize:2
OverallDifficulty:3
ApproachRate:10
SliderMultiplier:1.4
SliderTickRate:1

[Events]
//Background and Video events
0,0,"wood-1118468_1920.jpg",0,0
//Break Periods
2,112359,118285
2,118935,124860
//Storyboard Layer 0 (Background)
//Storyboard Layer 1 (Fail)
//Storyboard Layer 2 (Pass)
//Storyboard Layer 3 (Foreground)
//Storyboard Layer 4 (Overlay)
//Storyboard Sound Samples

[TimingPoints]
379,410.958904109589,4,1,0,70,1,0
52981,-100,4,1,0,85,0,1
69420,-100,4,1,0,85,0,0
70242,-100,4,1,0,85,0,1
79283,-100,4,1,0,85,0,0
85858,-100,4,1,0,85,0,1
97913,-100,4,1,0,85,0,1
98187,-100,4,1,0,85,0,0
99009,-100,4,1,0,85,0,1
111337,-100,4,1,0,85,0,0
138461,-100,4,1,0,85,0,1
164762,-100,4,1,0,85,0,0
177913,-100,4,1,0,85,0,0
178324,-100,4,1,0,81,0,0
178735,-100,4,1,0,78,0,0
179146,-100,4,1,0,74,0,0
179557,-100,4,1,0,70,0,0
179968,-100,4,1,0,67,0,0
180379,-100,4,1,0,63,0,0
180789,-100,4,1,0,60,0,0
181200,-100,4,1,0,56,0,0
181611,-100,4,1,0,52,0,0
182022,-100,4,1,0,49,0,0
182433,-100,4,1,0,45,0,0
182844,-100,4,1,0,41,0,0
183255,-100,4,1,0,38,0,0
183666,-100,4,1,0,34,0,0
184077,-100,4,1,0,30,0,0
184488,-100,4,1,0,27,0,0
184899,-100,4,1,0,23,0,0
185310,-100,4,1,0,20,0,0
185721,-100,4,1,0,16,0,0
186132,-100,4,1,0,12,0,0
186543,-100,4,1,0,9,0,0
186954,-100,4,1,0,5,0,0

[HitObjects]
256,192,26680,5,4,0:0:0:0:
256,192,27296,1,8,0:0:0:0:
256,192,27913,1,8,0:0:0:0:
256,192,29146,1,8,0:0:0:0:
256,192,29968,1,0,0:0:0:0:
256,192,30584,1,8,0:0:0:0:
256,192,31200,1,8,0:0:0:0:
256,192,32433,1,8,0:0:0:0:
256,192,32844,5,0,0:0:0:0:
256,192,33255,1,8,0:0:0:0:
256,192,33872,1,8,0:0:0:0:
256,192,34488,1,8,0:0:0:0:
256,192,35721,1,8,0:0:0:0:
256,192,36543,1,0,0:0:0:0:
256,192,37159,1,8,0:0:0:0:
256,192,37776,1,8,0:0:0:0:
256,192,38187,1,0,0:0:0:0:
256,192,38598,1,0,0:0:0:0:
256,192,39009,1,8,0:0:0:0:
256,192,39420,1,0,0:0:0:0:
256,192,39831,1,8,0:0:0:0:
256,192,41063,1,8,0:0:0:0:
256,192,41885,1,0,0:0:0:0:
256,192,42296,1,8,0:0:0:0:
256,192,43118,1,8,0:0:0:0:
256,192,44351,1,8,0:0:0:0:
256,192,45173,1,0,0:0:0:0:
256,192,45584,1,8,0:0:0:0:
256,192,46406,1,8,0:0:0:0:
256,192,46817,1,0,0:0:0:0:
256,192,47228,1,8,0:0:0:0:
256,192,48050,1,8,0:0:0:0:
256,192,48461,1,8,0:0:0:0:
256,192,48872,1,8,0:0:0:0:
256,192,49694,1,0,0:0:0:0:
256,192,50515,1,0,0:0:0:0:
256,192,51337,1,0,0:0:0:0:
256,192,52981,1,12,0:0:0:0:
256,192,53803,1,0,0:0:0:0:
256,192,54625,1,8,0:0:0:0:
256,192,55036,1,8,0:0:0:0:
256,192,55447,1,8,0:0:0:0:
256,192,56269,1,0,0:0:0:0:
256,192,56680,1,8,0:0:0:0:
256,192,57091,1,0,0:0:0:0:
256,192,57913,1,8,0:0:0:0:
256,192,58324,1,8,0:0:0:0:
256,192,58735,1,8,0:0:0:0:
256,192,59968,1,8,0:0:0:0:
256,192,60378,1,0,0:0:0:0:
256,192,61200,1,8,0:0:0:0:
256,192,61611,1,8,0:0:0:0:
256,192,62022,1,8,0:0:0:0:
256,192,62844,1,0,0:0:0:0:
256,192,63255,1,8,0:0:0:0:
256,192,63666,1,0,0:0:0:0:
256,192,64488,1,8,0:0:0:0:
256,192,65310,1,0,0:0:0:0:
256,192,66132,1,12,0:0:0:0:
256,192,66954,1,8,0:0:0:0:
256,192,67365,1,0,0:0:0:0:
256,192,67776,1,0,0:0:0:0:
256,192,68598,1,8,0:0:0:0:
256,192,70242,1,8,0:0:0:0:
256,192,70652,1,0,0:0:0:0:
256,192,71063,1,0,0:0:0:0:
256,192,71474,1,8,0:0:0:0:
256,192,71885,1,8,0:0:0:0:
256,192,73118,1,8,0:0:0:0:
256,192,73529,1,0,0:0:0:0:
256,192,73940,1,0,0:0:0:0:
256,192,74351,1,0,0:0:0:0:
256,192,75173,1,8,0:0:0:0:
256,192,75995,1,0,0:0:0:0:
256,192,76817,1,0,0:0:0:0:
256,192,77228,1,8,0:0:0:0:
256,192,77639,1,0,0:0:0:0:
256,192,78461,1,8,0:0:0:0:
256,192,79283,1,4,0:0:0:0:
256,192,79694,12,0,83803,0:0:0:0:
256,192,84214,5,0,0:0:0:0:
256,192,84625,1,8,0:0:0:0:
256,192,85447,1,8,0:0:0:0:
256,192,85858,1,4,0:0:0:0:
256,192,86680,1,0,0:0:0:0:
256,192,87502,1,0,0:0:0:0:
256,192,87913,1,0,0:0:0:0:
256,192,88324,1,0,0:0:0:0:
256,192,89146,1,8,0:0:0:0:
256,192,89968,1,8,0:0:0:0:
256,192,90789,1,8,0:0:0:0:
256,192,91200,1,8,0:0:0:0:
256,192,91611,1,8,0:0:0:0:
256,192,92433,1,0,0:0:0:0:
256,192,93255,1,0,0:0:0:0:
256,192,94077,1,0,0:0:0:0:
256,192,94488,1,0,0:0:0:0:
256,192,94899,1,0,0:0:0:0:
256,192,95721,12,0,98187,0:0:0:0:
256,192,99009,5,12,0:0:0:0:
256,192,99831,1,0,0:0:0:0:
256,192,100652,1,8,0:0:0:0:
256,192,101063,1,8,0:0:0:0:
256,192,101474,1,0,0:0:0:0:
256,192,102296,1,8,0:0:0:0:
256,192,103118,1,0,0:0:0:0:
256,192,103940,1,0,0:0:0:0:
256,192,104351,1,8,0:0:0:0:
256,192,104762,1,0,0:0:0:0:
256,192,105173,1,8,0:0:0:0:
256,192,105584,1,8,0:0:0:0:
256,192,106406,1,8,0:0:0:0:
256,192,107228,1,0,0:0:0:0:
256,192,107639,1,8,0:0:0:0:
256,192,108050,1,8,0:0:0:0:
256,192,108461,1,0,0:0:0:0:
256,192,108872,12,0,111337,0:0:0:0:
256,192,112159,5,4,0:0:0:0:
256,192,118735,5,8,0:0:0:0:
257,192,125310,5,8,0:0:0:0:
256,192,126543,1,8,0:0:0:0:
256,192,127365,1,8,0:0:0:0:
256,192,127776,1,8,0:0:0:0:
256,192,128598,1,8,0:0:0:0:
256,192,129831,1,8,0:0:0:0:
256,192,130652,1,8,0:0:0:0:
256,192,131063,1,8,0:0:0:0:
256,192,131885,1,8,0:0:0:0:
256,192,132296,1,0,0:0:0:0:
256,192,132707,1,8,0:0:0:0:
256,192,133529,1,8,0:0:0:0:
256,192,133940,1,8,0:0:0:0:
256,192,134351,1,8,0:0:0:0:
256,192,135173,1,0,0:0:0:0:
256,192,135994,1,0,0:0:0:0:
256,192,136816,1,8,0:0:0:0:
256,192,138050,1,8,0:0:0:0:
256,192,138461,1,4,0:0:0:0:
256,192,139283,1,0,0:0:0:0:
256,192,139694,1,8,0:0:0:0:
256,192,140105,1,8,0:0:0:0:
256,192,140926,1,0,0:0:0:0:
256,192,141748,1,8,0:0:0:0:
256,192,142159,1,8,0:0:0:0:
256,192,142570,1,0,0:0:0:0:
256,192,143392,1,8,0:0:0:0:
256,192,144214,1,0,0:0:0:0:
256,192,144625,1,8,0:0:0:0:
256,192,145036,1,4,0:0:0:0:
256,192,146269,1,8,0:0:0:0:
256,192,146680,1,8,0:0:0:0:
256,192,147502,1,0,0:0:0:0:
256,192,148324,1,8,0:0:0:0:
256,192,148735,1,0,0:0:0:0:
256,192,149146,1,8,0:0:0:0:
256,192,149968,1,0,0:0:0:0:
256,192,150789,1,8,0:0:0:0:
256,192,151611,1,4,0:0:0:0:
256,192,152844,1,0,0:0:0:0:
256,192,153255,1,0,0:0:0:0:
256,192,153666,1,8,0:0:0:0:
256,192,154077,1,8,0:0:0:0:
256,192,155310,1,8,0:0:0:0:
256,192,155721,1,0,0:0:0:0:
256,192,156132,1,8,0:0:0:0:
256,192,156543,1,8,0:0:0:0:
256,192,157365,1,0,0:0:0:0:
256,192,158187,1,8,0:0:0:0:
256,192,159420,1,8,0:0:0:0:
256,192,159831,1,0,0:0:0:0:
256,192,160242,1,0,0:0:0:0:
256,192,160652,1,8,0:0:0:0:
256,192,161474,1,0,0:0:0:0:
256,192,162296,1,8,0:0:0:0:
256,192,162707,1,0,0:0:0:0:
256,192,163118,1,0,0:0:0:0:
256,192,163940,1,8,0:0:0:0:
256,192,164762,1,0,0:0:0:0:
256,192,165584,1,8,0:0:0:0:
256,192,166817,1,0,0:0:0:0:
256,192,167228,1,8,0:0:0:0:
256,192,168050,1,0,0:0:0:0:
256,192,168872,1,8,0:0:0:0:
256,192,170105,1,0,0:0:0:0:
256,192,170515,1,8,0:0:0:0:
256,192,170926,1,8,0:0:0:0:
256,192,171337,1,0,0:0:0:0:
256,192,172159,1,8,0:0:0:0:
256,192,173392,1,0,0:0:0:0:
256,192,173803,1,8,0:0:0:0:
256,192,174625,1,0,0:0:0:0:
256,192,175036,1,8,0:0:0:0:
256,192,175447,1,8,0:0:0:0:
256,192,175858,1,0,0:0:0:0:
256,192,176680,1,0,0:0:0:0:
256,192,177091,1,8,0:0:0:0:
256,192,177913,12,0,186954,0:0:0:0:
