osu file format v14

[General]
AudioFilename: Panda Eyes - ILY (HD).mp3
AudioLeadIn: 0
PreviewTime: 88320
Countdown: 0
SampleSet: None
StackLeniency: 0.9
Mode: 0
LetterboxInBreaks: 0
WidescreenStoryboard: 1

[Editor]
DistanceSpacing: 0.8
BeatDivisor: 12
GridSize: 4
TimelineZoom: 1

[Metadata]
Title:Ily
TitleUnicode:Ily
Artist:Panda Eyes
ArtistUnicode:Panda Eyes
Creator:Crossled
Version:Ez Mode
Source:
Tags:
BeatmapID:871580
BeatmapSetID:400608

[Difficulty]
HPDrainRate:3
CircleSize:3
OverallDifficulty:3
ApproachRate:3
SliderMultiplier:2.50000000596047
SliderTickRate:2

[Events]
//Background and Video events
0,0,"Girl-listening-to-music-in-the-snow-1440x2560.jpg",0,0
//Break Periods
2,87425,102967
2,139515,169534
//Storyboard Layer 0 (Background)
//Storyboard Layer 1 (Fail)
//Storyboard Layer 2 (Pass)
//Storyboard Layer 3 (Foreground)
//Storyboard Sound Samples

[TimingPoints]
16522,545.447663551404,4,1,0,100,1,0
17067,-200,4,1,0,100,0,0
19794,-100,4,1,0,100,0,0
24158,-133.333333333333,4,1,0,100,0,0
34658,-133.333333333333,4,1,0,100,0,0
34997,-133.333333333333,4,1,0,100,0,0
35130,-133.333333333333,4,1,0,100,0,0
35539,-133.333333333333,4,1,0,100,0,0
35550,-133.333333333333,4,3,0,5,0,0
35645,-133.333333333333,4,1,0,100,0,0
35749,-133.333333333333,4,1,0,100,0,0
35936,-200,4,1,0,100,0,0
36976,-133.333333333333,4,1,0,100,0,0
38072,-200,4,1,0,100,0,0
38130,-200,4,1,0,100,0,0
38544,-200,4,1,0,100,0,0
39007,-133.333333333333,4,1,0,100,0,0
45976,-200,4,1,0,100,0,0
46803,-200,4,1,0,100,0,0
49726,-200,4,1,0,100,0,0
50339,-80,4,1,0,100,0,0
54362,-100,4,1,0,100,0,0
54511,-133.333333333333,4,1,0,100,0,0
55385,-100,4,1,0,100,0,0
56939,-133.333333333333,4,1,0,100,0,0
57703,-200,4,1,0,100,0,0
59066,-133.333333333333,4,1,0,100,0,0
59941,-200,4,1,0,100,0,0
63430,-133.333333333333,4,1,0,100,0,0
64313,-200,4,1,0,100,0,0
65544,-133.333333333333,4,1,0,100,0,0
69294,-133.333333333333,4,1,0,100,0,1
71816,-80,4,1,0,100,0,1
85521,-66.6666666666667,4,1,0,100,0,1
85793,-80,4,1,0,100,0,1
87498,-80,4,1,0,100,0,0
104339,-100,4,1,0,100,0,0
105634,-200,4,1,0,100,0,0
106839,-133.333333333333,4,1,0,100,0,0
111498,-200,4,1,0,100,0,0
136247,-133.333333333333,4,1,0,100,0,0
139588,-133.333333333333,4,2,0,40,0,0
156702,-133.333333333333,4,1,0,100,0,0
170815,-133.333333333333,4,1,0,100,0,1
171656,-80,4,1,0,100,0,1
173156,-66.6666666666667,4,1,0,100,0,1
185065,-133.333333333333,4,1,0,100,0,1
186326,-80,4,1,0,100,0,1
193178,-100,4,1,0,100,0,1
194712,-66.6666666666667,4,1,0,100,0,1
215337,-200,4,2,0,5,0,0

[Colours]
Combo1 : 169,40,238
Combo2 : 0,102,240
Combo3 : 0,0,160
Combo4 : 128,0,255

[HitObjects]
112,212,17612,6,0,L|180:340,1,140.625000335276
328,212,18499,2,0,L|168:56,1,218.750000521541
100,256,19862,2,0,L|224:184,1,125.000000298023
260,160,20340,2,0,L|324:120,2,62.5000001490117
120,296,22044,2,0,L|244:224,1,125.000000298023
292,188,22590,2,0,L|356:148,2,62.5000001490117
104,212,23681,6,0,L|172:320,1,125.000000298023
220,204,24226,2,0,L|284:296,1,93.7500037997964
368,220,24771,2,0,L|412:176,2,46.8750018998982
320,256,25862,5,0,0:0:0:0:
128,256,26135,1,0,0:0:0:0:
100,136,26408,2,0,L|200:136,1,93.7500037997964
280,136,26953,2,0,L|344:136,2,46.8750018998982
264,44,28590,6,0,L|264:152,1,93.7500037997964
272,208,29135,2,0,L|272:268,2,46.8750018998982
96,180,30771,2,0,L|212:180,1,93.7500037997964
288,184,31317,2,0,L|348:184,2,46.8750018998982
376,164,32408,1,0,0:0:0:0:
376,48,32680,1,0,0:0:0:0:
256,52,32953,2,0,P|244:120|264:160,1,93.7500037997964
320,188,33499,2,0,L|376:184,2,46.8750018998982
252,192,34521,5,0,0:0:0:0:
392,96,35135,1,0,0:0:0:0:
128,96,35680,1,0,0:0:0:0:
124,296,36226,1,0,0:0:0:0:
392,296,36771,1,0,0:0:0:0:
104,108,37317,6,0,L|244:244,1,187.500007599593
336,152,38408,2,0,L|236:236,1,125.000000298023
260,192,39498,5,0,0:0:0:0:
260,304,40044,1,0,0:0:0:0:
420,192,40589,1,0,0:0:0:0:
112,192,41135,1,0,0:0:0:0:
376,80,41680,5,0,0:0:0:0:
212,84,42226,1,0,0:0:0:0:
96,204,42771,1,0,0:0:0:0:
256,284,43317,1,0,0:0:0:0:
100,124,43862,6,0,L|248:268,1,187.500007599593
420,96,44953,2,0,L|268:240,1,187.500007599593
396,276,46044,5,0,0:0:0:0:
256,168,46589,1,0,0:0:0:0:
260,296,47135,1,0,0:0:0:0:
396,180,47680,1,0,0:0:0:0:
104,80,48226,6,0,L|208:160,1,125.000000298023
72,224,49317,2,0,L|184:304,1,125.000000298023
432,76,50407,2,0,L|184:284,1,312.500000745059
412,320,51498,2,0,L|184:104,1,312.500000745059
124,192,52589,6,0,L|288:192,1,156.250000372529
340,196,53135,2,0,L|420:196,2,78.1250001862647
256,168,54226,5,0,0:0:0:0:
256,44,54771,2,0,L|256:100,2,46.8750018998982
376,140,55862,1,0,0:0:0:0:
252,280,56407,1,0,0:0:0:0:
400,192,56953,6,0,L|400:136,2,46.8750018998982
256,72,57771,2,0,L|184:72,1,62.5000001490117
256,208,58589,2,0,L|300:152,1,62.5000001490117
252,68,59135,6,0,L|184:68,2,46.8750018998982
396,68,59680,2,0,L|396:176,1,93.7500037997964
260,152,60771,1,0,0:0:0:0:
80,160,61316,5,0,0:0:0:0:
256,144,61862,2,0,L|256:184,2,31.2500000745059
404,136,62407,1,0,0:0:0:0:
256,40,62953,1,0,0:0:0:0:
164,220,63498,6,0,L|216:220,3,46.8750018998982
352,216,64316,1,0,0:0:0:0:
260,96,65135,1,0,0:0:0:0:
424,64,65680,6,0,L|424:120,3,46.8750018998982
256,44,66498,2,0,L|256:100,1,46.8750018998982
116,136,67316,1,0,0:0:0:0:
248,64,67862,6,0,L|300:64,3,46.8750018998982
248,160,68544,2,0,L|248:220,1,46.8750018998982
124,196,69498,6,0,L|172:196,3,46.8750018998982
124,96,70044,6,0,L|172:96,14,46.8750018998982
132,196,72225,6,0,L|232:196,14,78.1250001862647
296,172,74407,6,0,L|296:84,14,78.1250001862647
196,308,76589,6,0,L|292:308,14,78.1250001862647
236,140,78771,6,0,L|316:140,14,78.1250001862647
64,176,80953,6,0,L|64:288,14,78.1250001862647
276,128,83134,6,0,L|368:128,14,78.1250001862647
236,220,85316,6,0,L|236:112,14,78.1250001862647
256,104,104407,5,0,0:0:0:0:
420,104,104952,5,0,0:0:0:0:
256,104,105498,1,0,0:0:0:0:
100,104,106043,1,0,0:0:0:0:
256,196,106589,1,0,0:0:0:0:
52,328,107134,6,0,L|204:212,1,187.500007599593
380,56,108225,2,0,L|224:188,1,187.500007599593
100,184,109316,5,0,0:0:0:0:
256,188,109861,1,0,0:0:0:0:
416,188,110407,1,0,0:0:0:0:
420,44,110952,1,0,0:0:0:0:
140,260,111498,5,0,0:0:0:0:
260,184,112043,1,0,0:0:0:0:
260,48,112588,1,0,0:0:0:0:
112,136,113134,1,0,0:0:0:0:
388,308,113679,6,0,L|292:212,1,125.000000298023
112,304,114770,2,0,L|216:216,1,125.000000298023
256,160,115861,5,0,0:0:0:0:
384,160,116407,1,0,0:0:0:0:
260,48,116952,1,0,0:0:0:0:
112,192,117497,1,0,0:0:0:0:
256,192,118043,5,0,0:0:0:0:
352,80,118588,1,0,0:0:0:0:
116,72,119134,1,0,0:0:0:0:
256,76,119679,1,0,0:0:0:0:
256,192,120225,5,0,0:0:0:0:
396,192,120770,1,0,0:0:0:0:
124,244,121316,2,0,L|220:144,1,125.000000298023
260,64,122407,5,0,0:0:0:0:
252,180,124043,5,0,0:0:0:0:
64,188,124588,5,0,0:0:0:0:
160,84,125134,1,0,0:0:0:0:
264,76,125679,1,0,0:0:0:0:
360,168,126225,1,0,0:0:0:0:
80,292,126770,5,0,0:0:0:0:
236,288,127316,1,0,0:0:0:0:
324,192,127861,1,0,0:0:0:0:
108,192,128406,1,0,0:0:0:0:
340,272,128952,6,0,L|252:168,1,125.000000298023
152,192,130043,1,0,0:0:0:0:
264,284,130588,1,0,0:0:0:0:
400,280,131134,5,0,0:0:0:0:
332,212,131679,2,0,L|240:120,1,125.000000298023
416,192,132770,1,0,0:0:0:0:
112,84,133315,5,0,0:0:0:0:
112,244,133861,1,0,0:0:0:0:
228,172,134406,1,0,0:0:0:0:
340,172,134952,1,0,0:0:0:0:
240,56,135497,5,0,0:0:0:0:
248,260,136043,1,0,0:0:0:0:
124,168,136588,1,0,0:0:0:0:
336,168,137134,1,0,0:0:0:0:
364,288,137679,5,0,0:0:0:0:
144,292,138225,1,0,0:0:0:0:
144,116,138770,2,0,L|336:132,1,187.500007599593
256,192,170974,5,0,0:0:0:0:
248,104,171360,2,0,L|376:104,1,117.187504749746
276,224,172179,2,0,L|144:224,1,117.187500279397
156,84,172724,2,0,L|356:84,1,195.312500465662
384,80,173542,6,0,L|384:248,1,140.625005699695
196,204,174088,1,0,0:0:0:0:
200,52,174429,1,0,0:0:0:0:
272,276,174974,2,0,L|176:276,1,93.7500037997964
68,80,175792,1,0,0:0:0:0:
252,80,176338,6,0,L|356:80,1,93.7500037997964
384,80,176883,1,0,0:0:0:0:
384,252,177156,1,0,0:0:0:0:
256,252,177701,6,0,L|256:140,1,93.7500037997964
256,64,178042,2,0,L|104:64,1,140.625005699695
116,184,178588,1,0,0:0:0:0:
116,276,179065,6,0,L|256:276,1,140.625005699695
336,276,179610,2,0,L|336:36,1,234.375009499491
232,64,180497,2,0,L|120:64,1,93.7500037997964
132,156,180769,2,0,L|132:296,1,140.625005699695
256,192,181315,1,0,0:0:0:0:
384,196,181860,6,0,L|384:76,1,93.7500037997964
256,192,182338,1,0,0:0:0:0:
224,64,183769,6,0,L|28:240,1,234.375009499491
164,232,184588,2,0,L|272:340,1,140.625005699695
320,236,185133,2,0,L|408:144,1,117.187504749746
328,104,185974,2,0,L|256:104,1,62.5000025331976
120,104,186338,2,0,L|120:212,1,104.16666691502
216,212,186838,1,0,0:0:0:0:
316,112,187383,6,0,L|316:200,1,78.1250001862647
316,336,187860,2,0,L|120:336,1,195.312500465662
120,224,188747,2,0,L|120:108,1,104.16666691502
216,112,189065,2,0,L|332:112,1,104.16666691502
336,112,189610,1,0,0:0:0:0:
436,120,190110,6,0,L|436:232,1,104.16666691502
432,272,190656,2,0,L|248:272,1,182.291667101284
108,264,191474,1,0,0:0:0:0:
108,136,191656,1,0,0:0:0:0:
208,136,191837,2,0,L|312:136,1,104.16666691502
312,268,192383,1,0,0:0:0:0:
204,272,192883,6,0,L|88:272,1,104.16666691502
104,136,193383,1,0,0:0:0:0:
256,192,194099,5,0,0:0:0:0:
372,196,194792,1,0,0:0:0:0:
256,192,195474,1,0,0:0:0:0:
256,68,196156,5,0,0:0:0:0:
256,192,196837,1,0,0:0:0:0:
384,196,197519,1,0,0:0:0:0:
256,304,198224,1,0,0:0:0:0:
256,192,198906,5,0,0:0:0:0:
256,84,199621,1,0,0:0:0:0:
352,192,200303,1,0,0:0:0:0:
208,192,200985,1,0,0:0:0:0:
48,336,201667,5,0,0:0:0:0:
52,192,202349,1,0,0:0:0:0:
56,40,203065,1,0,0:0:0:0:
56,192,203746,1,0,0:0:0:0:
256,192,204428,5,0,0:0:0:0:
456,192,205826,5,0,0:0:0:0:
456,56,206508,1,0,0:0:0:0:
456,188,207190,1,0,0:0:0:0:
456,324,207871,1,0,0:0:0:0:
256,336,208553,5,0,0:0:0:0:
256,192,209269,1,0,0:0:0:0:
256,44,209951,1,0,0:0:0:0:
256,192,210633,1,0,0:0:0:0:
256,192,211314,5,0,0:0:0:0:
336,300,211996,1,0,0:0:0:0:
176,300,212712,1,0,0:0:0:0:
256,208,213394,1,0,0:0:0:0:
256,56,214110,5,0,0:0:0:0:
256,192,214792,1,0,0:0:0:0:
256,96,215337,6,0,B|288:52|288:52|304:36|304:36|324:28|324:28|360:24|360:24|400:28|400:28|424:40|424:40|448:60|448:60|472:96|472:96|476:132|476:132|472:192|472:192|452:220|452:220|408:252|408:252|360:292|360:292|320:316|320:316|296:332|296:332|268:368|268:368|240:336|240:336|196:312|196:312|172:300|172:300|152:284|152:284|128:264|128:264|108:248|108:248|72:212|72:212|52:188|52:188|44:160|44:160|44:124|44:124|52:96|52:96|60:84|60:84|80:60|80:60|100:40|100:40|128:28|128:28|160:24|160:24|188:36|188:36|212:60|212:60|252:96,1,1250.00005066395
