osu file format v14

[General]
AudioFilename: audio.mp3
AudioLeadIn: 0
PreviewTime: 70135
Countdown: 1
SampleSet: Soft
StackLeniency: 0.7
Mode: 0
LetterboxInBreaks: 0
WidescreenStoryboard: 1

[Editor]
DistanceSpacing: 2.4
BeatDivisor: 4
GridSize: 32
TimelineZoom: 1.7

[Metadata]
Title:ILY
TitleUnicode:ILY
Artist:Panda Eyes
ArtistUnicode:Panda Eyes
Creator:StrafeCombo_
Version:Hard
Source:
Tags:
BeatmapID:1694076
BeatmapSetID:732894

[Difficulty]
HPDrainRate:4
CircleSize:3.5
OverallDifficulty:5
ApproachRate:8
SliderMultiplier:1.4
SliderTickRate:1

[Events]
//Background and Video events
0,0,"277442.jpg",0,0
//Break Periods
2,42653,51963
//Storyboard Layer 0 (Background)
//Storyboard Layer 1 (Fail)
//Storyboard Layer 2 (Pass)
//Storyboard Layer 3 (Foreground)
//Storyboard Sound Samples

[TimingPoints]
454,545.454545454546,4,2,1,40,1,0
454,-166.666666666667,4,2,1,40,0,0
4817,-125,4,2,1,40,0,0
17635,-125,4,2,1,40,0,0
17908,-100,4,2,1,60,0,0
26635,-100,4,2,1,70,0,0
35363,-66.6666666666667,4,2,1,90,0,1
48454,-25,4,2,1,90,0,1
48999,-66.6666666666667,4,2,1,90,0,1
52817,-100,4,2,1,70,0,0
54999,-66.6666666666667,4,2,1,90,0,0
55135,-66.6666666666667,4,2,1,90,0,0
69726,-66.6666666666667,4,2,1,90,0,0
70272,-55.5555555555556,4,1,2,80,0,1
72454,-55.5555555555556,4,1,2,80,0,1
74635,-55.5555555555556,4,1,2,80,0,1
76817,-55.5555555555556,4,1,2,80,0,1
77363,-55.5555555555556,4,1,2,80,0,1
77908,-55.5555555555556,4,1,2,100,0,1
78454,-55.5555555555556,4,1,2,80,0,1
78999,-55.5555555555556,4,1,2,80,0,1
80908,-25,4,1,2,80,0,1
81181,-55.5555555555556,4,1,2,80,0,1
83363,-55.5555555555556,4,1,2,80,0,1
83635,-37.037037037037,4,1,2,80,0,1
86090,-55.5555555555556,4,1,2,80,0,1
86226,-55.5555555555556,4,1,2,80,0,1
86363,-55.5555555555556,4,1,2,80,0,1
86499,-55.5555555555556,4,1,2,80,0,1
86635,-55.5555555555556,4,1,2,80,0,1
86772,-55.5555555555556,4,1,2,80,0,1
86908,-55.5555555555556,4,1,2,80,0,1
87044,-55.5555555555556,4,1,2,80,0,1
87181,-55.5555555555556,4,1,2,80,0,1
87317,-55.5555555555556,4,1,2,80,0,1
87454,-55.5555555555556,4,1,2,80,0,1
87590,-55.5555555555556,4,1,2,80,0,1
87726,-125,4,2,1,40,0,0

[HitObjects]
236,276,454,6,0,P|261:274|289:260,3,41.9999987182618
141,153,2635,2,0,P|159:141|185:128,3,41.9999987182618
302,134,4817,2,0,P|317:177|315:247,1,112
137,227,5635,2,0,P|153:180|196:129,1,112
256,81,6454,2,0,P|280:63|321:58,2,56
123,55,7544,2,0,P|94:86|93:124,1,56
298,47,8635,2,0,P|311:89|313:115,1,56
61,278,9181,2,0,P|87:267|130:264,1,56
323,328,9726,2,0,P|349:323|382:307,1,56
264,69,11363,6,0,P|299:49|331:46,1,56
254,269,11908,2,0,P|215:271|194:268,1,56
397,56,13544,6,0,P|396:100|379:125,1,56
166,261,14090,2,0,P|141:230|143:195,1,56
281,161,15181,5,0,0:0:0:0:
281,161,15454,1,0,0:0:0:0:
281,161,15726,2,0,P|297:126|334:112,1,56
281,161,16272,2,0,P|325:159|343:168,1,56
281,161,16817,2,0,P|307:186|318:226,1,56
249,225,17363,2,0,P|278:214|325:212,1,56
472,176,17908,6,0,B|262:66|262:66|213:170|213:170|12:69,2,560
97,279,22817,2,0,P|116:264|159:262,2,35
356,343,23363,2,0,P|386:287|374:190,1,140
173,307,24181,1,0,0:0:0:0:
173,307,24454,2,0,P|152:205|164:148,1,140
296,109,25544,2,0,P|333:141|350:174,2,70
98,254,26363,1,0,0:0:0:0:
78,183,26635,6,0,B|73:226|50:249|83:259|78:280,1,70
272,119,27181,1,0,0:0:0:0:
272,119,27317,1,0,0:0:0:0:
272,119,27454,2,0,P|284:61|310:43,1,70
369,146,27999,2,0,P|376:197|365:221,2,70
291,267,28817,2,0,P|245:254|123:271,1,140
100,54,29499,1,0,0:0:0:0:
100,54,29635,2,0,B|264:29|197:106|376:82,1,280
289,71,30999,6,0,P|314:110|401:176,1,140
183,224,31681,1,0,0:0:0:0:
183,224,31817,2,0,B|185:95|261:178|245:26,1,210
439,203,32908,1,0,0:0:0:0:
440,206,33181,2,0,P|397:201|350:216,1,70
189,149,33726,2,0,L|197:86,2,35
129,231,34817,1,0,0:0:0:0:
129,231,35363,6,0,B|152:175|123:146|80:106|80:106|115:101|146:116,1,210.000008010865
138,235,36454,2,0,B|283:225|195:285|361:274,1,210.000008010865
328,81,37544,2,0,P|236:50|134:113,1,210.000008010865
213,249,38363,2,0,P|261:246|353:201,2,105.000004005432
432,95,39181,2,0,B|304:78|386:154|197:137,1,210.000008010865
234,197,40272,2,0,P|218:234|215:303,1,105.000004005432
234,197,40817,2,0,P|265:246|308:279,1,105.000004005432
234,197,41363,2,0,P|250:141|247:87,1,105.000004005432
468,175,41908,2,0,P|458:108|305:67,1,210.000008010865
162,193,52817,6,0,P|185:147|228:119,1,70
199,90,53363,2,0,L|253:75,1,35
268,101,53635,2,0,B|292:223|243:177|261:317,1,210
165,100,54999,5,0,0:0:0:0:
140,143,55135,1,0,0:0:0:0:
171,151,55272,2,0,P|265:161|304:188,1,105.000004005432
332,215,55817,2,0,P|332:151|292:90,1,105.000004005432
