osu file format v14

[General]
AudioFilename: audio.mp3
AudioLeadIn: 0
PreviewTime: 69702
Countdown: 0
SampleSet: Soft
StackLeniency: 0.7
Mode: 0
LetterboxInBreaks: 0
EpilepsyWarning: 1
WidescreenStoryboard: 1

[Editor]
DistanceSpacing: 1.6
BeatDivisor: 4
GridSize: 4
TimelineZoom: 1.9

[Metadata]
Title:ILY
TitleUnicode:ILY
Artist:Panda Eyes
ArtistUnicode:Panda Eyes
Creator:M a r v o l l o
Version:Normal
Source:
Tags:shmiklak marvollo m_a_r_v_o_l_l_o fanteer drumstep Dnb Melodic Electro Dubstep harmonic war ep namki smau5
BeatmapID:1385401
BeatmapSetID:653534

[Difficulty]
HPDrainRate:3
CircleSize:3
OverallDifficulty:3.5
ApproachRate:4
SliderMultiplier:1.1
SliderTickRate:1

[Events]
//Background and Video events
0,0,"wallhaven-294805.jpeg",0,0
//Break Periods
//Storyboard Layer 0 (Background)
//Storyboard Layer 1 (Fail)
//Storyboard Layer 2 (Pass)
//Storyboard Layer 3 (Foreground)
Sprite,Foreground,Centre,"sb\ring.png",0,0 M,0,454,,160,152 F,0,454,,1 C,0,454,,255,255,255 S,7,454,2454,0.25,1.5 F,0,455,2455,1,0 M,0,2635,,476,360 F,0,2635,,1 C,0,2635,,255,255,255 S,7,2635,4635,0.25,1.5 F,0,2636,4636,1,0 M,0,4817,,164,233 F,0,4817,,1 C,0,4817,,255,255,255 S,7,4817,6817,0.25,1.5 F,0,4818,6818,1,0 M,0,6999,,484,192 F,0,6999,,1 C,0,6999,,255,255,255 S,7,6999,8999,0.25,1.5 F,0,7000,9000,1,0 M,0,9181,,240,424 F,0,9181,,1 C,0,9181,,255,255,255 S,7,9181,11181,0.25,1.5 F,0,9182,11182,1,0 M,0,11363,,64,84 F,0,11363,,1 C,0,11363,,255,255,255 S,7,11363,13363,0.25,1.5 F,0,11364,13364,1,0 M,0,13544,,423,231 F,0,13544,,1 C,0,13544,,255,255,255 S,7,13544,15544,0.25,1.5 F,0,13545,15545,1,0 M,0,15726,,420,328 F,0,15726,,1 C,0,15726,,255,255,255 S,7,15726,17726,0.25,1.5 F,0,15727,17727,1,0 M,0,17884,,292,172 F,0,17884,,1 C,0,17884,,255,255,255 S,7,17884,19884,0.25,1.5 F,0,17885,19885,1,0 M,0,20066,,396,412 F,0,20066,,1 C,0,20066,,255,255,255 S,7,20066,22066,0.25,1.5 F,0,20067,22067,1,0 M,0,22247,,72,128 F,0,22247,,1 C,0,22247,,255,255,255 S,7,22247,24247,0.25,1.5 F,0,22248,24248,1,0 M,0,24429,,544,252 F,0,24429,,1 C,0,24429,,255,255,255 S,7,24429,26429,0.25,1.5 F,0,24430,26430,1,0 M,0,26611,,118,329 F,0,26611,,1 C,0,26611,,255,255,255 S,7,26611,28611,0.25,1.5 F,0,26612,28612,1,0 M,0,28793,,493,183 F,0,28793,,1 C,0,28793,,255,255,255 S,7,28793,30793,0.25,1.5 F,0,28794,30794,1,0 M,0,30975,,127,188 F,0,30975,,1 C,0,30975,,255,255,255 S,7,30975,32975,0.25,1.5 F,0,30976,32976,1,0 M,0,33157,,512,320 F,0,33157,,1 C,0,33157,,255,255,255 S,7,33157,35157,0.25,1.5 F,0,33158,35158,1,0
Sprite,Foreground,Centre,"sb\ring.png",0,0 M,0,1272,,346,213 F,0,1272,,1 C,0,1272,,255,255,255 S,7,1272,3272,0.25,1.5 F,0,1273,3273,1,0 M,0,3454,,249,362 F,0,3454,,1 C,0,3454,,255,255,255 S,7,3454,5454,0.25,1.5 F,0,3455,5455,1,0 M,0,5635,,284,240 F,0,5635,,1 C,0,5635,,255,255,255 S,7,5635,7635,0.25,1.5 F,0,5636,7636,1,0 M,0,7817,,352,288 F,0,7817,,1 C,0,7817,,255,255,255 S,7,7817,9817,0.25,1.5 F,0,7818,9818,1,0 M,0,9999,,288,224 F,0,9999,,1 C,0,9999,,255,255,255 S,7,9999,11999,0.25,1.5 F,0,10000,12000,1,0 M,0,12181,,150,318 F,0,12181,,1 C,0,12181,,255,255,255 S,7,12181,14181,0.25,1.5 F,0,12182,14182,1,0 M,0,14363,,552,164 F,0,14363,,1 C,0,14363,,255,255,255 S,7,14363,16363,0.25,1.5 F,0,14364,16364,1,0 M,0,16544,,200,345 F,0,16544,,1 C,0,16544,,255,255,255 S,7,16544,18544,0.25,1.5 F,0,16545,18545,1,0 M,0,18702,,468,116 F,0,18702,,1 C,0,18702,,255,255,255 S,7,18702,20702,0.25,1.5 F,0,18703,20703,1,0 M,0,20883,,324,239 F,0,20883,,1 C,0,20883,,255,255,255 S,7,20883,22883,0.25,1.5 F,0,20884,22884,1,0 M,0,23066,,264,108 F,0,23066,,1 C,0,23066,,255,255,255 S,7,23066,25066,0.25,1.5 F,0,23067,25067,1,0 M,0,25247,,479,421 F,0,25247,,1 C,0,25247,,255,255,255 S,7,25247,27247,0.25,1.5 F,0,25248,27248,1,0 M,0,27429,,129,134 F,0,27429,,1 C,0,27429,,255,255,255 S,7,27429,29429,0.25,1.5 F,0,27430,29430,1,0 M,0,29611,,421,356 F,0,29611,,1 C,0,29611,,255,255,255 S,7,29611,31611,0.25,1.5 F,0,29612,31612,1,0 M,0,31793,,314,156 F,0,31793,,1 C,0,31793,,255,255,255 S,7,31793,33793,0.25,1.5 F,0,31794,33794,1,0 M,0,33974,,320,364 F,0,33974,,1 C,0,33974,,255,255,255 S,7,33974,35974,0.25,1.5 F,0,33975,35975,1,0
Sprite,Foreground,Centre,"sb\ring.png",0,0 M,0,87702,,488,316 F,0,87702,,1 C,0,87702,,255,255,255 S,7,87702,89702,0.25,1.5 F,0,87703,89703,1,0
Sprite,Foreground,Centre,"sb\Lhighlight.png",320,0 F,0,0,,0 F,0,0,,0 F,0,0,,0 F,0,0,,0 F,0,0,,0 F,0,0,,0 F,0,0,,0 F,0,0,,0 F,0,0,,0 F,0,0,,0 F,0,0,,0 F,0,0,,0 F,0,0,,0 F,0,0,,0 F,0,0,,0 F,0,0,,0 F,0,0,,0 F,0,0,,0 F,0,0,,0 F,0,0,,0 F,0,0,,0 F,0,0,,0 F,0,0,,0 F,0,0,,0 F,0,0,,0 F,0,0,,0 F,0,0,,0 R,0,70247,,1.5708 MY,0,70247,,353 V,0,70247,,2,4 F,0,70247,70747,1,0 R,0,70793,,1.5708 MY,0,70793,,395 V,0,70793,,2,4 F,0,70793,71293,1,0 R,0,71338,,1.5708 MY,0,71338,,329 V,0,71338,,2,4 F,0,71338,71838,1,0 R,0,72156,,1.5708 MY,0,72156,,131 V,0,72156,,2,4 F,0,72156,72656,1,0 R,0,72974,,1.5708 MY,0,72974,,155 V,0,72974,,2,4 F,0,72974,73474,1,0 R,0,73520,,1.5708 MY,0,73520,,227 V,0,73520,,2,4 F,0,73520,74020,1,0 R,0,74338,,1.5708 MY,0,74338,,307 V,0,74338,,2,4 F,0,74338,74838,1,0 R,0,75156,,1.5708 MY,0,75156,,361 V,0,75156,,2,4 F,0,75156,75656,1,0 R,0,75702,,1.5708 MY,0,75702,,279 V,0,75702,,2,4 F,0,75702,76202,1,0 R,0,76520,,1.5708 MY,0,76520,,139 V,0,76520,,2,4 F,0,76520,77020,1,0 R,0,77338,,1.5708 MY,0,77338,,162 V,0,77338,,2,4 F,0,77338,77838,1,0 R,0,77884,,1.5708 MY,0,77884,,241 V,0,77884,,2,4 F,0,77884,78384,1,0 R,0,78429,,1.5708 MY,0,78429,,312 V,0,78429,,2,4 F,0,78429,78929,1,0 R,0,78974,,1.5708 MY,0,78974,,240 V,0,78974,,2,4 F,0,78974,79474,1,0 R,0,79520,,1.5708 MY,0,79520,,122 V,0,79520,,2,4 F,0,79520,80020,1,0 R,0,80065,,1.5708 MY,0,80065,,187 V,0,80065,,2,4 F,0,80065,80565,1,0 R,0,80883,,1.5708 MY,0,80883,,370 V,0,80883,,2,4 F,0,80883,81383,1,0 R,0,81702,,1.5708 MY,0,81702,,184 V,0,81702,,2,4 F,0,81702,82202,1,0 R,0,82247,,1.5708 MY,0,82247,,84 V,0,82247,,2,4 F,0,82247,82747,1,0 R,0,83065,,1.5708 MY,0,83065,,156 V,0,83065,,2,4 F,0,83065,83565,1,0 R,0,83883,,1.5708 MY,0,83883,,314 V,0,83883,,2,4 F,0,83883,84383,1,0 R,0,84429,,1.5708 MY,0,84429,,371 V,0,84429,,2,4 F,0,84429,84929,1,0 R,0,85247,,1.5708 MY,0,85247,,303 V,0,85247,,2,4 F,0,85247,85747,1,0 R,0,86065,,1.5708 MY,0,86065,,348 V,0,86065,,2,4 F,0,86065,86565,1,0 R,0,86611,,1.5708 MY,0,86611,,303 V,0,86611,,2,4 F,0,86611,87111,1,0 R,0,87156,,1.5708 MY,0,87156,,374 V,0,87156,,2,4 F,0,87156,87656,1,0 R,0,87702,,1.5708 MY,0,87702,,316 V,0,87702,,2,4 F,0,87702,88202,1,0
Sprite,Foreground,Centre,"sb\Lhighlight.png",320,0 F,0,0,,0 F,0,0,,0 F,0,0,,0 F,0,0,,0 F,0,0,,0 F,0,0,,0 R,0,72156,,1.5708 MY,0,72156,,131 V,0,72156,,2,4 F,0,72156,72656,1,0 R,0,74338,,1.5708 MY,0,74338,,307 V,0,74338,,2,4 F,0,74338,74838,1,0 R,0,76520,,1.5708 MY,0,76520,,139 V,0,76520,,2,4 F,0,76520,77020,1,0 R,0,80883,,1.5708 MY,0,80883,,370 V,0,80883,,2,4 F,0,80883,81383,1,0 R,0,83065,,1.5708 MY,0,83065,,156 V,0,83065,,2,4 F,0,83065,83565,1,0 R,0,85247,,1.5708 MY,0,85247,,303 V,0,85247,,2,4 F,0,85247,85747,1,0
Sprite,Foreground,Centre,"sb\Lhighlight.png",320,0 F,0,0,,0 F,0,0,,0 F,0,0,,0 F,0,0,,0 F,0,0,,0 F,0,0,,0 R,0,72176,,1.5708 MY,0,72176,,135 V,0,72176,,2,4 F,0,72176,72656,0.9,0 R,0,74358,,1.5708 MY,0,74358,,311 V,0,74358,,2,4 F,0,74358,74838,0.9,0 R,0,76540,,1.5708 MY,0,76540,,143 V,0,76540,,2,4 F,0,76540,77020,0.9,0 R,0,80903,,1.5708 MY,0,80903,,374 V,0,80903,,2,4 F,0,80903,81383,0.9,0 R,0,83085,,1.5708 MY,0,83085,,160 V,0,83085,,2,4 F,0,83085,83565,0.9,0 R,0,85267,,1.5708 MY,0,85267,,307 V,0,85267,,2,4 F,0,85267,85747,0.9,0
Sprite,Foreground,Centre,"sb\Lhighlight.png",320,0 F,0,0,,0 F,0,0,,0 F,0,0,,0 F,0,0,,0 F,0,0,,0 F,0,0,,0 R,0,72196,,1.5708 MY,0,72196,,123 V,0,72196,,2,4 F,0,72196,72656,0.8,0 R,0,74378,,1.5708 MY,0,74378,,299 V,0,74378,,2,4 F,0,74378,74838,0.8,0 R,0,76560,,1.5708 MY,0,76560,,131 V,0,76560,,2,4 F,0,76560,77020,0.8,0 R,0,80923,,1.5708 MY,0,80923,,362 V,0,80923,,2,4 F,0,80923,81383,0.8,0 R,0,83105,,1.5708 MY,0,83105,,148 V,0,83105,,2,4 F,0,83105,83565,0.8,0 R,0,85287,,1.5708 MY,0,85287,,295 V,0,85287,,2,4 F,0,85287,85747,0.8,0
Sprite,Foreground,Centre,"sb\Lhighlight.png",320,0 F,0,0,,0 F,0,0,,0 F,0,0,,0 F,0,0,,0 F,0,0,,0 F,0,0,,0 R,0,72216,,1.5708 MY,0,72216,,143 V,0,72216,,2,4 F,0,72216,72656,0.7,0 R,0,74398,,1.5708 MY,0,74398,,319 V,0,74398,,2,4 F,0,74398,74838,0.7,0 R,0,76580,,1.5708 MY,0,76580,,151 V,0,76580,,2,4 F,0,76580,77020,0.7,0 R,0,80943,,1.5708 MY,0,80943,,382 V,0,80943,,2,4 F,0,80943,81383,0.7,0 R,0,83125,,1.5708 MY,0,83125,,168 V,0,83125,,2,4 F,0,83125,83565,0.7,0 R,0,85307,,1.5708 MY,0,85307,,315 V,0,85307,,2,4 F,0,85307,85747,0.7,0
Sprite,Foreground,Centre,"sb\Lhighlight.png",320,0 F,0,0,,0 F,0,0,,0 F,0,0,,0 F,0,0,,0 F,0,0,,0 F,0,0,,0 R,0,72236,,1.5708 MY,0,72236,,115 V,0,72236,,2,4 F,0,72236,72656,0.6,0 R,0,74418,,1.5708 MY,0,74418,,291 V,0,74418,,2,4 F,0,74418,74838,0.6,0 R,0,76600,,1.5708 MY,0,76600,,123 V,0,76600,,2,4 F,0,76600,77020,0.6,0 R,0,80963,,1.5708 MY,0,80963,,354 V,0,80963,,2,4 F,0,80963,81383,0.6,0 R,0,83145,,1.5708 MY,0,83145,,140 V,0,83145,,2,4 F,0,83145,83565,0.6,0 R,0,85327,,1.5708 MY,0,85327,,287 V,0,85327,,2,4 F,0,85327,85747,0.6,0
Sprite,Foreground,Centre,"sb\Lhighlight.png",320,0 F,0,0,,0 F,0,0,,0 F,0,0,,0 F,0,0,,0 F,0,0,,0 F,0,0,,0 R,0,72256,,1.5708 MY,0,72256,,151 V,0,72256,,2,4 F,0,72256,72656,0.5,0 R,0,74438,,1.5708 MY,0,74438,,327 V,0,74438,,2,4 F,0,74438,74838,0.5,0 R,0,76620,,1.5708 MY,0,76620,,159 V,0,76620,,2,4 F,0,76620,77020,0.5,0 R,0,80983,,1.5708 MY,0,80983,,390 V,0,80983,,2,4 F,0,80983,81383,0.5,0 R,0,83165,,1.5708 MY,0,83165,,176 V,0,83165,,2,4 F,0,83165,83565,0.5,0 R,0,85347,,1.5708 MY,0,85347,,323 V,0,85347,,2,4 F,0,85347,85747,0.5,0
Sprite,Foreground,Centre,"sb\Lhighlight.png",320,0 F,0,0,,0 F,0,0,,0 F,0,0,,0 F,0,0,,0 F,0,0,,0 F,0,0,,0 R,0,72276,,1.5708 MY,0,72276,,107 V,0,72276,,2,4 F,0,72276,72656,0.4,0 R,0,74458,,1.5708 MY,0,74458,,283 V,0,74458,,2,4 F,0,74458,74838,0.4,0 R,0,76640,,1.5708 MY,0,76640,,115 V,0,76640,,2,4 F,0,76640,77020,0.4,0 R,0,81003,,1.5708 MY,0,81003,,346 V,0,81003,,2,4 F,0,81003,81383,0.4,0 R,0,83185,,1.5708 MY,0,83185,,132 V,0,83185,,2,4 F,0,83185,83565,0.4,0 R,0,85367,,1.5708 MY,0,85367,,279 V,0,85367,,2,4 F,0,85367,85747,0.4,0
Sprite,Foreground,Centre,"sb\Lhighlight.png",320,0 F,0,0,,0 F,0,0,,0 F,0,0,,0 F,0,0,,0 F,0,0,,0 F,0,0,,0 R,0,72296,,1.5708 MY,0,72296,,159 V,0,72296,,2,4 F,0,72296,72656,0.3,0 R,0,74478,,1.5708 MY,0,74478,,335 V,0,74478,,2,4 F,0,74478,74838,0.3,0 R,0,76660,,1.5708 MY,0,76660,,167 V,0,76660,,2,4 F,0,76660,77020,0.3,0 R,0,81023,,1.5708 MY,0,81023,,398 V,0,81023,,2,4 F,0,81023,81383,0.3,0 R,0,83205,,1.5708 MY,0,83205,,184 V,0,83205,,2,4 F,0,83205,83565,0.3,0 R,0,85387,,1.5708 MY,0,85387,,331 V,0,85387,,2,4 F,0,85387,85747,0.3,0
Sprite,Foreground,Centre,"sb\Lhighlight.png",320,0 F,0,0,,0 F,0,0,,0 F,0,0,,0 F,0,0,,0 F,0,0,,0 F,0,0,,0 R,0,72316,,1.5708 MY,0,72316,,99 V,0,72316,,2,4 F,0,72316,72656,0.2,0 R,0,74498,,1.5708 MY,0,74498,,275 V,0,74498,,2,4 F,0,74498,74838,0.2,0 R,0,76680,,1.5708 MY,0,76680,,107 V,0,76680,,2,4 F,0,76680,77020,0.2,0 R,0,81043,,1.5708 MY,0,81043,,338 V,0,81043,,2,4 F,0,81043,81383,0.2,0 R,0,83225,,1.5708 MY,0,83225,,124 V,0,83225,,2,4 F,0,83225,83565,0.2,0 R,0,85407,,1.5708 MY,0,85407,,271 V,0,85407,,2,4 F,0,85407,85747,0.2,0
Sprite,Foreground,Centre,"sb\Lhighlight.png",320,0 F,0,0,,0 F,0,0,,0 F,0,0,,0 F,0,0,,0 F,0,0,,0 F,0,0,,0 R,0,72336,,1.5708 MY,0,72336,,167 V,0,72336,,2,4 F,0,72336,72656,0.1,0 R,0,74518,,1.5708 MY,0,74518,,343 V,0,74518,,2,4 F,0,74518,74838,0.1,0 R,0,76700,,1.5708 MY,0,76700,,175 V,0,76700,,2,4 F,0,76700,77020,0.1,0 R,0,81063,,1.5708 MY,0,81063,,406 V,0,81063,,2,4 F,0,81063,81383,0.1,0 R,0,83245,,1.5708 MY,0,83245,,192 V,0,83245,,2,4 F,0,83245,83565,0.1,0 R,0,85427,,1.5708 MY,0,85427,,339 V,0,85427,,2,4 F,0,85427,85747,0.1,0
Sprite,Foreground,Centre,"sb\Lhighlight.png",320,0 F,0,0,,0 F,0,0,,0 F,0,0,,0 F,0,0,,0 F,0,0,,0 F,0,0,,0 R,0,72429,,1.5708 MY,0,72429,,87 V,0,72429,,2,4 F,0,72429,72929,1,0 R,0,74611,,1.5708 MY,0,74611,,384 V,0,74611,,2,4 F,0,74611,75111,1,0 R,0,76793,,1.5708 MY,0,76793,,91 V,0,76793,,2,4 F,0,76793,77293,1,0 R,0,81156,,1.5708 MY,0,81156,,324 V,0,81156,,2,4 F,0,81156,81656,1,0 R,0,83338,,1.5708 MY,0,83338,,221 V,0,83338,,2,4 F,0,83338,83838,1,0 R,0,85520,,1.5708 MY,0,85520,,252 V,0,85520,,2,4 F,0,85520,86020,1,0
//Storyboard Sound Samples

[TimingPoints]
454,545.454545454546,4,2,1,40,1,0
454,-100,4,2,1,40,0,0
4817,-100,4,2,1,40,0,0
17884,545.454545454546,4,2,1,60,1,0
17884,-100,4,2,1,60,0,0
35338,-100,4,2,1,90,0,1
35474,-100,4,2,1,90,0,0
52793,-100,4,2,1,90,0,0
54974,-100,4,2,1,90,0,1
55111,-100,4,2,1,90,0,0
69702,-100,4,2,1,90,0,0
70247,-100,4,1,2,80,0,1
70316,-100,4,2,1,100,0,1
72430,-100,4,1,2,80,0,1
72498,-100,4,2,1,100,0,1
74611,-100,4,1,2,80,0,1
74679,-100,4,2,1,100,0,1
76793,-100,4,1,2,80,0,1
76861,-100,4,2,1,100,0,1
77339,-100,4,1,2,80,0,1
77407,-100,4,2,1,100,0,1
77884,-100,4,1,2,80,0,1
77952,-100,4,2,1,100,0,1
78430,-100,4,1,2,80,0,1
78498,-100,4,2,1,100,0,1
78975,-100,4,1,2,80,0,1
79043,-100,4,2,1,100,0,1
81157,-100,4,1,2,80,0,1
81225,-100,4,2,1,100,0,1
83339,-100,4,1,2,80,0,1
83407,-100,4,2,1,100,0,1
85520,-100,4,1,2,80,0,1
85588,-100,4,2,1,100,0,1
86066,-100,4,1,2,80,0,1
86134,-100,4,2,1,100,0,1
86611,-100,4,1,2,80,0,1
86679,-100,4,2,1,100,0,1
87157,-100,4,1,2,80,0,1
87225,-100,4,2,1,100,0,1
87702,-100,4,2,1,40,0,0

[Colours]
Combo1 : 14,147,154
Combo2 : 0,65,130
Combo3 : 102,151,253
Combo4 : 141,224,245

[HitObjects]
96,96,454,5,2,0:3:0:0:
220,220,999,1,0,0:0:0:0:
282,157,1272,2,0,P|386:133|434:233,1,220,2|0,0:0|0:0,0:0:0:0:
412,304,2635,5,2,0:3:0:0:
248,244,3181,1,2,0:3:0:0:
185,306,3454,2,0,P|136:336|44:220,1,220,2|0,0:0|0:0,0:0:0:0:
100,177,4817,5,2,0:3:0:0:
251,266,5363,1,0,0:0:0:0:
220,184,5635,2,0,P|216:116|304:56,1,165,2|0,0:0|0:0,0:0:0:0:
372,60,6726,1,0,0:0:0:0:
420,136,6999,5,2,0:3:0:0:
349,297,7544,1,0,0:0:0:0:
288,232,7817,2,0,P|208:208|128:248,1,165,2|0,0:0|0:0,0:0:0:0:
104,320,8908,1,0,0:0:0:0:
176,368,9181,5,2,0:3:0:0:
288,232,9726,1,0,0:0:0:0:
224,168,9999,2,0,P|123:178|60:84,1,220,2|0,0:0|0:0,0:0:0:0:
0,28,11363,5,2,0:3:0:0:
24,200,11908,1,2,0:3:0:0:
86,262,12181,2,0,P|195:274|306:232,1,220,2|0,0:0|0:0,0:0:0:0:
359,175,13544,5,2,0:3:0:0:
456,28,14090,1,0,0:0:0:0:
488,108,14363,2,0,P|486:192|480:287,1,165,2|0,0:0|0:0,0:0:0:0:
419,335,15454,1,0,0:0:0:0:
356,272,15726,5,2,0:3:0:0:
199,352,16272,1,0,0:0:0:0:
136,289,16544,2,0,P|120:228|140:116,1,165,2|0,0:0|0:0,0:0:0:0:
180,52,17635,1,0,0:0:0:0:
228,116,17884,6,0,P|280:128|352:108,1,110,6|4,0:0|0:0,0:0:0:0:
404,60,18702,1,2,0:0:0:0:
466,122,18974,2,0,P|460:181|456:256,1,110,4|4,0:0|0:0,0:0:0:0:
332,356,20065,6,0,P|326:297|322:222,1,110,6|6,0:0|0:0,0:0:0:0:
260,183,20884,1,2,0:0:0:0:
197,245,21156,2,0,P|140:244|80:220,1,110,4|4,0:0|0:0,0:0:0:0:
8,72,22247,6,0,P|59:79|128:80,1,110,6|6,0:0|0:0,0:0:0:0:
200,52,23065,1,2,0:0:0:0:
284,24,23338,2,0,P|340:24|396:48,1,110,4|6,0:0|0:0,0:0:0:0:
480,196,24429,6,0,P|468:256|481:311,1,110,6|6,0:0|0:0,0:0:0:0:
415,365,25247,1,2,0:0:0:0:
335,326,25520,2,0,P|284:321|204:319,1,110,4|6,0:0|0:0,0:0:0:0:
54,273,26611,6,0,P|46:220|46:149,1,110,6|6,0:0|0:0,0:0:0:0:
65,78,27429,1,2,0:0:0:0:
144,116,27701,2,0,P|203:122|278:126,1,110,4|4,0:0|0:0,0:0:0:0:
429,127,28792,6,0,P|423:186|419:261,1,110,6|6,0:0|0:0,0:0:0:0:
357,300,29611,1,2,0:0:0:0:
294,238,29883,2,0,P|237:239|177:263,1,110,4|4,0:0|0:0,0:0:0:0:
63,132,30974,6,0,P|114:139|183:140,1,110,6|6,0:0|0:0,0:0:0:0:
250,100,31792,1,2,0:0:0:0:
332,68,32065,2,0,P|388:68|444:92,1,110,4|6,0:0|0:0,0:0:0:0:
448,264,33156,6,0,P|392:264|336:288,1,110,6|6,0:0|0:0,0:0:0:0:
256,308,33974,1,2,0:0:0:0:
197,242,34247,2,0,P|189:210|188:178,1,55,4|0,0:0|0:0,0:0:0:0:
196,104,34793,1,8,0:1:0:0:
196,104,35338,6,0,P|136:110|72:96,1,110,6|8,0:1|0:1,0:0:0:0:
4,68,36156,1,0,0:0:0:0:
16,156,36429,2,0,B|32:212|32:212|19:274,1,110,2|8,0:1|0:1,0:0:0:0:
170,355,37520,6,0,P|226:352|296:348,1,110,6|8,0:1|0:1,0:0:0:0:
342,286,38338,1,0,0:0:0:0:
279,223,38611,2,0,B|259:170|259:170|272:104,1,110,2|8,0:1|0:1,0:0:0:0:
429,44,39702,6,0,P|425:103|424:168,1,110,6|8,0:1|0:1,0:0:0:0:
448,240,40520,1,0,0:0:0:0:
385,302,40793,2,0,P|331:311|256:288,1,110,2|8,0:1|0:1,0:0:0:0:
208,244,41611,1,0,0:0:0:0:
170,164,41884,6,0,P|169:105|188:47,1,110,6|8,0:1|0:1,0:0:0:0:
264,24,42702,1,0,0:0:0:0:
326,86,42974,2,0,P|340:138|339:193,1,110,2|8,0:1|0:1,0:0:0:0:
312,276,43793,1,0,0:0:0:0:
249,338,44065,6,0,P|211:335|140:336,1,110,6|8,0:1|0:1,0:0:0:0:
72,276,44884,1,0,0:0:0:0:
136,220,45156,2,0,P|143:173|140:96,1,110,2|8,0:1|0:1,0:0:0:0:
303,40,46247,6,0,P|353:37|416:32,1,110,6|8,0:1|0:1,0:0:0:0:
468,100,47065,1,0,0:0:0:0:
405,162,47338,2,0,P|403:222|402:281,1,110,2|8,0:1|0:1,0:0:0:0:
238,337,48429,6,0,P|192:329|124:328,1,110,6|8,0:1|0:1,0:0:0:0:
80,252,49247,1,0,0:0:0:0:
158,211,49520,2,0,P|212:207|285:216,1,110,2|8,0:1|0:1,0:0:0:0:
329,274,50338,1,0,0:0:0:0:
401,224,50611,6,0,P|391:182|392:108,1,110,6|8,0:1|0:1,0:0:0:0:
336,44,51429,1,0,0:0:0:0:
260,88,51702,2,0,P|224:82|144:94,1,110,2|8,0:1|0:1,0:0:0:0:
75,134,52520,1,0,0:1:0:0:
45,216,52793,5,6,0:1:0:0:
45,216,54429,1,8,0:1:0:0:
207,284,54974,6,0,P|240:277|283:268,2,55,6|2|10,0:1|0:0|0:1,0:0:0:0:
144,346,55793,1,2,0:0:0:0:
81,283,56065,2,0,P|80:232|84:167,1,110,2|8,0:1|0:1,0:0:0:0:
208,48,57156,6,0,P|242:45|276:43,1,55,6|2,0:1|0:0,0:0:0:0:
325,106,57702,2,0,P|359:108|393:111,1,55,10|2,0:1|0:0,0:0:0:0:
442,172,58247,2,0,P|439:228|436:299,1,110,2|10,0:1|0:1,0:0:0:0:
374,344,59065,1,2,0:0:0:0:
296,303,59338,6,0,P|264:302|237:309,2,55,6|2|10,0:1|0:0|0:1,0:0:0:0:
374,344,60156,1,2,0:0:0:0:
436,281,60429,2,0,P|439:226|442:171,1,110,2|10,0:1|0:1,0:0:0:0:
379,109,61247,1,2,0:0:0:0:
316,171,61520,6,0,P|264:165|192:159,1,110,6|10,0:1|0:1,0:0:0:0:
130,204,62338,1,2,0:0:0:0:
192,266,62611,2,0,P|243:260|316:254,1,110,2|8,0:1|0:1,0:0:0:0:
426,130,63702,6,0,P|425:98|420:55,2,55,6|2|8,0:1|0:0|0:1,0:0:0:0:
363,192,64520,1,2,0:0:0:0:
300,129,64793,2,0,P|244:123|179:124,1,110,2|8,0:1|0:1,0:0:0:0:
56,235,65884,6,0,P|55:267|59:299,1,55,6|2,0:1|0:0,0:0:0:0:
116,355,66429,2,0,P|148:356|180:352,1,55,8|2,0:1|0:0,0:0:0:0:
232,291,66974,2,0,P|285:293|355:299,1,110,2|10,0:1|0:1,0:0:0:0:
424,331,67793,1,2,0:0:0:0:
468,255,68065,6,0,P|465:228|458:182,2,55,6|2|10,0:1|0:0|0:1,0:0:0:0:
424,331,68884,1,2,0:0:0:0:
341,297,69156,1,2,0:1:0:0:
341,297,70247,6,0,P|305:297|264:307,1,55,6|2,0:1|0:0,0:0:0:0:
208,339,70793,2,0,P|172:339|131:329,1,55,8|2,0:1|0:0,0:0:0:0:
91,273,71338,2,0,P|93:219|96:151,1,110,2|8,3:1|0:1,0:0:0:0:
92,75,72156,1,2,0:0:0:0:
168,31,72429,6,0,P|200:34|248:40,1,55,2|2,0:1|0:0,0:0:0:0:
284,99,72974,2,0,P|319:101|357:91,1,55,8|2,0:1|0:0,0:0:0:0:
388,171,73520,2,0,P|336:193|261:184,1,110,2|8,3:1|0:1,0:0:0:0:
218,251,74338,1,2,0:0:0:0:
260,328,74611,6,0,P|292:331|324:334,1,55,6|2,0:1|0:0,0:0:0:0:
398,305,75156,2,0,P|430:301|462:299,1,55,8|2,0:1|0:0,0:0:0:0:
496,223,75702,2,0,P|449:209|401:149,1,110,2|8,3:1|0:1,0:0:0:0:
384,83,76520,1,2,0:0:0:0:
312,35,76793,6,0,P|275:39|240:51,1,55,6|2,0:1|0:0,0:0:0:0:
195,106,77338,2,0,P|158:102|123:90,1,55,10|2,0:1|0:0,0:0:0:0:
140,185,77884,2,0,P|177:189|212:201,1,55,2|2,0:1|0:0,0:0:0:0:
257,256,78429,2,0,P|294:252|329:240,1,55,10|2,0:1|0:0,0:0:0:0:
373,184,78974,6,0,P|373:148|363:107,1,55,2|2,0:1|0:0,0:0:0:0:
307,66,79520,2,0,P|271:66|230:76,1,55,8|2,0:1|0:0,0:0:0:0:
190,131,80065,2,0,P|192:184|195:253,1,110,2|8,3:1|0:1,0:0:0:0:
146,314,80883,1,2,0:0:0:0:
72,268,81156,6,0,P|72:235|73:187,1,55,6|2,0:1|0:0,0:0:0:0:
100,128,81702,2,0,P|99:95|98:47,1,55,8|2,0:1|0:0,0:0:0:0:
176,28,82247,2,0,P|227:25|297:43,1,110,2|8,3:1|0:1,0:0:0:0:
346,100,83065,1,2,0:0:0:0:
407,165,83338,6,0,P|439:168|471:171,1,55,6|2,0:1|0:0,0:0:0:0:
468,258,83883,2,0,P|435:254|404:252,1,55,8|2,0:1|0:0,0:0:0:0:
350,315,84429,2,0,P|302:326|230:298,1,110,2|8,3:1|0:1,0:0:0:0:
182,247,85247,1,2,0:0:0:0:
109,196,85520,6,0,P|72:200|37:212,1,55,6|2,0:1|0:0,0:0:0:0:
48,292,86065,2,0,P|85:288|120:276,1,55,10|2,0:1|0:0,0:0:0:0:
182,247,86611,2,0,P|219:251|254:263,1,55,2|2,0:1|0:0,0:0:0:0:
298,318,87156,2,0,P|335:314|370:302,1,55,10|2,0:1|0:0,0:0:0:0:
424,260,87702,5,4,0:2:0:0:
256,192,87974,12,0,95065,0:0:0:0:
