osu file format v14

[General]
AudioFilename: audio.mp3
AudioLeadIn: 0
PreviewTime: 69702
Countdown: 0
SampleSet: Soft
StackLeniency: 0.7
Mode: 0
LetterboxInBreaks: 0
EpilepsyWarning: 1
WidescreenStoryboard: 1

[Editor]
DistanceSpacing: 1.3
BeatDivisor: 4
GridSize: 4
TimelineZoom: 1

[Metadata]
Title:ILY
TitleUnicode:ILY
Artist:Panda Eyes
ArtistUnicode:Panda Eyes
Creator:M a r v o l l o
Version:Hard
Source:
Tags:shmiklak marvollo m_a_r_v_o_l_l_o fanteer drumstep Dnb Melodic Electro Dubstep harmonic war ep namki smau5
BeatmapID:1385400
BeatmapSetID:653534

[Difficulty]
HPDrainRate:5.5
CircleSize:4
OverallDifficulty:6
ApproachRate:7.5
SliderMultiplier:1.2
SliderTickRate:1

[Events]
//Background and Video events
0,0,"wallhaven-294805.jpeg",0,0
//Break Periods
//Storyboard Layer 0 (Background)
//Storyboard Layer 1 (Fail)
//Storyboard Layer 2 (Pass)
//Storyboard Layer 3 (Foreground)
Sprite,Foreground,Centre,"sb\ring.png",0,0 M,0,454,,96,104 F,0,454,,1 C,0,454,,255,255,255 S,7,454,2454,0.25,1.5 F,0,455,2455,1,0 M,0,2635,,299,163 F,0,2635,,1 C,0,2635,,255,255,255 S,7,2635,4635,0.25,1.5 F,0,2636,4636,1,0 M,0,4817,,238,363 F,0,4817,,1 C,0,4817,,255,255,255 S,7,4817,6817,0.25,1.5 F,0,4818,6818,1,0 M,0,6999,,467,211 F,0,6999,,1 C,0,6999,,255,255,255 S,7,6999,8999,0.25,1.5 F,0,7000,9000,1,0 M,0,9181,,114,221 F,0,9181,,1 C,0,9181,,255,255,255 S,7,9181,11181,0.25,1.5 F,0,9182,11182,1,0 M,0,11363,,96,240 F,0,11363,,1 C,0,11363,,255,255,255 S,7,11363,13363,0.25,1.5 F,0,11364,13364,1,0 M,0,13544,,455,93 F,0,13544,,1 C,0,13544,,255,255,255 S,7,13544,15544,0.25,1.5 F,0,13545,15545,1,0 M,0,15726,,337,310 F,0,15726,,1 C,0,15726,,255,255,255 S,7,15726,17726,0.25,1.5 F,0,15727,17727,1,0 M,0,17884,,76,228 F,0,17884,,1 C,0,17884,,255,255,255 S,7,17884,19884,0.25,1.5 F,0,17885,19885,1,0 M,0,20066,,506,86 F,0,20066,,1 C,0,20066,,255,255,255 S,7,20066,22066,0.25,1.5 F,0,20067,22067,1,0 M,0,22247,,136,92 F,0,22247,,1 C,0,22247,,255,255,255 S,7,22247,24247,0.25,1.5 F,0,22248,24248,1,0 M,0,24429,,411,402 F,0,24429,,1 C,0,24429,,255,255,255 S,7,24429,26429,0.25,1.5 F,0,24430,26430,1,0 M,0,26611,,360,311 F,0,26611,,1 C,0,26611,,255,255,255 S,7,26611,28611,0.25,1.5 F,0,26612,28612,1,0 M,0,28793,,136,420 F,0,28793,,1 C,0,28793,,255,255,255 S,7,28793,30793,0.25,1.5 F,0,28794,30794,1,0 M,0,30975,,156,332 F,0,30975,,1 C,0,30975,,255,255,255 S,7,30975,32975,0.25,1.5 F,0,30976,32976,1,0 M,0,33157,,434,288 F,0,33157,,1 C,0,33157,,255,255,255 S,7,33157,35157,0.25,1.5 F,0,33158,35158,1,0
Sprite,Foreground,Centre,"sb\ring.png",0,0 M,0,1272,,157,165 F,0,1272,,1 C,0,1272,,255,255,255 S,7,1272,3272,0.25,1.5 F,0,1273,3273,1,0 M,0,3454,,237,224 F,0,3454,,1 C,0,3454,,255,255,255 S,7,3454,5454,0.25,1.5 F,0,3455,5455,1,0 M,0,5635,,311,407 F,0,5635,,1 C,0,5635,,255,255,255 S,7,5635,7635,0.25,1.5 F,0,5636,7636,1,0 M,0,7817,,405,149 F,0,7817,,1 C,0,7817,,255,255,255 S,7,7817,9817,0.25,1.5 F,0,7818,9818,1,0 M,0,9999,,175,282 F,0,9999,,1 C,0,9999,,255,255,255 S,7,9999,11999,0.25,1.5 F,0,10000,12000,1,0 M,0,12181,,157,178 F,0,12181,,1 C,0,12181,,255,255,255 S,7,12181,14181,0.25,1.5 F,0,12182,14182,1,0 M,0,14363,,393,154 F,0,14363,,1 C,0,14363,,255,255,255 S,7,14363,16363,0.25,1.5 F,0,14364,16364,1,0 M,0,16544,,276,370 F,0,16544,,1 C,0,16544,,255,255,255 S,7,16544,18544,0.25,1.5 F,0,16545,18545,1,0 M,0,18702,,130,151 F,0,18702,,1 C,0,18702,,255,255,255 S,7,18702,20702,0.25,1.5 F,0,18703,20703,1,0 M,0,20883,,458,248 F,0,20883,,1 C,0,20883,,255,255,255 S,7,20883,22883,0.25,1.5 F,0,20884,22884,1,0 M,0,23066,,96,254 F,0,23066,,1 C,0,23066,,255,255,255 S,7,23066,25066,0.25,1.5 F,0,23067,25067,1,0 M,0,25247,,498,301 F,0,25247,,1 C,0,25247,,255,255,255 S,7,25247,27247,0.25,1.5 F,0,25248,27248,1,0 M,0,27429,,522,346 F,0,27429,,1 C,0,27429,,255,255,255 S,7,27429,29429,0.25,1.5 F,0,27430,29430,1,0 M,0,29611,,182,256 F,0,29611,,1 C,0,29611,,255,255,255 S,7,29611,31611,0.25,1.5 F,0,29612,31612,1,0 M,0,31793,,316,268 F,0,31793,,1 C,0,31793,,255,255,255 S,7,31793,33793,0.25,1.5 F,0,31794,33794,1,0 M,0,33974,,390,124 F,0,33974,,1 C,0,33974,,255,255,255 S,7,33974,35974,0.25,1.5 F,0,33975,35975,1,0
Sprite,Foreground,Centre,"sb\ring.png",0,0 M,0,87702,,501,352 F,0,87702,,1 C,0,87702,,255,255,255 S,7,87702,89702,0.25,1.5 F,0,87703,89703,1,0 M,0,89884,,228,120 F,0,89884,,1 C,0,89884,,255,255,255 S,7,89884,91884,0.25,1.5 F,0,89885,91885,1,0 M,0,92065,,380,364 F,0,92065,,1 C,0,92065,,255,255,255 S,7,92065,94065,0.25,1.5 F,0,92066,94066,1,0 M,0,94247,,224,304 F,0,94247,,1 C,0,94247,,255,255,255 S,7,94247,96247,0.25,1.5 F,0,94248,96248,1,0
Sprite,Foreground,Centre,"sb\Lhighlight.png",320,0 F,0,0,,0 F,0,0,,0 F,0,0,,0 F,0,0,,0 F,0,0,,0 F,0,0,,0 F,0,0,,0 F,0,0,,0 F,0,0,,0 F,0,0,,0 F,0,0,,0 F,0,0,,0 F,0,0,,0 F,0,0,,0 F,0,0,,0 F,0,0,,0 F,0,0,,0 F,0,0,,0 F,0,0,,0 F,0,0,,0 F,0,0,,0 F,0,0,,0 F,0,0,,0 F,0,0,,0 F,0,0,,0 F,0,0,,0 F,0,0,,0 F,0,0,,0 F,0,0,,0 F,0,0,,0 F,0,0,,0 F,0,0,,0 F,0,0,,0 R,0,70247,,1.5708 MY,0,70247,,100 V,0,70247,,2,4 F,0,70247,70747,1,0 R,0,70793,,1.5708 MY,0,70793,,292 V,0,70793,,2,4 F,0,70793,71293,1,0 R,0,71338,,1.5708 MY,0,71338,,407 V,0,71338,,2,4 F,0,71338,71838,1,0 R,0,71884,,1.5708 MY,0,71884,,316 V,0,71884,,2,4 F,0,71884,72384,1,0 R,0,72429,,1.5708 MY,0,72429,,411 V,0,72429,,2,4 F,0,72429,72929,1,0 R,0,72974,,1.5708 MY,0,72974,,296 V,0,72974,,2,4 F,0,72974,73474,1,0 R,0,73520,,1.5708 MY,0,73520,,184 V,0,73520,,2,4 F,0,73520,74020,1,0 R,0,74065,,1.5708 MY,0,74065,,100 V,0,74065,,2,4 F,0,74065,74565,1,0 R,0,74611,,1.5708 MY,0,74611,,195 V,0,74611,,2,4 F,0,74611,75111,1,0 R,0,75156,,1.5708 MY,0,75156,,354 V,0,75156,,2,4 F,0,75156,75656,1,0 R,0,75702,,1.5708 MY,0,75702,,193 V,0,75702,,2,4 F,0,75702,76202,1,0 R,0,76247,,1.5708 MY,0,76247,,352 V,0,76247,,2,4 F,0,76247,76747,1,0 R,0,76793,,1.5708 MY,0,76793,,412 V,0,76793,,2,4 F,0,76793,77293,1,0 R,0,77338,,1.5708 MY,0,77338,,312 V,0,77338,,2,4 F,0,77338,77838,1,0 R,0,77884,,1.5708 MY,0,77884,,211 V,0,77884,,2,4 F,0,77884,78384,1,0 R,0,78429,,1.5708 MY,0,78429,,111 V,0,78429,,2,4 F,0,78429,78929,1,0 R,0,78974,,1.5708 MY,0,78974,,196 V,0,78974,,2,4 F,0,78974,79474,1,0 R,0,79520,,1.5708 MY,0,79520,,357 V,0,79520,,2,4 F,0,79520,80020,1,0 R,0,80065,,1.5708 MY,0,80065,,282 V,0,80065,,2,4 F,0,80065,80565,1,0 R,0,80611,,1.5708 MY,0,80611,,121 V,0,80611,,2,4 F,0,80611,81111,1,0 R,0,81156,,1.5708 MY,0,81156,,80 V,0,81156,,2,4 F,0,81156,81656,1,0 R,0,81701,,1.5708 MY,0,81701,,195 V,0,81701,,2,4 F,0,81701,82201,1,0 R,0,82247,,1.5708 MY,0,82247,,307 V,0,82247,,2,4 F,0,82247,82747,1,0 R,0,82792,,1.5708 MY,0,82792,,391 V,0,82792,,2,4 F,0,82792,83292,1,0 R,0,83338,,1.5708 MY,0,83338,,314 V,0,83338,,2,4 F,0,83338,83838,1,0 R,0,83883,,1.5708 MY,0,83883,,155 V,0,83883,,2,4 F,0,83883,84383,1,0 R,0,84429,,1.5708 MY,0,84429,,316 V,0,84429,,2,4 F,0,84429,84929,1,0 R,0,84974,,1.5708 MY,0,84974,,157 V,0,84974,,2,4 F,0,84974,85474,1,0 R,0,85520,,1.5708 MY,0,85520,,97 V,0,85520,,2,4 F,0,85520,86020,1,0 R,0,86065,,1.5708 MY,0,86065,,197 V,0,86065,,2,4 F,0,86065,86565,1,0 R,0,86611,,1.5708 MY,0,86611,,298 V,0,86611,,2,4 F,0,86611,87111,1,0 R,0,87156,,1.5708 MY,0,87156,,398 V,0,87156,,2,4 F,0,87156,87656,1,0 R,0,87702,,1.5708 MY,0,87702,,352 V,0,87702,,2,4 F,0,87702,88202,1,0
Sprite,Foreground,Centre,"sb\Lhighlight.png",320,0 F,0,0,,0 F,0,0,,0 F,0,0,,0 F,0,0,,0 F,0,0,,0 F,0,0,,0 R,0,72020,,1.5708 MY,0,72020,,316 V,0,72020,,2,4 F,0,72020,72520,1,0 R,0,74202,,1.5708 MY,0,74202,,100 V,0,74202,,2,4 F,0,74202,74702,1,0 R,0,76384,,1.5708 MY,0,76384,,352 V,0,76384,,2,4 F,0,76384,76884,1,0 R,0,80747,,1.5708 MY,0,80747,,121 V,0,80747,,2,4 F,0,80747,81247,1,0 R,0,82929,,1.5708 MY,0,82929,,391 V,0,82929,,2,4 F,0,82929,83429,1,0 R,0,85111,,1.5708 MY,0,85111,,157 V,0,85111,,2,4 F,0,85111,85611,1,0
Sprite,Foreground,Centre,"sb\Lhighlight.png",320,0 F,0,0,,0 F,0,0,,0 F,0,0,,0 F,0,0,,0 F,0,0,,0 F,0,0,,0 R,0,72156,,1.5708 MY,0,72156,,316 V,0,72156,,2,4 F,0,72156,72656,1,0 R,0,74338,,1.5708 MY,0,74338,,100 V,0,74338,,2,4 F,0,74338,74838,1,0 R,0,76520,,1.5708 MY,0,76520,,352 V,0,76520,,2,4 F,0,76520,77020,1,0 R,0,80883,,1.5708 MY,0,80883,,121 V,0,80883,,2,4 F,0,80883,81383,1,0 R,0,83065,,1.5708 MY,0,83065,,391 V,0,83065,,2,4 F,0,83065,83565,1,0 R,0,85247,,1.5708 MY,0,85247,,157 V,0,85247,,2,4 F,0,85247,85747,1,0
Sprite,Foreground,Centre,"sb\Lhighlight.png",320,0 F,0,0,,0 F,0,0,,0 F,0,0,,0 F,0,0,,0 F,0,0,,0 F,0,0,,0 R,0,72156,,1.5708 MY,0,72156,,316 V,0,72156,,2,4 F,0,72156,72656,1,0 R,0,74338,,1.5708 MY,0,74338,,100 V,0,74338,,2,4 F,0,74338,74838,1,0 R,0,76520,,1.5708 MY,0,76520,,352 V,0,76520,,2,4 F,0,76520,77020,1,0 R,0,80883,,1.5708 MY,0,80883,,121 V,0,80883,,2,4 F,0,80883,81383,1,0 R,0,83065,,1.5708 MY,0,83065,,391 V,0,83065,,2,4 F,0,83065,83565,1,0 R,0,85247,,1.5708 MY,0,85247,,157 V,0,85247,,2,4 F,0,85247,85747,1,0
Sprite,Foreground,Centre,"sb\Lhighlight.png",320,0 F,0,0,,0 F,0,0,,0 F,0,0,,0 F,0,0,,0 F,0,0,,0 F,0,0,,0 R,0,72176,,1.5708 MY,0,72176,,320 V,0,72176,,2,4 F,0,72176,72656,0.9,0 R,0,74358,,1.5708 MY,0,74358,,104 V,0,74358,,2,4 F,0,74358,74838,0.9,0 R,0,76540,,1.5708 MY,0,76540,,356 V,0,76540,,2,4 F,0,76540,77020,0.9,0 R,0,80903,,1.5708 MY,0,80903,,125 V,0,80903,,2,4 F,0,80903,81383,0.9,0 R,0,83085,,1.5708 MY,0,83085,,395 V,0,83085,,2,4 F,0,83085,83565,0.9,0 R,0,85267,,1.5708 MY,0,85267,,161 V,0,85267,,2,4 F,0,85267,85747,0.9,0
Sprite,Foreground,Centre,"sb\Lhighlight.png",320,0 F,0,0,,0 F,0,0,,0 F,0,0,,0 F,0,0,,0 F,0,0,,0 F,0,0,,0 R,0,72196,,1.5708 MY,0,72196,,308 V,0,72196,,2,4 F,0,72196,72656,0.8,0 R,0,74378,,1.5708 MY,0,74378,,92 V,0,74378,,2,4 F,0,74378,74838,0.8,0 R,0,76560,,1.5708 MY,0,76560,,344 V,0,76560,,2,4 F,0,76560,77020,0.8,0 R,0,80923,,1.5708 MY,0,80923,,113 V,0,80923,,2,4 F,0,80923,81383,0.8,0 R,0,83105,,1.5708 MY,0,83105,,383 V,0,83105,,2,4 F,0,83105,83565,0.8,0 R,0,85287,,1.5708 MY,0,85287,,149 V,0,85287,,2,4 F,0,85287,85747,0.8,0
Sprite,Foreground,Centre,"sb\Lhighlight.png",320,0 F,0,0,,0 F,0,0,,0 F,0,0,,0 F,0,0,,0 F,0,0,,0 F,0,0,,0 R,0,72216,,1.5708 MY,0,72216,,328 V,0,72216,,2,4 F,0,72216,72656,0.7,0 R,0,74398,,1.5708 MY,0,74398,,112 V,0,74398,,2,4 F,0,74398,74838,0.7,0 R,0,76580,,1.5708 MY,0,76580,,364 V,0,76580,,2,4 F,0,76580,77020,0.7,0 R,0,80943,,1.5708 MY,0,80943,,133 V,0,80943,,2,4 F,0,80943,81383,0.7,0 R,0,83125,,1.5708 MY,0,83125,,403 V,0,83125,,2,4 F,0,83125,83565,0.7,0 R,0,85307,,1.5708 MY,0,85307,,169 V,0,85307,,2,4 F,0,85307,85747,0.7,0
Sprite,Foreground,Centre,"sb\Lhighlight.png",320,0 F,0,0,,0 F,0,0,,0 F,0,0,,0 F,0,0,,0 F,0,0,,0 F,0,0,,0 R,0,72236,,1.5708 MY,0,72236,,300 V,0,72236,,2,4 F,0,72236,72656,0.6,0 R,0,74418,,1.5708 MY,0,74418,,84 V,0,74418,,2,4 F,0,74418,74838,0.6,0 R,0,76600,,1.5708 MY,0,76600,,336 V,0,76600,,2,4 F,0,76600,77020,0.6,0 R,0,80963,,1.5708 MY,0,80963,,105 V,0,80963,,2,4 F,0,80963,81383,0.6,0 R,0,83145,,1.5708 MY,0,83145,,375 V,0,83145,,2,4 F,0,83145,83565,0.6,0 R,0,85327,,1.5708 MY,0,85327,,141 V,0,85327,,2,4 F,0,85327,85747,0.6,0
Sprite,Foreground,Centre,"sb\Lhighlight.png",320,0 F,0,0,,0 F,0,0,,0 F,0,0,,0 F,0,0,,0 F,0,0,,0 F,0,0,,0 R,0,72256,,1.5708 MY,0,72256,,336 V,0,72256,,2,4 F,0,72256,72656,0.5,0 R,0,74438,,1.5708 MY,0,74438,,120 V,0,74438,,2,4 F,0,74438,74838,0.5,0 R,0,76620,,1.5708 MY,0,76620,,372 V,0,76620,,2,4 F,0,76620,77020,0.5,0 R,0,80983,,1.5708 MY,0,80983,,141 V,0,80983,,2,4 F,0,80983,81383,0.5,0 R,0,83165,,1.5708 MY,0,83165,,411 V,0,83165,,2,4 F,0,83165,83565,0.5,0 R,0,85347,,1.5708 MY,0,85347,,177 V,0,85347,,2,4 F,0,85347,85747,0.5,0
Sprite,Foreground,Centre,"sb\Lhighlight.png",320,0 F,0,0,,0 F,0,0,,0 F,0,0,,0 F,0,0,,0 F,0,0,,0 F,0,0,,0 R,0,72276,,1.5708 MY,0,72276,,292 V,0,72276,,2,4 F,0,72276,72656,0.4,0 R,0,74458,,1.5708 MY,0,74458,,76 V,0,74458,,2,4 F,0,74458,74838,0.4,0 R,0,76640,,1.5708 MY,0,76640,,328 V,0,76640,,2,4 F,0,76640,77020,0.4,0 R,0,81003,,1.5708 MY,0,81003,,97 V,0,81003,,2,4 F,0,81003,81383,0.4,0 R,0,83185,,1.5708 MY,0,83185,,367 V,0,83185,,2,4 F,0,83185,83565,0.4,0 R,0,85367,,1.5708 MY,0,85367,,133 V,0,85367,,2,4 F,0,85367,85747,0.4,0
Sprite,Foreground,Centre,"sb\Lhighlight.png",320,0 F,0,0,,0 F,0,0,,0 F,0,0,,0 F,0,0,,0 F,0,0,,0 F,0,0,,0 R,0,72296,,1.5708 MY,0,72296,,344 V,0,72296,,2,4 F,0,72296,72656,0.3,0 R,0,74478,,1.5708 MY,0,74478,,128 V,0,74478,,2,4 F,0,74478,74838,0.3,0 R,0,76660,,1.5708 MY,0,76660,,380 V,0,76660,,2,4 F,0,76660,77020,0.3,0 R,0,81023,,1.5708 MY,0,81023,,149 V,0,81023,,2,4 F,0,81023,81383,0.3,0 R,0,83205,,1.5708 MY,0,83205,,419 V,0,83205,,2,4 F,0,83205,83565,0.3,0 R,0,85387,,1.5708 MY,0,85387,,185 V,0,85387,,2,4 F,0,85387,85747,0.3,0
Sprite,Foreground,Centre,"sb\Lhighlight.png",320,0 F,0,0,,0 F,0,0,,0 F,0,0,,0 F,0,0,,0 F,0,0,,0 F,0,0,,0 R,0,72316,,1.5708 MY,0,72316,,284 V,0,72316,,2,4 F,0,72316,72656,0.2,0 R,0,74498,,1.5708 MY,0,74498,,68 V,0,74498,,2,4 F,0,74498,74838,0.2,0 R,0,76680,,1.5708 MY,0,76680,,320 V,0,76680,,2,4 F,0,76680,77020,0.2,0 R,0,81043,,1.5708 MY,0,81043,,89 V,0,81043,,2,4 F,0,81043,81383,0.2,0 R,0,83225,,1.5708 MY,0,83225,,359 V,0,83225,,2,4 F,0,83225,83565,0.2,0 R,0,85407,,1.5708 MY,0,85407,,125 V,0,85407,,2,4 F,0,85407,85747,0.2,0
Sprite,Foreground,Centre,"sb\Lhighlight.png",320,0 F,0,0,,0 F,0,0,,0 F,0,0,,0 F,0,0,,0 F,0,0,,0 F,0,0,,0 R,0,72336,,1.5708 MY,0,72336,,352 V,0,72336,,2,4 F,0,72336,72656,0.1,0 R,0,74518,,1.5708 MY,0,74518,,136 V,0,74518,,2,4 F,0,74518,74838,0.1,0 R,0,76700,,1.5708 MY,0,76700,,388 V,0,76700,,2,4 F,0,76700,77020,0.1,0 R,0,81063,,1.5708 MY,0,81063,,157 V,0,81063,,2,4 F,0,81063,81383,0.1,0 R,0,83245,,1.5708 MY,0,83245,,427 V,0,83245,,2,4 F,0,83245,83565,0.1,0 R,0,85427,,1.5708 MY,0,85427,,193 V,0,85427,,2,4 F,0,85427,85747,0.1,0
//Storyboard Sound Samples

[TimingPoints]
454,545.454545454546,4,2,1,40,1,0
454,-125,4,2,1,40,0,0
4817,-125,4,2,1,40,0,0
17884,545.454545454546,4,2,1,60,1,0
17884,-100,4,2,1,60,0,0
35338,-83.3333333333333,4,2,1,90,0,1
35474,-83.3333333333333,4,2,1,90,0,0
52793,-100,4,2,1,90,0,0
54974,-83.3333333333333,4,2,1,90,0,1
55111,-83.3333333333333,4,2,1,90,0,0
69702,-83.3333333333333,4,2,1,90,0,0
70247,-71.4285714285714,4,1,2,80,0,1
70316,-71.4285714285714,4,2,1,100,0,1
72430,-71.4285714285714,4,1,2,80,0,1
72498,-71.4285714285714,4,2,1,100,0,1
74611,-71.4285714285714,4,1,2,80,0,1
74679,-71.4285714285714,4,2,1,100,0,1
76793,-71.4285714285714,4,1,2,80,0,1
76861,-71.4285714285714,4,2,1,100,0,1
77339,-71.4285714285714,4,1,2,80,0,1
77407,-71.4285714285714,4,2,1,100,0,1
77884,-71.4285714285714,4,1,2,80,0,1
77952,-71.4285714285714,4,2,1,100,0,1
78430,-71.4285714285714,4,1,2,80,0,1
78498,-71.4285714285714,4,2,1,100,0,1
78975,-71.4285714285714,4,1,2,80,0,1
79043,-71.4285714285714,4,2,1,100,0,1
81157,-71.4285714285714,4,1,2,80,0,1
81225,-71.4285714285714,4,2,1,100,0,1
83339,-71.4285714285714,4,1,2,80,0,1
83407,-71.4285714285714,4,2,1,100,0,1
85520,-71.4285714285714,4,1,2,80,0,1
85588,-71.4285714285714,4,2,1,100,0,1
86066,-71.4285714285714,4,1,2,80,0,1
86134,-71.4285714285714,4,2,1,100,0,1
86611,-71.4285714285714,4,1,2,80,0,1
86679,-71.4285714285714,4,2,1,100,0,1
87157,-71.4285714285714,4,1,2,80,0,1
87225,-71.4285714285714,4,2,1,100,0,1
87702,-125,4,2,1,40,0,0

[Colours]
Combo1 : 14,147,154
Combo2 : 0,65,130
Combo3 : 102,151,253
Combo4 : 141,224,245

[HitObjects]
32,48,454,5,2,0:3:0:0:
32,48,999,1,0,0:0:0:0:
93,109,1272,2,0,P|144:116|248:104,1,144,2|0,0:0|0:0,0:0:0:0:
235,107,2635,5,2,0:3:0:0:
235,107,3181,1,2,0:3:0:0:
173,168,3454,2,0,P|160:216|180:320,1,144,2|0,0:0|0:0,0:0:0:0:
174,307,4817,5,2,0:3:0:0:
174,307,5363,1,0,0:0:0:0:
247,351,5635,2,0,P|300:345|364:336,1,96,2|0,0:0|0:0,0:0:0:0:
403,278,6454,1,0,0:0:0:0:
342,217,6726,1,0,0:0:0:0:
403,155,6999,5,2,0:3:0:0:
403,155,7544,1,0,0:0:0:0:
341,93,7817,2,0,P|304:88|232:96,1,96,2|0,0:0|0:0,0:0:0:0:
184,153,8635,1,0,0:0:0:0:
112,104,8908,1,0,0:0:0:0:
50,165,9181,5,2,0:3:0:0:
50,165,9726,1,0,0:0:0:0:
111,226,9999,2,0,P|136:280|84:348,1,144,2|0,0:0|0:0,0:0:0:0:
32,184,11363,5,2,0:3:0:0:
32,184,11908,1,2,0:3:0:0:
93,122,12181,2,0,P|179:118|252:112,1,144,2|0,0:0|0:0,0:0:0:0:
391,37,13544,5,2,0:3:0:0:
391,37,14090,1,0,0:0:0:0:
329,98,14363,2,0,P|332:146|336:212,1,96,2|0,0:0|0:0,0:0:0:0:
396,254,15181,1,0,0:0:0:0:
334,315,15454,1,0,0:0:0:0:
273,254,15726,5,2,0:3:0:0:
273,254,16272,1,0,0:0:0:0:
212,314,16544,2,0,P|166:310|96:308,1,96,2|0,0:0|0:0,0:0:0:0:
32,331,17363,1,0,0:0:0:0:
68,252,17635,1,0,0:0:0:0:
12,172,17884,6,0,P|23:113|24:48,1,120,6|4,0:0|0:0,0:0:0:0:
45,74,18565,1,2,0:0:0:0:
66,95,18702,2,0,B|98:86|136:110|136:110|172:123|218:119|250:86,1,180,2|4,0:0|0:0,0:0:0:0:
442,30,20065,6,0,P|441:88|437:161,1,120,6|6,0:0|0:0,0:0:0:0:
416,171,20747,1,2,0:0:0:0:
394,192,20884,2,0,P|370:211|254:151,1,180,2|4,0:0|0:0,0:0:0:0:
72,36,22247,6,0,P|73:87|76:179,1,120,6|6,0:0|0:0,0:0:0:0:
54,177,22929,1,2,0:0:0:0:
32,198,23065,2,0,P|28:271|58:335,1,120,2|0,0:0|0:0,0:0:0:0:
144,355,23884,1,6,0:0:0:0:
244,315,24156,1,2,0:0:0:0:
347,346,24429,6,0,P|404:335|452:287,1,120,6|6,0:0|0:0,0:0:0:0:
456,267,25111,1,2,0:0:0:0:
434,245,25247,2,0,P|377:234|329:186,1,120,2|0,0:0|0:0,0:0:0:0:
288,103,26065,1,6,0:0:0:0:
220,179,26338,1,2,0:0:0:0:
296,255,26611,6,0,P|357:250|424:248,1,120,6|6,0:0|0:0,0:0:0:0:
437,269,27293,1,2,0:0:0:0:
458,290,27429,2,0,P|396:285|268:328,1,180,2|4,0:0|0:0,0:0:0:0:
72,364,28793,6,0,L|76:240,1,120,6|6,0:0|0:0,0:0:0:0:
97,222,29474,1,2,0:0:0:0:
118,200,29611,2,0,P|128:131|36:63,1,180,2|4,0:0|0:0,0:0:0:0:
92,276,30974,6,0,P|161:266|224:252,1,120,6|6,0:0|0:0,0:0:0:0:
231,234,31656,1,2,0:0:0:0:
252,212,31793,2,0,P|321:222|384:236,1,120,2|0,0:0|0:0,0:0:0:0:
468,280,32611,1,6,0:0:0:0:
380,340,32884,1,2,0:0:0:0:
370,232,33156,6,0,P|370:148|370:84,1,120,6|6,0:0|0:0,0:0:0:0:
348,90,33838,1,2,0:0:0:0:
326,68,33974,2,0,P|273:84|184:84,1,120,2|0,0:0|0:0,0:0:0:0:
102,67,34793,1,8,0:1:0:0:
102,67,35338,6,0,P|97:105|100:164,1,71.9999978027344,6|0,0:1|0:0,0:0:0:0:
134,225,35884,2,0,P|138:263|136:322,2,71.9999978027344,8|0|2,0:1|0:0|0:1,0:0:0:0:
97,138,36702,1,0,0:0:0:0:
172,80,36974,2,0,P|210:83|253:85,1,71.9999978027344,8|0,0:1|0:0,0:0:0:0:
332,53,37520,6,0,P|370:49|413:48,1,71.9999978027344,6|0,0:1|0:0,0:0:0:0:
482,98,38065,1,8,0:1:0:0:
482,98,38202,1,0,0:0:0:0:
482,98,38338,1,0,0:0:0:0:
415,164,38611,2,0,P|381:165|328:160,1,71.9999978027344,2|0,0:1|0:0,0:0:0:0:
299,243,39156,2,0,P|336:240|386:239,1,71.9999978027344,8|0,0:1|0:0,0:0:0:0:
437,305,39702,6,0,P|408:336|368:352,1,71.9999978027344,6|0,0:1|0:0,0:0:0:0:
292,320,40247,1,8,0:1:0:0:
292,320,40384,1,0,0:0:0:0:
292,320,40520,1,0,0:0:0:0:
205,355,40793,2,0,P|170:353|132:344,1,71.9999978027344,2|0,0:1|0:0,0:0:0:0:
80,268,41338,2,0,P|114:266|153:257,1,71.9999978027344,8|0,0:1|0:0,0:0:0:0:
217,191,41884,6,0,P|215:152|216:104,1,71.9999978027344,6|0,0:1|0:0,0:0:0:0:
246,30,42429,1,8,0:1:0:0:
246,30,42565,1,0,0:0:0:0:
246,30,42702,1,0,0:0:0:0:
312,96,42974,2,0,P|311:131|310:167,1,71.9999978027344,2|0,0:1|0:0,0:0:0:0:
377,234,43520,1,8,0:1:0:0:
443,167,43793,1,0,0:0:0:0:
496,244,44065,6,0,P|497:280|492:332,1,71.9999978027344,6|0,0:1|0:0,0:0:0:0:
408,356,44611,2,0,P|371:357|320:352,2,71.9999978027344,8|0|2,0:1|0:0|0:1,0:0:0:0:
494,315,45429,1,0,0:0:0:0:
420,256,45702,2,0,P|384:253|348:254,1,71.9999978027344,8|0,0:1|0:0,0:0:0:0:
266,300,46247,6,0,P|219:298|184:284,1,71.9999978027344,6|0,0:1|0:0,0:0:0:0:
129,223,46793,1,8,0:1:0:0:
129,223,46929,1,0,0:0:0:0:
129,223,47065,1,0,0:0:0:0:
62,289,47338,2,0,P|61:325|64:368,1,71.9999978027344,2|0,0:1|0:0,0:0:0:0:
140,308,47884,2,0,P|140:271|138:229,1,71.9999978027344,8|0,0:1|0:0,0:0:0:0:
72,169,48429,6,0,P|71:132|74:90,1,71.9999978027344,6|0,0:1|0:0,0:0:0:0:
139,30,48974,1,8,0:1:0:0:
139,30,49111,1,0,0:0:0:0:
139,30,49247,1,0,0:0:0:0:
208,96,49520,2,0,P|249:91|286:86,1,71.9999978027344,2|0,0:1|0:0,0:0:0:0:
345,153,50065,2,0,P|340:194|335:231,1,71.9999978027344,8|0,0:1|0:0,0:0:0:0:
424,260,50611,6,0,P|419:224|415:188,1,71.9999978027344,6|0,0:1|0:0,0:0:0:0:
348,122,51156,2,0,P|312:117|276:113,1,71.9999978027344,8|0,0:1|0:0,0:0:0:0:
212,44,51702,2,0,P|247:39|283:35,1,71.9999978027344,2|0,0:1|0:0,0:0:0:0:
376,24,52247,1,8,0:1:0:0:
464,56,52520,1,0,0:1:0:0:
506,147,52793,5,6,0:1:0:0:
506,147,54429,1,8,0:1:0:0:
331,188,54974,6,0,P|292:188|257:182,1,71.9999978027344,6|2,0:1|0:0,0:0:0:0:
193,249,55520,2,0,P|197:287|195:346,2,71.9999978027344,10|2|2,0:1|0:0|0:1,0:0:0:0:
126,182,56338,1,0,0:0:0:0:
152,92,56611,2,0,P|190:95|234:94,1,71.9999978027344,8|0,0:1|0:0,0:0:0:0:
290,163,57156,5,6,0:1:0:0:
290,163,57293,1,2,0:0:0:0:
290,163,57429,1,2,0:0:0:0:
356,229,57702,2,0,P|355:266|352:328,1,71.9999978027344,10|2,0:1|0:0,0:0:0:0:
432,248,58247,2,0,P|432:210|436:149,1,71.9999978027344,2|0,0:1|0:0,0:0:0:0:
476,92,58793,1,10,0:1:0:0:
412,24,59065,1,2,0:0:0:0:
345,90,59338,5,6,0:1:0:0:
345,90,59474,1,2,0:0:0:0:
345,90,59611,1,2,0:0:0:0:
345,90,59747,1,2,0:0:0:0:
345,90,59884,2,0,P|330:90|264:77,1,71.9999978027344,10|2,0:1|0:0,0:0:0:0:
180,76,60429,2,0,P|185:154|186:182,1,71.9999978027344,2|0,0:1|0:0,0:0:0:0:
144,231,60974,1,10,0:1:0:0:
140,324,61247,1,2,0:0:0:0:
233,321,61520,6,0,P|276:320|328:332,1,71.9999978027344,6|0,0:1|0:0,0:0:0:0:
392,356,62065,1,10,0:1:0:0:
392,356,62202,1,2,0:0:0:0:
392,356,62338,1,2,0:0:0:0:
443,277,62611,2,0,P|441:241|436:192,1,71.9999978027344,2|0,0:1|0:0,0:0:0:0:
371,138,63156,2,0,P|369:173|364:223,1,71.9999978027344,8|0,0:1|0:0,0:0:0:0:
299,276,63702,5,6,0:1:0:0:
299,276,63838,1,2,0:0:0:0:
299,276,63974,1,2,0:0:0:0:
232,209,64247,2,0,P|195:209|148:212,2,71.9999978027344,8|2|2,0:1|0:0|0:1,0:0:0:0:
299,276,65065,1,0,0:0:0:0:
232,342,65338,2,0,P|187:340|144:328,1,71.9999978027344,8|0,0:1|0:0,0:0:0:0:
92,272,65884,5,6,0:1:0:0:
92,272,66020,1,2,0:0:0:0:
92,272,66156,1,2,0:0:0:0:
25,205,66429,2,0,P|28:173|32:128,1,71.9999978027344,8|2,0:1|0:0,0:0:0:0:
98,67,66974,2,0,P|101:98|105:144,1,71.9999978027344,2|0,0:1|0:0,0:0:0:0:
171,205,67520,1,10,0:1:0:0:
260,172,67793,1,2,0:0:0:0:
326,105,68065,5,6,0:1:0:0:
326,105,68202,1,2,0:0:0:0:
326,105,68338,1,2,0:0:0:0:
326,105,68474,1,2,0:0:0:0:
326,105,68611,2,0,P|375:106|415:106,1,71.9999978027344,10|2,0:1|0:0,0:0:0:0:
468,44,69156,1,2,0:1:0:0:
468,44,70247,6,0,P|465:93|468:152,1,83.9999974365235,6|2,0:1|0:0,0:0:0:0:
472,236,70793,2,0,P|474:285|472:344,1,83.9999974365235,8|2,0:1|0:0,0:0:0:0:
369,351,71338,2,0,P|326:343|268:336,1,83.9999974365235,2|2,3:1|0:0,0:0:0:0:
208,260,71884,1,8,0:1:0:0:
208,260,72020,1,0,0:0:0:0:
208,260,72156,1,2,0:0:0:0:
112,355,72429,6,0,P|70:354|22:346,1,83.9999974365235,2|2,0:1|0:0,0:0:0:0:
48,240,72974,2,0,P|90:239|138:231,1,83.9999974365235,8|2,0:1|0:0,0:0:0:0:
100,128,73520,2,0,P|58:127|10:119,1,83.9999974365235,2|2,3:1|0:0,0:0:0:0:
96,44,74065,1,8,0:1:0:0:
96,44,74202,1,0,0:0:0:0:
96,44,74338,1,2,0:0:0:0:
191,139,74611,6,0,P|204:200|204:240,1,83.9999974365235,6|2,0:1|0:0,0:0:0:0:
282,298,75156,2,0,P|295:237|295:197,1,83.9999974365235,8|2,0:1|0:0,0:0:0:0:
373,137,75702,2,0,P|386:198|386:238,1,83.9999974365235,2|2,3:1|0:0,0:0:0:0:
464,296,76247,1,8,0:1:0:0:
464,296,76384,1,0,0:0:0:0:
464,296,76520,1,2,0:0:0:0:
343,356,76793,6,0,P|303:349|256:352,1,83.9999974365235,6|2,0:1|0:0,0:0:0:0:
164,256,77338,2,0,P|203:249|251:252,1,83.9999974365235,10|2,0:1|0:0,0:0:0:0:
342,155,77884,2,0,P|302:148|255:151,1,83.9999974365235,2|2,0:1|0:0,0:0:0:0:
163,55,78429,2,0,P|202:48|250:51,1,83.9999974365235,10|2,0:1|0:0,0:0:0:0:
344,140,78974,6,0,P|341:189|344:248,1,83.9999974365235,2|2,0:1|0:0,0:0:0:0:
264,301,79520,2,0,P|215:303|164:304,1,83.9999974365235,8|2,0:1|0:0,0:0:0:0:
102,226,80065,2,0,P|110:183|117:125,1,83.9999974365235,2|2,3:1|0:0,0:0:0:0:
192,65,80611,1,8,0:1:0:0:
192,65,80747,1,0,0:0:0:0:
192,65,80883,1,2,0:0:0:0:
320,24,81156,6,0,P|362:25|410:33,1,83.9999974365235,6|2,0:1|0:0,0:0:0:0:
384,139,81701,2,0,P|342:140|294:148,1,83.9999974365235,8|2,0:1|0:0,0:0:0:0:
332,251,82247,2,0,P|374:252|422:260,1,83.9999974365235,2|2,3:1|0:0,0:0:0:0:
336,335,82792,1,8,0:1:0:0:
336,335,82929,1,0,0:0:0:0:
336,335,83065,1,2,0:0:0:0:
225,258,83338,6,0,P|238:197|238:157,1,83.9999974365235,6|2,0:1|0:0,0:0:0:0:
316,99,83883,2,0,P|329:160|329:200,1,83.9999974365235,8|2,0:1|0:0,0:0:0:0:
407,260,84429,2,0,P|420:199|420:159,1,83.9999974365235,2|2,3:1|0:0,0:0:0:0:
498,101,84974,1,8,0:1:0:0:
498,101,85111,1,0,0:0:0:0:
498,101,85247,1,2,0:0:0:0:
377,41,85520,6,0,P|337:48|290:45,1,83.9999974365235,6|2,0:1|0:0,0:0:0:0:
198,141,86065,2,0,P|237:148|285:145,1,83.9999974365235,10|2,0:1|0:0,0:0:0:0:
376,242,86611,2,0,P|336:249|289:246,1,83.9999974365235,2|2,0:1|0:0,0:0:0:0:
197,342,87156,2,0,P|236:349|284:346,1,83.9999974365235,10|2,0:1|0:0,0:0:0:0:
437,296,87702,5,4,0:2:0:0:
480,180,88247,2,0,P|468:136|464:128,1,48,0|2,0:0|0:0,0:0:0:0:
164,64,89884,5,4,0:0:0:0:
84,160,90429,2,0,P|84:196|88:216,1,48,0|2,0:0|0:0,0:0:0:0:
316,308,91793,5,0,0:0:0:0:
316,308,92065,1,4,0:0:0:0:
400,216,92611,2,0,P|400:176|396:164,1,48,0|2,0:0|0:0,0:0:0:0:
160,248,93974,5,0,2:0:0:0:
160,248,94247,1,4,0:0:0:0:
276,204,94793,2,0,P|306:197|332:200,1,48,0|0,0:0|0:0,0:0:0:0:
