osu file format v14

[General]
AudioFilename: audio.mp3
AudioLeadIn: 0
PreviewTime: 69702
Countdown: 0
SampleSet: Soft
StackLeniency: 0.7
Mode: 0
LetterboxInBreaks: 0
EpilepsyWarning: 1
WidescreenStoryboard: 1

[Editor]
DistanceSpacing: 2
BeatDivisor: 4
GridSize: 4
TimelineZoom: 1.9

[Metadata]
Title:ILY
TitleUnicode:ILY
Artist:Panda Eyes
ArtistUnicode:Panda Eyes
Creator:M a r v o l l o
Version:Fanteer's Insane
Source:
Tags:shmiklak marvollo m_a_r_v_o_l_l_o fanteer drumstep Dnb Melodic Electro Dubstep harmonic war ep namki smau5
BeatmapID:1385399
BeatmapSetID:653534

[Difficulty]
HPDrainRate:6
CircleSize:3.5
OverallDifficulty:7.5
ApproachRate:9
SliderMultiplier:1.5
SliderTickRate:1

[Events]
//Background and Video events
0,0,"wallhaven-294805.jpeg",0,0
//Break Periods
//Storyboard Layer 0 (Background)
//Storyboard Layer 1 (Fail)
//Storyboard Layer 2 (Pass)
//Storyboard Layer 3 (Foreground)
Sprite,Foreground,Centre,"sb\ring.png",0,0 M,0,454,,204,360 F,0,454,,1 C,0,454,,255,255,255 S,7,454,2454,0.25,1.5 F,0,455,2455,1,0 M,0,2635,,540,292 F,0,2635,,1 C,0,2635,,255,255,255 S,7,2635,4635,0.25,1.5 F,0,2636,4636,1,0 M,0,4817,,356,280 F,0,4817,,1 C,0,4817,,255,255,255 S,7,4817,6817,0.25,1.5 F,0,4818,6818,1,0 M,0,6999,,104,400 F,0,6999,,1 C,0,6999,,255,255,255 S,7,6999,8999,0.25,1.5 F,0,7000,9000,1,0 M,0,9181,,396,224 F,0,9181,,1 C,0,9181,,255,255,255 S,7,9181,11181,0.25,1.5 F,0,9182,11182,1,0 M,0,11363,,120,348 F,0,11363,,1 C,0,11363,,255,255,255 S,7,11363,13363,0.25,1.5 F,0,11364,13364,1,0 M,0,13544,,292,96 F,0,13544,,1 C,0,13544,,255,255,255 S,7,13544,15544,0.25,1.5 F,0,13545,15545,1,0 M,0,15726,,496,304 F,0,15726,,1 C,0,15726,,255,255,255 S,7,15726,17726,0.25,1.5 F,0,15727,17727,1,0 M,0,17884,,216,416 F,0,17884,,1 C,0,17884,,255,255,255 S,7,17884,19884,0.25,1.5 F,0,17885,19885,1,0 M,0,20066,,312,236 F,0,20066,,1 C,0,20066,,255,255,255 S,7,20066,22066,0.25,1.5 F,0,20067,22067,1,0 M,0,22247,,148,404 F,0,22247,,1 C,0,22247,,255,255,255 S,7,22247,24247,0.25,1.5 F,0,22248,24248,1,0 M,0,24429,,173,183 F,0,24429,,1 C,0,24429,,255,255,255 S,7,24429,26429,0.25,1.5 F,0,24430,26430,1,0 M,0,26611,,352,376 F,0,26611,,1 C,0,26611,,255,255,255 S,7,26611,28611,0.25,1.5 F,0,26612,28612,1,0 M,0,28793,,400,276 F,0,28793,,1 C,0,28793,,255,255,255 S,7,28793,30793,0.25,1.5 F,0,28794,30794,1,0 M,0,30975,,418,325 F,0,30975,,1 C,0,30975,,255,255,255 S,7,30975,32975,0.25,1.5 F,0,30976,32976,1,0 M,0,33157,,86,385 F,0,33157,,1 C,0,33157,,255,255,255 S,7,33157,35157,0.25,1.5 F,0,33158,35158,1,0
Sprite,Foreground,Centre,"sb\ring.png",0,0 M,0,1272,,276,396 F,0,1272,,1 C,0,1272,,255,255,255 S,7,1272,3272,0.25,1.5 F,0,1273,3273,1,0 M,0,3454,,464,268 F,0,3454,,1 C,0,3454,,255,255,255 S,7,3454,5454,0.25,1.5 F,0,3455,5455,1,0 M,0,5635,,296,228 F,0,5635,,1 C,0,5635,,255,255,255 S,7,5635,7635,0.25,1.5 F,0,5636,7636,1,0 M,0,7817,,164,348 F,0,7817,,1 C,0,7817,,255,255,255 S,7,7817,9817,0.25,1.5 F,0,7818,9818,1,0 M,0,9999,,328,180 F,0,9999,,1 C,0,9999,,255,255,255 S,7,9999,11999,0.25,1.5 F,0,10000,12000,1,0 M,0,12181,,192,308 F,0,12181,,1 C,0,12181,,255,255,255 S,7,12181,14181,0.25,1.5 F,0,12182,14182,1,0 M,0,14363,,356,144 F,0,14363,,1 C,0,14363,,255,255,255 S,7,14363,16363,0.25,1.5 F,0,14364,16364,1,0 M,0,16544,,428,352 F,0,16544,,1 C,0,16544,,255,255,255 S,7,16544,18544,0.25,1.5 F,0,16545,18545,1,0
Sprite,Foreground,Centre,"sb\ring.png",0,0 M,0,87702,,165,84 F,0,87702,,1 C,0,87702,,255,255,255 S,7,87702,89702,0.25,1.5 F,0,87703,89703,1,0 M,0,89884,,501,140 F,0,89884,,1 C,0,89884,,255,255,255 S,7,89884,91884,0.25,1.5 F,0,89885,91885,1,0 M,0,92065,,413,392 F,0,92065,,1 C,0,92065,,255,255,255 S,7,92065,94065,0.25,1.5 F,0,92066,94066,1,0 M,0,94247,,123,237 F,0,94247,,1 C,0,94247,,255,255,255 S,7,94247,96247,0.25,1.5 F,0,94248,96248,1,0
Sprite,Foreground,Centre,"sb\ring.png",0,0 M,0,88520,,238,132 F,0,88520,,1 C,0,88520,,255,255,255 S,7,88520,90520,0.25,1.5 F,0,88521,90521,1,0 M,0,90702,,546,212 F,0,90702,,1 C,0,90702,,255,255,255 S,7,90702,92702,0.25,1.5 F,0,90703,92703,1,0 M,0,92884,,343,348 F,0,92884,,1 C,0,92884,,255,255,255 S,7,92884,94884,0.25,1.5 F,0,92885,94885,1,0 M,0,95065,,92,316 F,0,95065,,1 C,0,95065,,255,255,255 S,7,95065,97065,0.25,1.5 F,0,95066,97066,1,0
Sprite,Foreground,Centre,"sb\Lhighlight.png",320,0 F,0,0,,0 F,0,0,,0 F,0,0,,0 F,0,0,,0 F,0,0,,0 F,0,0,,0 F,0,0,,0 F,0,0,,0 F,0,0,,0 F,0,0,,0 F,0,0,,0 F,0,0,,0 F,0,0,,0 F,0,0,,0 F,0,0,,0 F,0,0,,0 F,0,0,,0 F,0,0,,0 F,0,0,,0 F,0,0,,0 F,0,0,,0 F,0,0,,0 F,0,0,,0 F,0,0,,0 F,0,0,,0 F,0,0,,0 F,0,0,,0 F,0,0,,0 F,0,0,,0 F,0,0,,0 F,0,0,,0 F,0,0,,0 F,0,0,,0 F,0,0,,0 R,0,69702,,1.5708 MY,0,69702,,399 V,0,69702,,2,4 F,0,69702,70202,1,0 R,0,70248,,1.5708 MY,0,70248,,187 V,0,70248,,2,4 F,0,70248,70748,1,0 R,0,70793,,1.5708 MY,0,70793,,228 V,0,70793,,2,4 F,0,70793,71293,1,0 R,0,71338,,1.5708 MY,0,71338,,116 V,0,71338,,2,4 F,0,71338,71838,1,0 R,0,71884,,1.5708 MY,0,71884,,248 V,0,71884,,2,4 F,0,71884,72384,1,0 R,0,72429,,1.5708 MY,0,72429,,360 V,0,72429,,2,4 F,0,72429,72929,1,0 R,0,72974,,1.5708 MY,0,72974,,80 V,0,72974,,2,4 F,0,72974,73474,1,0 R,0,73520,,1.5708 MY,0,73520,,216 V,0,73520,,2,4 F,0,73520,74020,1,0 R,0,74065,,1.5708 MY,0,74065,,220 V,0,74065,,2,4 F,0,74065,74565,1,0 R,0,74611,,1.5708 MY,0,74611,,304 V,0,74611,,2,4 F,0,74611,75111,1,0 R,0,75156,,1.5708 MY,0,75156,,288 V,0,75156,,2,4 F,0,75156,75656,1,0 R,0,75702,,1.5708 MY,0,75702,,176 V,0,75702,,2,4 F,0,75702,76202,1,0 R,0,76247,,1.5708 MY,0,76247,,264 V,0,76247,,2,4 F,0,76247,76747,1,0 R,0,76793,,1.5708 MY,0,76793,,192 V,0,76793,,2,4 F,0,76793,77293,1,0 R,0,77338,,1.5708 MY,0,77338,,440 V,0,77338,,2,4 F,0,77338,77838,1,0 R,0,77884,,1.5708 MY,0,77884,,272 V,0,77884,,2,4 F,0,77884,78384,1,0 R,0,78429,,1.5708 MY,0,78429,,174 V,0,78429,,2,4 F,0,78429,78929,1,0 R,0,78974,,1.5708 MY,0,78974,,300 V,0,78974,,2,4 F,0,78974,79474,1,0 R,0,79520,,1.5708 MY,0,79520,,228 V,0,79520,,2,4 F,0,79520,80020,1,0 R,0,80064,,1.5708 MY,0,80064,,152 V,0,80064,,2,4 F,0,80064,80564,1,0 R,0,80610,,1.5708 MY,0,80610,,268 V,0,80610,,2,4 F,0,80610,81110,1,0 R,0,81156,,1.5708 MY,0,81156,,288 V,0,81156,,2,4 F,0,81156,81656,1,0 R,0,81702,,1.5708 MY,0,81702,,120 V,0,81702,,2,4 F,0,81702,82202,1,0 R,0,82247,,1.5708 MY,0,82247,,160 V,0,82247,,2,4 F,0,82247,82747,1,0 R,0,82793,,1.5708 MY,0,82793,,348 V,0,82793,,2,4 F,0,82793,83293,1,0 R,0,83337,,1.5708 MY,0,83337,,92 V,0,83337,,2,4 F,0,83337,83837,1,0 R,0,83884,,1.5708 MY,0,83884,,288 V,0,83884,,2,4 F,0,83884,84384,1,0 R,0,84428,,1.5708 MY,0,84428,,232 V,0,84428,,2,4 F,0,84428,84928,1,0 R,0,84974,,1.5708 MY,0,84974,,376 V,0,84974,,2,4 F,0,84974,85474,1,0 R,0,85519,,1.5708 MY,0,85519,,164 V,0,85519,,2,4 F,0,85519,86019,1,0 R,0,86064,,1.5708 MY,0,86064,,96 V,0,86064,,2,4 F,0,86064,86564,1,0 R,0,86610,,1.5708 MY,0,86610,,264 V,0,86610,,2,4 F,0,86610,87110,1,0 R,0,87156,,1.5708 MY,0,87156,,338 V,0,87156,,2,4 F,0,87156,87656,1,0 R,0,87702,,1.5708 MY,0,87702,,84 V,0,87702,,2,4 F,0,87702,88202,1,0
Sprite,Foreground,Centre,"sb\Lhighlight.png",320,0 F,0,0,,0 F,0,0,,0 F,0,0,,0 F,0,0,,0 F,0,0,,0 F,0,0,,0 F,0,0,,0 F,0,0,,0 F,0,0,,0 F,0,0,,0 F,0,0,,0 F,0,0,,0 F,0,0,,0 F,0,0,,0 F,0,0,,0 F,0,0,,0 F,0,0,,0 F,0,0,,0 F,0,0,,0 F,0,0,,0 F,0,0,,0 F,0,0,,0 F,0,0,,0 F,0,0,,0 F,0,0,,0 F,0,0,,0 F,0,0,,0 F,0,0,,0 F,0,0,,0 F,0,0,,0 F,0,0,,0 F,0,0,,0 F,0,0,,0 R,0,69839,,1.5708 MY,0,69839,,371 V,0,69839,,2,4 F,0,69839,70339,1,0 R,0,70520,,1.5708 MY,0,70520,,292 V,0,70520,,2,4 F,0,70520,71020,1,0 R,0,71065,,1.5708 MY,0,71065,,148 V,0,71065,,2,4 F,0,71065,71565,1,0 R,0,71611,,1.5708 MY,0,71611,,104 V,0,71611,,2,4 F,0,71611,72111,1,0 R,0,72156,,1.5708 MY,0,72156,,308 V,0,72156,,2,4 F,0,72156,72656,1,0 R,0,72702,,1.5708 MY,0,72702,,308 V,0,72702,,2,4 F,0,72702,73202,1,0 R,0,73247,,1.5708 MY,0,73247,,92 V,0,73247,,2,4 F,0,73247,73747,1,0 R,0,73793,,1.5708 MY,0,73793,,72 V,0,73793,,2,4 F,0,73793,74293,1,0 R,0,74338,,1.5708 MY,0,74338,,209 V,0,74338,,2,4 F,0,74338,74838,1,0 R,0,74884,,1.5708 MY,0,74884,,376 V,0,74884,,2,4 F,0,74884,75384,1,0 R,0,75429,,1.5708 MY,0,75429,,292 V,0,75429,,2,4 F,0,75429,75929,1,0 R,0,75974,,1.5708 MY,0,75974,,156 V,0,75974,,2,4 F,0,75974,76474,1,0 R,0,76520,,1.5708 MY,0,76520,,136 V,0,76520,,2,4 F,0,76520,77020,1,0 R,0,77065,,1.5708 MY,0,77065,,220 V,0,77065,,2,4 F,0,77065,77565,1,0 R,0,77611,,1.5708 MY,0,77611,,296 V,0,77611,,2,4 F,0,77611,78111,1,0 R,0,78156,,1.5708 MY,0,78156,,344 V,0,78156,,2,4 F,0,78156,78656,1,0 R,0,78702,,1.5708 MY,0,78702,,134 V,0,78702,,2,4 F,0,78702,79202,1,0 R,0,79246,,1.5708 MY,0,79246,,272 V,0,79246,,2,4 F,0,79246,79746,1,0 R,0,79793,,1.5708 MY,0,79793,,264 V,0,79793,,2,4 F,0,79793,80293,1,0 R,0,80337,,1.5708 MY,0,80337,,160 V,0,80337,,2,4 F,0,80337,80837,1,0 R,0,80884,,1.5708 MY,0,80884,,352 V,0,80884,,2,4 F,0,80884,81384,1,0 R,0,81428,,1.5708 MY,0,81428,,104 V,0,81428,,2,4 F,0,81428,81928,1,0 R,0,81973,,1.5708 MY,0,81973,,104 V,0,81973,,2,4 F,0,81973,82473,1,0 R,0,82519,,1.5708 MY,0,82519,,264 V,0,82519,,2,4 F,0,82519,83019,1,0 R,0,83065,,1.5708 MY,0,83065,,288 V,0,83065,,2,4 F,0,83065,83565,1,0 R,0,83610,,1.5708 MY,0,83610,,200 V,0,83610,,2,4 F,0,83610,84110,1,0 R,0,84156,,1.5708 MY,0,84156,,352 V,0,84156,,2,4 F,0,84156,84656,1,0 R,0,84702,,1.5708 MY,0,84702,,244 V,0,84702,,2,4 F,0,84702,85202,1,0 R,0,85247,,1.5708 MY,0,85247,,244 V,0,85247,,2,4 F,0,85247,85747,1,0 R,0,85793,,1.5708 MY,0,85793,,244 V,0,85793,,2,4 F,0,85793,86293,1,0 R,0,86337,,1.5708 MY,0,86337,,164 V,0,86337,,2,4 F,0,86337,86837,1,0 R,0,86884,,1.5708 MY,0,86884,,410 V,0,86884,,2,4 F,0,86884,87384,1,0 R,0,87429,,1.5708 MY,0,87429,,281 V,0,87429,,2,4 F,0,87429,87929,1,0
Sprite,Foreground,Centre,"sb\Lhighlight.png",320,0 F,0,0,,0 F,0,0,,0 F,0,0,,0 F,0,0,,0 F,0,0,,0 F,0,0,,0 F,0,0,,0 F,0,0,,0 F,0,0,,0 F,0,0,,0 F,0,0,,0 F,0,0,,0 F,0,0,,0 F,0,0,,0 F,0,0,,0 F,0,0,,0 F,0,0,,0 F,0,0,,0 F,0,0,,0 F,0,0,,0 F,0,0,,0 F,0,0,,0 R,0,69975,,1.5708 MY,0,69975,,299 V,0,69975,,2,4 F,0,69975,70475,1,0 R,0,70656,,1.5708 MY,0,70656,,148 V,0,70656,,2,4 F,0,70656,71156,1,0 R,0,71474,,1.5708 MY,0,71474,,152 V,0,71474,,2,4 F,0,71474,71974,1,0 R,0,72156,,1.5708 MY,0,72156,,308 V,0,72156,,2,4 F,0,72156,72656,1,0 R,0,73111,,1.5708 MY,0,73111,,148 V,0,73111,,2,4 F,0,73111,73611,1,0 R,0,74338,,1.5708 MY,0,74338,,209 V,0,74338,,2,4 F,0,74338,74838,1,0 R,0,74884,,1.5708 MY,0,74884,,376 V,0,74884,,2,4 F,0,74884,75384,1,0 R,0,75838,,1.5708 MY,0,75838,,272 V,0,75838,,2,4 F,0,75838,76338,1,0 R,0,76520,,1.5708 MY,0,76520,,136 V,0,76520,,2,4 F,0,76520,77020,1,0 R,0,77065,,1.5708 MY,0,77065,,220 V,0,77065,,2,4 F,0,77065,77565,1,0 R,0,77747,,1.5708 MY,0,77747,,432 V,0,77747,,2,4 F,0,77747,78247,1,0 R,0,78565,,1.5708 MY,0,78565,,272 V,0,78565,,2,4 F,0,78565,79065,1,0 R,0,79384,,1.5708 MY,0,79384,,384 V,0,79384,,2,4 F,0,79384,79884,1,0 R,0,80202,,1.5708 MY,0,80202,,184 V,0,80202,,2,4 F,0,80202,80702,1,0 R,0,80884,,1.5708 MY,0,80884,,352 V,0,80884,,2,4 F,0,80884,81384,1,0 R,0,81837,,1.5708 MY,0,81837,,220 V,0,81837,,2,4 F,0,81837,82337,1,0 R,0,83065,,1.5708 MY,0,83065,,288 V,0,83065,,2,4 F,0,83065,83565,1,0 R,0,84564,,1.5708 MY,0,84564,,288 V,0,84564,,2,4 F,0,84564,85064,1,0 R,0,85247,,1.5708 MY,0,85247,,244 V,0,85247,,2,4 F,0,85247,85747,1,0 R,0,85793,,1.5708 MY,0,85793,,244 V,0,85793,,2,4 F,0,85793,86293,1,0 R,0,86473,,1.5708 MY,0,86473,,87 V,0,86473,,2,4 F,0,86473,86973,1,0 R,0,87293,,1.5708 MY,0,87293,,440 V,0,87293,,2,4 F,0,87293,87793,1,0
Sprite,Foreground,Centre,"sb\Lhighlight.png",320,0 F,0,0,,0 F,0,0,,0 F,0,0,,0 F,0,0,,0 F,0,0,,0 F,0,0,,0 F,0,0,,0 F,0,0,,0 F,0,0,,0 F,0,0,,0 F,0,0,,0 F,0,0,,0 F,0,0,,0 F,0,0,,0 F,0,0,,0 F,0,0,,0 F,0,0,,0 F,0,0,,0 R,0,70111,,1.5708 MY,0,70111,,227 V,0,70111,,2,4 F,0,70111,70611,1,0 R,0,71747,,1.5708 MY,0,71747,,172 V,0,71747,,2,4 F,0,71747,72247,1,0 R,0,72256,,1.5708 MY,0,72256,,328 V,0,72256,,2,4 F,0,72256,72656,0.5,0 R,0,73384,,1.5708 MY,0,73384,,136 V,0,73384,,2,4 F,0,73384,73884,1,0 R,0,74358,,1.5708 MY,0,74358,,213 V,0,74358,,2,4 F,0,74358,74838,0.9,0 R,0,74904,,1.5708 MY,0,74904,,380 V,0,74904,,2,4 F,0,74904,75384,0.9,0 R,0,76111,,1.5708 MY,0,76111,,200 V,0,76111,,2,4 F,0,76111,76611,1,0 R,0,76620,,1.5708 MY,0,76620,,156 V,0,76620,,2,4 F,0,76620,77020,0.5,0 R,0,77085,,1.5708 MY,0,77085,,224 V,0,77085,,2,4 F,0,77085,77565,0.9,0 R,0,78702,,1.5708 MY,0,78702,,134 V,0,78702,,2,4 F,0,78702,79202,1,0 R,0,80473,,1.5708 MY,0,80473,,172 V,0,80473,,2,4 F,0,80473,80973,1,0 R,0,80984,,1.5708 MY,0,80984,,372 V,0,80984,,2,4 F,0,80984,81384,0.5,0 R,0,82110,,1.5708 MY,0,82110,,236 V,0,82110,,2,4 F,0,82110,82610,1,0 R,0,83085,,1.5708 MY,0,83085,,292 V,0,83085,,2,4 F,0,83085,83565,0.9,0 R,0,84837,,1.5708 MY,0,84837,,272 V,0,84837,,2,4 F,0,84837,85337,1,0 R,0,85347,,1.5708 MY,0,85347,,264 V,0,85347,,2,4 F,0,85347,85747,0.5,0 R,0,85813,,1.5708 MY,0,85813,,248 V,0,85813,,2,4 F,0,85813,86293,0.9,0 R,0,87429,,1.5708 MY,0,87429,,281 V,0,87429,,2,4 F,0,87429,87929,1,0
Sprite,Foreground,Centre,"sb\Lhighlight.png",320,0 F,0,0,,0 F,0,0,,0 F,0,0,,0 F,0,0,,0 F,0,0,,0 F,0,0,,0 F,0,0,,0 F,0,0,,0 F,0,0,,0 F,0,0,,0 F,0,0,,0 R,0,72176,,1.5708 MY,0,72176,,312 V,0,72176,,2,4 F,0,72176,72656,0.9,0 R,0,74378,,1.5708 MY,0,74378,,201 V,0,74378,,2,4 F,0,74378,74838,0.8,0 R,0,74924,,1.5708 MY,0,74924,,368 V,0,74924,,2,4 F,0,74924,75384,0.8,0 R,0,76540,,1.5708 MY,0,76540,,140 V,0,76540,,2,4 F,0,76540,77020,0.9,0 R,0,77105,,1.5708 MY,0,77105,,212 V,0,77105,,2,4 F,0,77105,77565,0.8,0 R,0,78722,,1.5708 MY,0,78722,,138 V,0,78722,,2,4 F,0,78722,79202,0.9,0 R,0,80904,,1.5708 MY,0,80904,,356 V,0,80904,,2,4 F,0,80904,81384,0.9,0 R,0,83105,,1.5708 MY,0,83105,,280 V,0,83105,,2,4 F,0,83105,83565,0.8,0 R,0,85267,,1.5708 MY,0,85267,,248 V,0,85267,,2,4 F,0,85267,85747,0.9,0 R,0,85833,,1.5708 MY,0,85833,,236 V,0,85833,,2,4 F,0,85833,86293,0.8,0 R,0,87449,,1.5708 MY,0,87449,,285 V,0,87449,,2,4 F,0,87449,87929,0.9,0
Sprite,Foreground,Centre,"sb\Lhighlight.png",320,0 F,0,0,,0 F,0,0,,0 F,0,0,,0 F,0,0,,0 F,0,0,,0 F,0,0,,0 F,0,0,,0 F,0,0,,0 F,0,0,,0 F,0,0,,0 F,0,0,,0 R,0,72196,,1.5708 MY,0,72196,,300 V,0,72196,,2,4 F,0,72196,72656,0.8,0 R,0,74398,,1.5708 MY,0,74398,,221 V,0,74398,,2,4 F,0,74398,74838,0.7,0 R,0,74944,,1.5708 MY,0,74944,,388 V,0,74944,,2,4 F,0,74944,75384,0.7,0 R,0,76560,,1.5708 MY,0,76560,,128 V,0,76560,,2,4 F,0,76560,77020,0.8,0 R,0,77125,,1.5708 MY,0,77125,,232 V,0,77125,,2,4 F,0,77125,77565,0.7,0 R,0,78742,,1.5708 MY,0,78742,,126 V,0,78742,,2,4 F,0,78742,79202,0.8,0 R,0,80924,,1.5708 MY,0,80924,,344 V,0,80924,,2,4 F,0,80924,81384,0.8,0 R,0,83125,,1.5708 MY,0,83125,,300 V,0,83125,,2,4 F,0,83125,83565,0.7,0 R,0,85287,,1.5708 MY,0,85287,,236 V,0,85287,,2,4 F,0,85287,85747,0.8,0 R,0,85853,,1.5708 MY,0,85853,,256 V,0,85853,,2,4 F,0,85853,86293,0.7,0 R,0,87469,,1.5708 MY,0,87469,,273 V,0,87469,,2,4 F,0,87469,87929,0.8,0
Sprite,Foreground,Centre,"sb\Lhighlight.png",320,0 F,0,0,,0 F,0,0,,0 F,0,0,,0 F,0,0,,0 F,0,0,,0 F,0,0,,0 F,0,0,,0 F,0,0,,0 F,0,0,,0 F,0,0,,0 F,0,0,,0 R,0,72216,,1.5708 MY,0,72216,,320 V,0,72216,,2,4 F,0,72216,72656,0.7,0 R,0,74418,,1.5708 MY,0,74418,,193 V,0,74418,,2,4 F,0,74418,74838,0.6,0 R,0,74964,,1.5708 MY,0,74964,,360 V,0,74964,,2,4 F,0,74964,75384,0.6,0 R,0,76580,,1.5708 MY,0,76580,,148 V,0,76580,,2,4 F,0,76580,77020,0.7,0 R,0,77145,,1.5708 MY,0,77145,,204 V,0,77145,,2,4 F,0,77145,77565,0.6,0 R,0,78762,,1.5708 MY,0,78762,,146 V,0,78762,,2,4 F,0,78762,79202,0.7,0 R,0,80944,,1.5708 MY,0,80944,,364 V,0,80944,,2,4 F,0,80944,81384,0.7,0 R,0,83145,,1.5708 MY,0,83145,,272 V,0,83145,,2,4 F,0,83145,83565,0.6,0 R,0,85307,,1.5708 MY,0,85307,,256 V,0,85307,,2,4 F,0,85307,85747,0.7,0 R,0,85873,,1.5708 MY,0,85873,,228 V,0,85873,,2,4 F,0,85873,86293,0.6,0 R,0,87489,,1.5708 MY,0,87489,,293 V,0,87489,,2,4 F,0,87489,87929,0.7,0
Sprite,Foreground,Centre,"sb\Lhighlight.png",320,0 F,0,0,,0 F,0,0,,0 F,0,0,,0 F,0,0,,0 F,0,0,,0 F,0,0,,0 F,0,0,,0 F,0,0,,0 F,0,0,,0 F,0,0,,0 F,0,0,,0 R,0,72236,,1.5708 MY,0,72236,,292 V,0,72236,,2,4 F,0,72236,72656,0.6,0 R,0,74438,,1.5708 MY,0,74438,,229 V,0,74438,,2,4 F,0,74438,74838,0.5,0 R,0,74984,,1.5708 MY,0,74984,,396 V,0,74984,,2,4 F,0,74984,75384,0.5,0 R,0,76600,,1.5708 MY,0,76600,,120 V,0,76600,,2,4 F,0,76600,77020,0.6,0 R,0,77165,,1.5708 MY,0,77165,,240 V,0,77165,,2,4 F,0,77165,77565,0.5,0 R,0,78782,,1.5708 MY,0,78782,,118 V,0,78782,,2,4 F,0,78782,79202,0.6,0 R,0,80964,,1.5708 MY,0,80964,,336 V,0,80964,,2,4 F,0,80964,81384,0.6,0 R,0,83165,,1.5708 MY,0,83165,,308 V,0,83165,,2,4 F,0,83165,83565,0.5,0 R,0,85327,,1.5708 MY,0,85327,,228 V,0,85327,,2,4 F,0,85327,85747,0.6,0 R,0,85893,,1.5708 MY,0,85893,,264 V,0,85893,,2,4 F,0,85893,86293,0.5,0 R,0,87509,,1.5708 MY,0,87509,,265 V,0,87509,,2,4 F,0,87509,87929,0.6,0
Sprite,Foreground,Centre,"sb\Lhighlight.png",320,0 F,0,0,,0 F,0,0,,0 F,0,0,,0 F,0,0,,0 F,0,0,,0 F,0,0,,0 F,0,0,,0 F,0,0,,0 F,0,0,,0 F,0,0,,0 F,0,0,,0 R,0,72276,,1.5708 MY,0,72276,,284 V,0,72276,,2,4 F,0,72276,72656,0.4,0 R,0,74458,,1.5708 MY,0,74458,,185 V,0,74458,,2,4 F,0,74458,74838,0.4,0 R,0,75004,,1.5708 MY,0,75004,,352 V,0,75004,,2,4 F,0,75004,75384,0.4,0 R,0,76640,,1.5708 MY,0,76640,,112 V,0,76640,,2,4 F,0,76640,77020,0.4,0 R,0,77185,,1.5708 MY,0,77185,,196 V,0,77185,,2,4 F,0,77185,77565,0.4,0 R,0,78802,,1.5708 MY,0,78802,,154 V,0,78802,,2,4 F,0,78802,79202,0.5,0 R,0,81004,,1.5708 MY,0,81004,,328 V,0,81004,,2,4 F,0,81004,81384,0.4,0 R,0,83185,,1.5708 MY,0,83185,,264 V,0,83185,,2,4 F,0,83185,83565,0.4,0 R,0,85367,,1.5708 MY,0,85367,,220 V,0,85367,,2,4 F,0,85367,85747,0.4,0 R,0,85913,,1.5708 MY,0,85913,,220 V,0,85913,,2,4 F,0,85913,86293,0.4,0 R,0,87529,,1.5708 MY,0,87529,,301 V,0,87529,,2,4 F,0,87529,87929,0.5,0
Sprite,Foreground,Centre,"sb\Lhighlight.png",320,0 F,0,0,,0 F,0,0,,0 F,0,0,,0 F,0,0,,0 F,0,0,,0 F,0,0,,0 F,0,0,,0 F,0,0,,0 F,0,0,,0 F,0,0,,0 F,0,0,,0 R,0,72296,,1.5708 MY,0,72296,,336 V,0,72296,,2,4 F,0,72296,72656,0.3,0 R,0,74478,,1.5708 MY,0,74478,,237 V,0,74478,,2,4 F,0,74478,74838,0.3,0 R,0,75024,,1.5708 MY,0,75024,,404 V,0,75024,,2,4 F,0,75024,75384,0.3,0 R,0,76660,,1.5708 MY,0,76660,,164 V,0,76660,,2,4 F,0,76660,77020,0.3,0 R,0,77205,,1.5708 MY,0,77205,,248 V,0,77205,,2,4 F,0,77205,77565,0.3,0 R,0,78822,,1.5708 MY,0,78822,,110 V,0,78822,,2,4 F,0,78822,79202,0.4,0 R,0,81024,,1.5708 MY,0,81024,,380 V,0,81024,,2,4 F,0,81024,81384,0.3,0 R,0,83205,,1.5708 MY,0,83205,,316 V,0,83205,,2,4 F,0,83205,83565,0.3,0 R,0,85387,,1.5708 MY,0,85387,,272 V,0,85387,,2,4 F,0,85387,85747,0.3,0 R,0,85933,,1.5708 MY,0,85933,,272 V,0,85933,,2,4 F,0,85933,86293,0.3,0 R,0,87549,,1.5708 MY,0,87549,,257 V,0,87549,,2,4 F,0,87549,87929,0.4,0
Sprite,Foreground,Centre,"sb\Lhighlight.png",320,0 F,0,0,,0 F,0,0,,0 F,0,0,,0 F,0,0,,0 F,0,0,,0 F,0,0,,0 F,0,0,,0 F,0,0,,0 F,0,0,,0 F,0,0,,0 F,0,0,,0 R,0,72316,,1.5708 MY,0,72316,,276 V,0,72316,,2,4 F,0,72316,72656,0.2,0 R,0,74498,,1.5708 MY,0,74498,,177 V,0,74498,,2,4 F,0,74498,74838,0.2,0 R,0,75044,,1.5708 MY,0,75044,,344 V,0,75044,,2,4 F,0,75044,75384,0.2,0 R,0,76680,,1.5708 MY,0,76680,,104 V,0,76680,,2,4 F,0,76680,77020,0.2,0 R,0,77225,,1.5708 MY,0,77225,,188 V,0,77225,,2,4 F,0,77225,77565,0.2,0 R,0,78842,,1.5708 MY,0,78842,,162 V,0,78842,,2,4 F,0,78842,79202,0.3,0 R,0,81044,,1.5708 MY,0,81044,,320 V,0,81044,,2,4 F,0,81044,81384,0.2,0 R,0,83225,,1.5708 MY,0,83225,,256 V,0,83225,,2,4 F,0,83225,83565,0.2,0 R,0,85407,,1.5708 MY,0,85407,,212 V,0,85407,,2,4 F,0,85407,85747,0.2,0 R,0,85953,,1.5708 MY,0,85953,,212 V,0,85953,,2,4 F,0,85953,86293,0.2,0 R,0,87569,,1.5708 MY,0,87569,,309 V,0,87569,,2,4 F,0,87569,87929,0.3,0
Sprite,Foreground,Centre,"sb\Lhighlight.png",320,0 F,0,0,,0 F,0,0,,0 F,0,0,,0 F,0,0,,0 F,0,0,,0 F,0,0,,0 F,0,0,,0 F,0,0,,0 F,0,0,,0 F,0,0,,0 F,0,0,,0 R,0,72336,,1.5708 MY,0,72336,,344 V,0,72336,,2,4 F,0,72336,72656,0.1,0 R,0,74518,,1.5708 MY,0,74518,,245 V,0,74518,,2,4 F,0,74518,74838,0.1,0 R,0,75064,,1.5708 MY,0,75064,,412 V,0,75064,,2,4 F,0,75064,75384,0.1,0 R,0,76700,,1.5708 MY,0,76700,,172 V,0,76700,,2,4 F,0,76700,77020,0.1,0 R,0,77245,,1.5708 MY,0,77245,,256 V,0,77245,,2,4 F,0,77245,77565,0.1,0 R,0,78862,,1.5708 MY,0,78862,,102 V,0,78862,,2,4 F,0,78862,79202,0.2,0 R,0,81064,,1.5708 MY,0,81064,,388 V,0,81064,,2,4 F,0,81064,81384,0.1,0 R,0,83245,,1.5708 MY,0,83245,,324 V,0,83245,,2,4 F,0,83245,83565,0.1,0 R,0,85427,,1.5708 MY,0,85427,,280 V,0,85427,,2,4 F,0,85427,85747,0.1,0 R,0,85973,,1.5708 MY,0,85973,,280 V,0,85973,,2,4 F,0,85973,86293,0.1,0 R,0,87589,,1.5708 MY,0,87589,,249 V,0,87589,,2,4 F,0,87589,87929,0.2,0
Sprite,Foreground,Centre,"sb\Lhighlight.png",320,0 F,0,0,,0 F,0,0,,0 F,0,0,,0 F,0,0,,0 F,0,0,,0 F,0,0,,0 R,0,74747,,1.5708 MY,0,74747,,276 V,0,74747,,2,4 F,0,74747,75247,1,0 R,0,77474,,1.5708 MY,0,77474,,359 V,0,77474,,2,4 F,0,77474,77974,1,0 R,0,78882,,1.5708 MY,0,78882,,170 V,0,78882,,2,4 F,0,78882,79202,0.1,0 R,0,83473,,1.5708 MY,0,83473,,120 V,0,83473,,2,4 F,0,83473,83973,1,0 R,0,86202,,1.5708 MY,0,86202,,209 V,0,86202,,2,4 F,0,86202,86702,1,0 R,0,87609,,1.5708 MY,0,87609,,317 V,0,87609,,2,4 F,0,87609,87929,0.1,0
//Storyboard Sound Samples

[TimingPoints]
454,545.454545454546,4,2,1,40,1,0
454,-125,4,2,1,40,0,0
4817,-125,4,2,1,40,0,0
17884,545.454545454546,4,2,1,60,1,0
17884,-100,4,2,1,60,0,0
35338,-66.6666666666667,4,2,1,90,0,1
35474,-66.6666666666667,4,2,1,90,0,0
52793,-100,4,2,1,90,0,0
54974,-66.6666666666667,4,2,1,90,0,1
55111,-66.6666666666667,4,2,1,90,0,0
69702,-76.9230769230769,4,2,1,90,0,0
70247,-55.5555555555556,4,1,2,80,0,1
70316,-55.5555555555556,4,2,1,100,0,1
72430,-55.5555555555556,4,1,2,80,0,1
72498,-55.5555555555556,4,2,1,100,0,1
74611,-55.5555555555556,4,1,2,80,0,1
74679,-55.5555555555556,4,2,1,100,0,1
76793,-55.5555555555556,4,1,2,80,0,1
76861,-55.5555555555556,4,2,1,100,0,1
77339,-55.5555555555556,4,1,2,80,0,1
77407,-55.5555555555556,4,2,1,100,0,1
77884,-55.5555555555556,4,1,2,80,0,1
77952,-55.5555555555556,4,2,1,100,0,1
78430,-55.5555555555556,4,1,2,80,0,1
78498,-55.5555555555556,4,2,1,100,0,1
78975,-55.5555555555556,4,1,2,80,0,1
79043,-55.5555555555556,4,2,1,100,0,1
81157,-55.5555555555556,4,1,2,80,0,1
81225,-55.5555555555556,4,2,1,100,0,1
83339,-55.5555555555556,4,1,2,80,0,1
83407,-55.5555555555556,4,2,1,100,0,1
85520,-55.5555555555556,4,1,2,80,0,1
85588,-55.5555555555556,4,2,1,100,0,1
86066,-55.5555555555556,4,1,2,80,0,1
86134,-55.5555555555556,4,2,1,100,0,1
86611,-55.5555555555556,4,1,2,80,0,1
86679,-55.5555555555556,4,2,1,100,0,1
87157,-55.5555555555556,4,1,2,80,0,1
87225,-55.5555555555556,4,2,1,100,0,1
87702,-125,4,2,1,40,0,0

[Colours]
Combo1 : 14,147,154
Combo2 : 0,65,130
Combo3 : 102,151,253
Combo4 : 141,224,245

[HitObjects]
140,304,454,5,2,0:3:0:0:
140,304,999,1,0,0:0:0:0:
212,340,1272,2,0,B|268:324|268:324|315:338|392:340,1,180,2|0,0:0|0:0,0:0:0:0:
476,236,2635,5,2,0:3:0:0:
476,236,3181,1,2,0:3:0:0:
400,212,3454,2,0,P|360:136|384:20,1,180,2|0,0:0|0:0,0:0:0:0:
292,224,4817,5,2,0:3:0:0:
292,224,5363,1,0,0:0:0:0:
232,172,5635,2,0,L|104:168,1,120,2|0,0:0|0:0,0:0:0:0:
40,200,6454,1,0,0:0:0:0:
0,272,6726,1,0,0:0:0:0:
40,344,6999,5,2,0:3:0:0:
40,344,7544,1,0,0:0:0:0:
100,292,7817,2,0,P|156:280|220:292,1,120,2|0,0:0|0:0,0:0:0:0:
288,328,8635,1,0,0:0:0:0:
365,299,8908,1,0,0:0:0:0:
332,168,9181,5,2,0:3:0:0:
332,168,9726,1,0,0:0:0:0:
264,124,9999,2,0,B|224:120|200:108|200:108|176:116|176:116|136:100|88:112,1,180,2|0,0:0|0:0,0:0:0:0:
56,292,11363,5,2,0:3:0:0:
56,292,11908,1,2,0:3:0:0:
128,252,12181,2,0,P|152:176|120:80,1,180,2|0,0:0|0:0,0:0:0:0:
228,40,13544,5,2,0:3:0:0:
228,40,14090,1,0,0:0:0:0:
292,88,14363,2,0,P|352:92|416:80,1,120,2|0,0:0|0:0,0:0:0:0:
488,48,15181,1,0,0:0:0:0:
512,128,15454,1,0,0:0:0:0:
432,248,15726,5,2,0:3:0:0:
432,248,16272,1,0,0:0:0:0:
364,296,16544,2,0,L|228:288,1,120,2|0,0:0|0:0,0:0:0:0:
176,244,17363,1,0,0:0:0:0:
204,164,17635,1,0,0:0:0:0:
152,360,17884,6,0,B|200:368|200:368|264:359,1,112.5,6|0,0:0|0:0,0:0:0:0:
384,280,18430,2,0,L|388:232,2,37.5,4|2|2,0:0|0:0|0:0,0:0:0:0:
248,180,18975,2,0,L|252:228,2,37.5,4|0|0,0:0|0:0|0:0,0:0:0:0:
400,96,19520,2,0,L|403:59,2,37.5,4|0|0,0:0|0:0|0:0,0:0:0:0:
248,180,20066,6,0,P|184:188|120:180,1,112.5,6|0,0:0|0:0,0:0:0:0:
64,68,20611,2,0,L|68:24,2,37.5,6|2|2,0:0|0:0|0:0,0:0:0:0:
20,168,21157,2,0,L|23:205,2,37.5,4|0|0,0:0|0:0|0:0,0:0:0:0:
144,224,21702,2,0,L|140:261,2,37.5,4|0|0,0:0|0:0|0:0,0:0:0:0:
84,348,22248,6,0,L|196:340,1,112.5,6|0,0:0|0:0,0:0:0:0:
308,288,22793,2,0,L|348:292,2,37.5,6|2|2,0:0|0:0|0:0,0:0:0:0:
428,188,23339,2,0,L|424:148,2,37.5,4|0|0,0:0|0:0|0:0,0:0:0:0:
316,72,23884,2,0,L|278:75,2,37.5,6|0|2,0:0|0:0|0:0,0:0:0:0:
109,127,24430,6,0,L|221:137,1,112.5,6|0,0:0|0:0,0:0:0:0:
309,49,24975,2,0,L|305:5,2,37.5,6|2|2,0:0|0:0|0:0,0:0:0:0:
221,137,25520,2,0,L|217:181,2,37.5,4|0|0,0:0|0:0|0:0,0:0:0:0:
371,192,26066,2,0,L|375:232,2,37.5,6|0|2,0:0|0:0|0:0,0:0:0:0:
288,320,26611,6,0,L|168:312,1,112.5,6|0,0:0|0:0,0:0:0:0:
80,216,27157,2,0,L|76:176,2,37.5,6|2|2,0:0|0:0|0:0,0:0:0:0:
28,328,27702,2,0,L|24:365,2,37.5,4|0|0,0:0|0:0|0:0,0:0:0:0:
167,275,28248,2,0,L|179:327,2,37.5,4|0|0,0:0|0:0|0:0,0:0:0:0:
336,220,28793,6,0,L|328:100,1,112.5,6|0,0:0|0:0,0:0:0:0:
216,36,29339,2,0,L|180:28,2,37.5,6|2|2,0:0|0:0|0:0,0:0:0:0:
328,107,29884,2,0,L|365:102,2,37.5,4|0|0,0:0|0:0|0:0,0:0:0:0:
193,167,30430,2,0,L|157:159,2,37.5,4|0|0,0:0|0:0|0:0,0:0:0:0:
354,269,30975,6,0,L|472:258,1,112.5,6|0,0:0|0:0,0:0:0:0:
304,196,31520,2,0,L|312:144,2,37.5,6|2|2,0:0|0:0|0:0,0:0:0:0:
228,332,32066,2,0,L|233:369,2,37.5,4|0|0,0:0|0:0|0:0,0:0:0:0:
144,196,32611,2,0,L|148:156,2,37.5,6|0|2,0:0|0:0|0:0,0:0:0:0:
22,329,33157,6,0,L|35:216,1,112.5,6|0,0:0|0:0,0:0:0:0:
92,99,33702,2,0,L|96:59,2,37.5,6|2|2,0:0|0:0|0:0,0:0:0:0:
120,230,34248,2,0,L|116:269,2,37.5,4|0|0,0:0|0:0|0:0,0:0:0:0:
223,93,34793,5,8,0:1:0:0:
60,280,35339,6,0,L|175:271,1,112.500004291535,6|0,0:1|0:0,0:0:0:0:
313,299,35884,2,0,L|320:357,1,56.2500021457673,8|0,0:1|0:0,0:0:0:0:
247,231,36156,2,0,L|253:175,1,56.2500021457673,0|0,0:0|0:0,0:0:0:0:
356,65,36429,2,0,L|467:50,2,112.500004291535,2|0|8,0:1|0:0|0:1,0:0:0:0:
438,175,37247,1,0,0:0:0:0:
247,231,37520,6,0,L|125:223,1,112.500004291535,6|0,0:1|0:0,0:0:0:0:
28,102,38065,1,8,0:1:0:0:
48,191,38202,1,0,0:0:0:0:
109,111,38338,2,0,L|103:47,1,56.2500021457673,0|0,0:0|0:0,0:0:0:0:
252,174,38611,2,0,L|246:230,1,56.2500021457673,2|0,0:1|0:0,0:0:0:0:
188,300,38884,2,0,L|193:356,1,56.2500021457673,0|0,0:0|0:0,0:0:0:0:
48,191,39156,2,0,L|160:180,1,112.500004291535,8|0,0:1|0:0,0:0:0:0:
193,356,39702,6,0,L|81:345,1,112.500004291535,6|0,0:1|0:0,0:0:0:0:
240,256,40247,1,8,0:1:0:0:
296,340,40384,1,0,0:0:0:0:
232,272,40520,2,0,L|238:211,1,56.2500021457673,0|0,0:0|0:0,0:0:0:0:
295,36,40793,2,0,L|300:91,1,56.2500021457673,2|0,0:1|0:0,0:0:0:0:
378,144,41065,2,0,L|383:199,1,56.2500021457673,0|0,0:0|0:0,0:0:0:0:
512,50,41338,2,0,L|397:40,1,112.500004291535,8|0,0:1|0:0,0:0:0:0:
298,221,41884,6,0,P|324:265|388:287,1,112.500004291535,6|0,0:1|0:0,0:0:0:0:
378,144,42429,1,8,0:1:0:0:
362,56,42565,1,0,0:0:0:0:
451,90,42702,2,0,P|463:116|472:155,1,56.2500021457673,0|0,0:0|0:0,0:0:0:0:
379,287,42974,2,0,L|374:226,1,56.2500021457673,2|0,0:1|0:0,0:0:0:0:
473,303,43247,2,0,L|468:359,1,56.2500021457673,0|0,0:0|0:0,0:0:0:0:
286,234,43520,2,0,P|315:165|356:145,1,112.500004291535,8|0,0:1|0:0,0:0:0:0:
280,352,44065,6,0,L|164:356,1,112.500004291535,6|0,0:1|0:0,0:0:0:0:
76,208,44611,1,8,0:1:0:0:
161,243,44747,1,0,0:0:0:0:
88,300,44884,2,0,P|64:300|20:284,1,56.2500021457673,0|0,0:0|0:0,0:0:0:0:
208,118,45156,2,0,L|216:178,1,56.2500021457673,2|0,0:1|0:0,0:0:0:0:
129,98,45429,2,0,L|136:42,1,56.2500021457673,0|0,0:0|0:0,0:0:0:0:
279,19,45702,2,0,L|391:26,1,112.500004291535,8|0,0:1|0:0,0:0:0:0:
428,176,46247,6,0,L|420:288,1,112.500004291535,6|0,0:1|0:0,0:0:0:0:
267,147,46793,1,8,0:1:0:0:
317,226,46929,1,0,0:0:0:0:
359,149,47065,2,0,P|354:121|343:95,1,56.2500021457673,0|0,0:0|0:0,0:0:0:0:
380,295,47338,2,0,L|383:351,1,56.2500021457673,2|0,0:1|0:0,0:0:0:0:
456,192,47611,2,0,L|452:248,1,56.2500021457673,0|0,0:0|0:0,0:0:0:0:
343,95,47884,2,0,P|389:62|460:43,1,112.500004291535,8|0,0:1|0:0,0:0:0:0:
340,268,48429,6,0,L|224:260,1,112.500004291535,6|0,0:1|0:0,0:0:0:0:
128,88,48974,1,8,0:1:0:0:
65,143,49111,1,0,0:0:0:0:
140,104,49247,2,0,L|136:40,1,56.2500021457673,0|0,0:0|0:0,0:0:0:0:
198,195,49520,2,0,P|170:207|142:211,1,56.2500021457673,2|0,0:1|0:0,0:0:0:0:
220,115,49793,2,0,P|247:119|273:130,1,56.2500021457673,0|0,0:0|0:0,0:0:0:0:
372,224,50065,2,0,L|368:288,1,56.2500021457673,8|0,0:1|0:0,0:0:0:0:
452,201,50338,2,0,L|448:144,1,56.2500021457673,0|0,0:0|0:0,0:0:0:0:
384,364,50611,6,0,P|320:352|288:312,1,112.500004291535,6|0,0:1|0:0,0:0:0:0:
348,104,51156,1,8,0:1:0:0:
324,195,51293,1,0,0:0:0:0:
260,116,51429,2,0,P|260:92|268:60,1,56.2500021457673,0|0,0:0|0:0,0:0:0:0:
432,116,51702,2,0,L|440:184,1,56.2500021457673,2|0,0:1|0:0,0:0:0:0:
365,279,51974,2,0,L|371:223,1,56.2500021457673,0|0,0:0|0:0,0:0:0:0:
484,356,52247,2,0,L|428:349,1,56.2500021457673,8|0,0:1|0:1,0:0:0:0:
353,291,52520,2,0,L|297:297,1,56.2500021457673,0|0,0:1|0:1,0:0:0:0:
192,360,52793,5,6,0:1:0:0:
192,360,53338,1,2,0:0:0:0:
200,269,53474,1,2,0:0:0:0:
159,188,53611,2,0,P|112:244|123:316,1,150,2|0,0:0|0:0,0:0:0:0:
284,368,54429,1,8,0:1:0:0:
370,223,54974,6,0,L|364:139,1,56.2500021457673,6|2,0:1|0:0,0:0:0:0:
318,311,55247,1,2,0:0:0:0:
450,262,55384,1,2,0:0:0:0:
335,336,55520,2,0,L|275:329,1,56.2500021457673,10|2,0:1|0:0,0:0:0:0:
435,281,55793,2,0,L|495:274,1,56.2500021457673,2|0,0:0|0:0,0:0:0:0:
365,166,56065,2,0,L|305:159,1,56.2500021457673,2|0,0:1|0:0,0:0:0:0:
390,52,56338,2,0,L|450:45,1,56.2500021457673,0|0,0:0|0:0,0:0:0:0:
220,117,56611,2,0,P|213:166|248:234,1,112.500004291535,8|0,0:1|0:0,0:0:0:0:
296,33,57156,5,6,0:1:0:0:
309,159,57293,1,2,0:0:0:0:
216,104,57429,1,2,0:0:0:0:
338,140,57565,1,2,0:0:0:0:
236,222,57702,2,0,L|168:217,1,56.2500021457673,10|2,0:1|0:0,0:0:0:0:
300,311,57974,2,0,L|368:306,1,56.2500021457673,2|0,0:0|0:0,0:0:0:0:
338,140,58247,2,0,L|343:208,1,56.2500021457673,2|0,0:1|0:0,0:0:0:0:
236,222,58520,2,0,L|240:165,1,56.2500021457673,0|0,0:0|0:0,0:0:0:0:
109,286,58793,2,0,P|79:278|54:275,1,56.2500021457673,10|0,0:1|0:0,0:0:0:0:
165,356,59065,2,0,P|191:347|219:344,1,56.2500021457673,2|0,0:0|0:0,0:0:0:0:
32,364,59338,5,6,0:1:0:0:
97,188,59474,1,2,0:0:0:0:
109,286,59611,1,2,0:0:0:0:
68,174,59747,1,2,0:0:0:0:
196,215,59884,2,0,L|267:209,1,56.2500021457673,10|2,0:1|0:0,0:0:0:0:
372,155,60156,2,0,L|301:149,1,56.2500021457673,2|0,0:0|0:0,0:0:0:0:
311,275,60429,2,0,L|422:286,1,112.500004291535,2|0,0:1|0:0,0:0:0:0:
252,210,60974,2,0,P|235:232|225:262,1,56.2500021457673,10|0,0:1|0:0,0:0:0:0:
315,150,61247,2,0,P|305:123|288:101,1,56.2500021457673,2|0,0:0|0:0,0:0:0:0:
401,190,61520,6,0,L|512:179,1,112.500004291535,6|0,0:1|0:0,0:0:0:0:
344,105,62065,2,0,L|287:101,1,56.2500021457673,10|2,0:1|0:0,0:0:0:0:
419,58,62338,2,0,L|476:54,1,56.2500021457673,2|0,0:0|0:0,0:0:0:0:
230,22,62610,2,0,P|200:69|199:125,2,112.500004291535,2|0|8,0:1|0:0|0:1,0:0:0:0:
315,189,63429,1,0,0:0:0:0:
452,235,63702,6,0,L|456:161,1,56.2500021457673,6|2,0:1|0:0,0:0:0:0:
468,340,63974,1,2,0:0:0:0:
339,282,64111,1,2,0:0:0:0:
449,356,64247,2,0,L|508:352,1,56.2500021457673,8|2,0:1|0:0,0:0:0:0:
350,302,64520,2,0,L|291:298,1,56.2500021457673,2|0,0:0|0:0,0:0:0:0:
455,178,64793,2,0,L|452:235,1,56.2500021457673,2|0,0:1|0:0,0:0:0:0:
355,116,65065,2,0,L|358:172,1,56.2500021457673,0|0,0:0|0:0,0:0:0:0:
438,78,65338,2,0,P|401:39|341:26,1,112.500004291535,8|0,0:1|0:0,0:0:0:0:
185,180,65884,6,0,L|190:246,1,56.2500021457673,6|2,0:1|0:0,0:0:0:0:
148,364,66156,1,2,0:0:0:0:
105,265,66293,1,2,0:0:0:0:
243,319,66429,2,0,P|272:318|311:306,1,56.2500021457673,8|0,0:1|0:0,0:0:0:0:
241,189,66702,2,0,P|213:182|185:181,1,56.2500021457673,2|0,0:0|0:0,0:0:0:0:
329,82,66974,2,0,L|394:74,1,56.2500021457673,2|0,0:1|0:0,0:0:0:0:
254,23,67247,2,0,L|189:15,1,56.2500021457673,0|0,0:0|0:0,0:0:0:0:
329,82,67520,2,0,P|344:109|350:136,1,56.2500021457673,10|0,0:1|0:0,0:0:0:0:
241,189,67793,2,0,P|247:161|261:137,1,56.2500021457673,2|0,0:0|0:0,0:0:0:0:
274,325,68065,5,6,0:1:0:0:
204,266,68202,1,2,0:0:0:0:
261,355,68338,1,2,0:0:0:0:
317,244,68474,1,2,0:0:0:0:
180,255,68611,2,0,L|109:259,1,56.2500021457673,10|2,0:1|0:0,0:0:0:0:
333,231,68884,2,0,L|389:234,1,56.2500021457673,2|0,0:0|0:0,0:0:0:0:
260,137,69156,1,2,0:1:0:0:
306,343,69702,5,6,0:0:0:0:
234,315,69839,1,2,0:0:0:0:
206,243,69975,1,2,0:0:0:0:
234,171,70111,1,2,0:0:0:0:
302,131,70248,6,0,L|377:126,1,67.4999979400635,6|0,0:1|0:0,0:0:0:0:
512,236,70520,1,2,0:0:0:0:
508,92,70656,1,0,0:0:0:0:
452,172,70793,2,0,P|433:203|424:243,1,67.4999979400635,8|0,0:1|0:0,0:0:0:0:
508,92,71065,2,0,P|499:59|481:31,1,67.4999979400635,2|0,0:0|0:0,0:0:0:0:
336,60,71338,5,2,3:1:0:0:
428,96,71474,1,0,0:0:0:0:
324,48,71611,1,2,0:0:0:0:
432,116,71747,1,0,0:0:0:0:
308,192,71884,2,0,L|234:186,1,67.4999979400635,8|0,0:1|0:0,0:0:0:0:
400,252,72156,2,0,P|434:247|474:246,1,67.4999979400635,2|0,0:0|0:0,0:0:0:0:
280,304,72429,6,0,L|274:373,1,67.4999979400635,2|0,0:1|0:0,0:0:0:0:
400,252,72702,2,0,L|394:184,1,67.4999979400635,2|0,0:0|0:0,0:0:0:0:
328,24,72974,1,8,0:1:0:0:
408,92,73111,1,0,0:0:0:0:
304,36,73247,1,2,0:0:0:0:
432,80,73384,1,0,0:0:0:0:
316,160,73520,6,0,L|247:153,1,67.4999979400635,2|0,3:1|0:0,0:0:0:0:
136,16,73793,2,0,L|205:9,1,67.4999979400635,2|0,0:0|0:0,0:0:0:0:
112,164,74065,2,0,L|105:233,1,67.4999979400635,8|0,0:1|0:0,0:0:0:0:
248,153,74338,2,0,P|247:123|240:87,1,67.4999979400635,2|0,0:0|0:0,0:0:0:0:
336,248,74611,5,6,0:1:0:0:
188,220,74747,1,0,0:0:0:0:
284,320,74884,2,0,P|297:349|303:393,1,67.4999979400635,2|0,0:0|0:0,0:0:0:0:
348,232,75156,2,0,L|420:224,1,67.4999979400635,8|0,0:1|0:0,0:0:0:0:
176,236,75429,2,0,L|104:228,1,67.4999979400635,2|0,0:0|0:0,0:0:0:0:
280,120,75702,5,2,3:1:0:0:
256,216,75838,1,0,0:0:0:0:
304,100,75974,1,2,0:0:0:0:
180,144,76111,1,0,0:0:0:0:
340,208,76247,2,0,L|408:204,1,67.4999979400635,8|0,0:1|0:0,0:0:0:0:
288,80,76520,2,0,P|251:76|220:76,1,67.4999979400635,2|0,0:0|0:0,0:0:0:0:
44,136,76793,6,0,L|48:68,1,67.4999979400635,6|0,0:1|0:0,0:0:0:0:
156,164,77065,2,0,L|160:232,1,67.4999979400635,2|0,0:0|0:0,0:0:0:0:
52,384,77338,1,10,0:1:0:0:
232,303,77474,1,0,0:0:0:0:
60,240,77611,1,2,0:0:0:0:
147,376,77747,1,0,0:0:0:0:
248,216,77884,6,0,L|244:148,1,67.4999979400635,2|0,0:1|0:0,0:0:0:0:
328,288,78156,2,0,L|324:356,1,67.4999979400635,2|0,0:0|0:0,0:0:0:0:
382,118,78429,1,10,0:1:0:0:
248,216,78565,1,0,0:0:0:0:
176,78,78702,2,0,P|177:40|182:-2,1,67.4999979400635,2|0,0:0|0:0,0:0:0:0:
144,244,78974,6,0,L|139:319,1,67.4999979400635,2|0,0:1|0:0,0:0:0:0:
8,216,79246,1,2,0:0:0:0:
40,328,79384,1,0,0:0:0:0:
88,172,79520,2,0,L|83:97,1,67.4999979400635,8|0,0:1|0:0,0:0:0:0:
180,208,79793,2,0,L|175:275,1,67.4999979400635,2|0,0:0|0:0,0:0:0:0:
312,96,80064,5,2,3:1:0:0:
208,128,80202,1,0,0:0:0:0:
320,104,80337,1,2,0:0:0:0:
192,116,80473,1,0,0:0:0:0:
304,212,80610,2,0,L|371:206,1,67.4999979400635,8|0,0:1|0:0,0:0:0:0:
224,296,80884,2,0,P|219:329|217:363,1,67.4999979400635,2|0,0:0|0:0,0:0:0:0:
104,232,81156,6,0,L|98:163,1,67.4999979400635,6|0,0:1|0:0,0:0:0:0:
197,48,81428,2,0,L|191:116,1,67.4999979400635,2|0,0:0|0:0,0:0:0:0:
64,64,81702,1,8,0:1:0:0:
98,164,81837,1,0,0:0:0:0:
80,48,81973,1,2,0:0:0:0:
80,180,82110,1,0,0:0:0:0:
208,104,82247,6,0,L|277:97,1,67.4999979400635,2|0,3:1|0:0,0:0:0:0:
160,208,82519,2,0,L|91:201,1,67.4999979400635,2|0,0:0|0:0,0:0:0:0:
248,292,82793,2,0,L|241:361,1,67.4999979400635,8|0,0:1|0:0,0:0:0:0:
320,232,83065,2,0,P|319:202|312:166,1,67.4999979400635,2|0,0:0|0:0,0:0:0:0:
200,36,83337,5,6,0:1:0:0:
328,64,83473,1,0,0:0:0:0:
212,144,83610,2,0,L|135:136,1,67.4999979400635,2|0,0:0|0:0,0:0:0:0:
320,232,83884,2,0,L|387:225,1,67.4999979400635,8|0,0:1|0:0,0:0:0:0:
220,296,84156,2,0,P|212:331|208:364,1,67.4999979400635,2|0,0:0|0:0,0:0:0:0:
224,176,84428,5,2,3:1:0:0:
320,232,84564,1,0,0:0:0:0:
204,188,84702,1,2,0:0:0:0:
336,216,84837,1,0,0:0:0:0:
184,320,84974,2,0,P|144:316|116:308,1,67.4999979400635,8|0,0:1|0:0,0:0:0:0:
196,188,85247,2,0,P|233:184|264:184,1,67.4999979400635,2|0,0:0|0:0,0:0:0:0:
72,108,85519,6,0,L|68:40,1,67.4999979400635,6|0,0:1|0:0,0:0:0:0:
196,188,85793,2,0,L|200:256,1,67.4999979400635,2|0,0:0|0:0,0:0:0:0:
168,40,86064,1,10,0:1:0:0:
295,153,86202,1,0,0:0:0:0:
72,108,86337,1,2,0:0:0:0:
297,31,86473,1,0,0:0:0:0:
144,208,86610,6,0,L|76:204,1,67.4999979400635,2|0,0:1|0:0,0:0:0:0:
212,354,86884,2,0,L|280:350,1,67.4999979400635,2|0,0:0|0:0,0:0:0:0:
42,282,87156,1,10,0:1:0:0:
128,384,87293,1,0,0:0:0:0:
237,225,87429,2,0,P|233:191|225:158,1,67.4999979400635,2|0,0:0|0:0,0:0:0:0:
101,28,87702,5,4,0:2:0:0:
101,28,88247,1,0,0:0:0:0:
174,76,88520,2,0,B|238:64|238:64|290:72|290:72|366:60,1,180,2|0,0:0|0:0,0:0:0:0:
437,84,89883,5,4,0:0:0:0:
437,84,90429,1,0,0:0:0:0:
482,156,90702,2,0,B|490:228|490:228|486:272|486:272|494:308|490:340,1,180,2|0,0:0|0:0,0:0:0:0:
418,378,91793,1,0,0:0:0:0:
349,336,92065,5,4,0:0:0:0:
349,336,92611,1,0,0:0:0:0:
279,292,92884,2,0,L|99:303,1,180,2|0,0:0|0:0,0:0:0:0:
28,260,93974,1,0,2:0:0:0:
59,181,94247,5,4,0:0:0:0:
59,181,94792,1,0,0:0:0:0:
28,260,95066,1,0,0:0:0:0:
