osu file format v14

[General]
AudioFilename: audio.mp3
AudioLeadIn: 0
PreviewTime: 69702
Countdown: 0
SampleSet: Soft
StackLeniency: 0.7
Mode: 0
LetterboxInBreaks: 0
EpilepsyWarning: 1
WidescreenStoryboard: 1

[Editor]
DistanceSpacing: 1.4
BeatDivisor: 4
GridSize: 4
TimelineZoom: 1.3

[Metadata]
Title:ILY
TitleUnicode:ILY
Artist:Panda Eyes
ArtistUnicode:Panda Eyes
Creator:M a r v o l l o
Version:Light Insane
Source:
Tags:shmiklak marvollo m_a_r_v_o_l_l_o fanteer drumstep Dnb Melodic Electro Dubstep harmonic war ep namki smau5
BeatmapID:1464026
BeatmapSetID:653534

[Difficulty]
HPDrainRate:6
CircleSize:4
OverallDifficulty:7
ApproachRate:8.5
SliderMultiplier:1.5
SliderTickRate:1

[Events]
//Background and Video events
0,0,"wallhaven-294805.jpeg",0,0
//Break Periods
//Storyboard Layer 0 (Background)
//Storyboard Layer 1 (Fail)
//Storyboard Layer 2 (Pass)
//Storyboard Layer 3 (Foreground)
Sprite,Foreground,Centre,"sb\ring.png",0,0 M,0,454,,117,104 F,0,454,,1 C,0,454,,255,255,255 S,7,454,2454,0.25,1.5 F,0,455,2455,1,0 M,0,2635,,527,287 F,0,2635,,1 C,0,2635,,255,255,255 S,7,2635,4635,0.25,1.5 F,0,2636,4636,1,0 M,0,4817,,560,366 F,0,4817,,1 C,0,4817,,255,255,255 S,7,4817,6817,0.25,1.5 F,0,4818,6818,1,0 M,0,6999,,126,356 F,0,6999,,1 C,0,6999,,255,255,255 S,7,6999,8999,0.25,1.5 F,0,7000,9000,1,0 M,0,9181,,107,268 F,0,9181,,1 C,0,9181,,255,255,255 S,7,9181,11181,0.25,1.5 F,0,9182,11182,1,0 M,0,11363,,562,406 F,0,11363,,1 C,0,11363,,255,255,255 S,7,11363,13363,0.25,1.5 F,0,11364,13364,1,0 M,0,13544,,340,411 F,0,13544,,1 C,0,13544,,255,255,255 S,7,13544,15544,0.25,1.5 F,0,13545,15545,1,0 M,0,15726,,206,289 F,0,15726,,1 C,0,15726,,255,255,255 S,7,15726,17726,0.25,1.5 F,0,15727,17727,1,0 M,0,17884,,328,319 F,0,17884,,1 C,0,17884,,255,255,255 S,7,17884,19884,0.25,1.5 F,0,17885,19885,1,0 M,0,20066,,243,83 F,0,20066,,1 C,0,20066,,255,255,255 S,7,20066,22066,0.25,1.5 F,0,20067,22067,1,0 M,0,22247,,336,391 F,0,22247,,1 C,0,22247,,255,255,255 S,7,22247,24247,0.25,1.5 F,0,22248,24248,1,0 M,0,24429,,99,409 F,0,24429,,1 C,0,24429,,255,255,255 S,7,24429,26429,0.25,1.5 F,0,24430,26430,1,0 M,0,26611,,488,243 F,0,26611,,1 C,0,26611,,255,255,255 S,7,26611,28611,0.25,1.5 F,0,26612,28612,1,0 M,0,28793,,274,394 F,0,28793,,1 C,0,28793,,255,255,255 S,7,28793,30793,0.25,1.5 F,0,28794,30794,1,0 M,0,30975,,253,86 F,0,30975,,1 C,0,30975,,255,255,255 S,7,30975,32975,0.25,1.5 F,0,30976,32976,1,0 M,0,33157,,275,381 F,0,33157,,1 C,0,33157,,255,255,255 S,7,33157,35157,0.25,1.5 F,0,33158,35158,1,0
Sprite,Foreground,Centre,"sb\ring.png",0,0 M,0,1272,,180,167 F,0,1272,,1 C,0,1272,,255,255,255 S,7,1272,3272,0.25,1.5 F,0,1273,3273,1,0 M,0,3454,,491,204 F,0,3454,,1 C,0,3454,,255,255,255 S,7,3454,5454,0.25,1.5 F,0,3455,5455,1,0 M,0,5635,,496,429 F,0,5635,,1 C,0,5635,,255,255,255 S,7,5635,7635,0.25,1.5 F,0,5636,7636,1,0 M,0,7817,,201,308 F,0,7817,,1 C,0,7817,,255,255,255 S,7,7817,9817,0.25,1.5 F,0,7818,9818,1,0 M,0,9999,,170,331 F,0,9999,,1 C,0,9999,,255,255,255 S,7,9999,11999,0.25,1.5 F,0,10000,12000,1,0 M,0,12181,,480,372 F,0,12181,,1 C,0,12181,,255,255,255 S,7,12181,14181,0.25,1.5 F,0,12182,14182,1,0 M,0,14363,,276,347 F,0,14363,,1 C,0,14363,,255,255,255 S,7,14363,16363,0.25,1.5 F,0,14364,16364,1,0 M,0,16544,,272,227 F,0,16544,,1 C,0,16544,,255,255,255 S,7,16544,18544,0.25,1.5 F,0,16545,18545,1,0 M,0,18702,,138,396 F,0,18702,,1 C,0,18702,,255,255,255 S,7,18702,20702,0.25,1.5 F,0,18703,20703,1,0 M,0,20883,,421,60 F,0,20883,,1 C,0,20883,,255,255,255 S,7,20883,22883,0.25,1.5 F,0,20884,22884,1,0 M,0,23066,,153,314 F,0,23066,,1 C,0,23066,,255,255,255 S,7,23066,25066,0.25,1.5 F,0,23067,25067,1,0 M,0,25247,,298,354 F,0,25247,,1 C,0,25247,,255,255,255 S,7,25247,27247,0.25,1.5 F,0,25248,27248,1,0 M,0,27429,,417,64 F,0,27429,,1 C,0,27429,,255,255,255 S,7,27429,29429,0.25,1.5 F,0,27430,29430,1,0 M,0,29611,,489,402 F,0,29611,,1 C,0,29611,,255,255,255 S,7,29611,31611,0.25,1.5 F,0,29612,31612,1,0 M,0,31793,,74,174 F,0,31793,,1 C,0,31793,,255,255,255 S,7,31793,33793,0.25,1.5 F,0,31794,33794,1,0 M,0,33974,,459,316 F,0,33974,,1 C,0,33974,,255,255,255 S,7,33974,35974,0.25,1.5 F,0,33975,35975,1,0
Sprite,Foreground,Centre,"sb\ring.png",0,0 M,0,87702,,112,340 F,0,87702,,1 C,0,87702,,255,255,255 S,7,87702,89702,0.25,1.5 F,0,87703,89703,1,0 M,0,89884,,373,188 F,0,89884,,1 C,0,89884,,255,255,255 S,7,89884,91884,0.25,1.5 F,0,89885,91885,1,0 M,0,92065,,337,342 F,0,92065,,1 C,0,92065,,255,255,255 S,7,92065,94065,0.25,1.5 F,0,92066,94066,1,0 M,0,94247,,470,363 F,0,94247,,1 C,0,94247,,255,255,255 S,7,94247,96247,0.25,1.5 F,0,94248,96248,1,0
Sprite,Foreground,Centre,"sb\ring.png",0,0 M,0,88520,,300,379 F,0,88520,,1 C,0,88520,,255,255,255 S,7,88520,90520,0.25,1.5 F,0,88521,90521,1,0 M,0,90702,,473,149 F,0,90702,,1 C,0,90702,,255,255,255 S,7,90702,92702,0.25,1.5 F,0,90703,92703,1,0 M,0,92884,,233,199 F,0,92884,,1 C,0,92884,,255,255,255 S,7,92884,94884,0.25,1.5 F,0,92885,94885,1,0 M,0,95065,,511,152 F,0,95065,,1 C,0,95065,,255,255,255 S,7,95065,97065,0.25,1.5 F,0,95066,97066,1,0
Sprite,Foreground,Centre,"sb\Lhighlight.png",320,0 F,0,0,,0 F,0,0,,0 F,0,0,,0 F,0,0,,0 F,0,0,,0 F,0,0,,0 F,0,0,,0 F,0,0,,0 F,0,0,,0 F,0,0,,0 F,0,0,,0 F,0,0,,0 F,0,0,,0 F,0,0,,0 F,0,0,,0 F,0,0,,0 F,0,0,,0 F,0,0,,0 F,0,0,,0 F,0,0,,0 F,0,0,,0 F,0,0,,0 F,0,0,,0 F,0,0,,0 F,0,0,,0 F,0,0,,0 F,0,0,,0 F,0,0,,0 F,0,0,,0 F,0,0,,0 F,0,0,,0 F,0,0,,0 F,0,0,,0 F,0,0,,0 R,0,69702,,1.5708 MY,0,69702,,248 V,0,69702,,2,4 F,0,69702,70202,1,0 R,0,70247,,1.5708 MY,0,70247,,364 V,0,70247,,2,4 F,0,70247,70747,1,0 R,0,70793,,1.5708 MY,0,70793,,85 V,0,70793,,2,4 F,0,70793,71293,1,0 R,0,71338,,1.5708 MY,0,71338,,259 V,0,71338,,2,4 F,0,71338,71838,1,0 R,0,71884,,1.5708 MY,0,71884,,224 V,0,71884,,2,4 F,0,71884,72384,1,0 R,0,72429,,1.5708 MY,0,72429,,212 V,0,72429,,2,4 F,0,72429,72929,1,0 R,0,72974,,1.5708 MY,0,72974,,402 V,0,72974,,2,4 F,0,72974,73474,1,0 R,0,73520,,1.5708 MY,0,73520,,179 V,0,73520,,2,4 F,0,73520,74020,1,0 R,0,74065,,1.5708 MY,0,74065,,150 V,0,74065,,2,4 F,0,74065,74565,1,0 R,0,74611,,1.5708 MY,0,74611,,364 V,0,74611,,2,4 F,0,74611,75111,1,0 R,0,75156,,1.5708 MY,0,75156,,161 V,0,75156,,2,4 F,0,75156,75656,1,0 R,0,75702,,1.5708 MY,0,75702,,337 V,0,75702,,2,4 F,0,75702,76202,1,0 R,0,76247,,1.5708 MY,0,76247,,353 V,0,76247,,2,4 F,0,76247,76747,1,0 R,0,76793,,1.5708 MY,0,76793,,103 V,0,76793,,2,4 F,0,76793,77293,1,0 R,0,77338,,1.5708 MY,0,77338,,348 V,0,77338,,2,4 F,0,77338,77838,1,0 R,0,77884,,1.5708 MY,0,77884,,376 V,0,77884,,2,4 F,0,77884,78384,1,0 R,0,78429,,1.5708 MY,0,78429,,418 V,0,78429,,2,4 F,0,78429,78929,1,0 R,0,78974,,1.5708 MY,0,78974,,405 V,0,78974,,2,4 F,0,78974,79474,1,0 R,0,79520,,1.5708 MY,0,79520,,202 V,0,79520,,2,4 F,0,79520,80020,1,0 R,0,80065,,1.5708 MY,0,80065,,167 V,0,80065,,2,4 F,0,80065,80565,1,0 R,0,80611,,1.5708 MY,0,80611,,124 V,0,80611,,2,4 F,0,80611,81111,1,0 R,0,81156,,1.5708 MY,0,81156,,422 V,0,81156,,2,4 F,0,81156,81656,1,0 R,0,81701,,1.5708 MY,0,81701,,191 V,0,81701,,2,4 F,0,81701,82201,1,0 R,0,82248,,1.5708 MY,0,82248,,257 V,0,82248,,2,4 F,0,82248,82748,1,0 R,0,82793,,1.5708 MY,0,82793,,287 V,0,82793,,2,4 F,0,82793,83293,1,0 R,0,83338,,1.5708 MY,0,83338,,345 V,0,83338,,2,4 F,0,83338,83838,1,0 R,0,83883,,1.5708 MY,0,83883,,416 V,0,83883,,2,4 F,0,83883,84383,1,0 R,0,84429,,1.5708 MY,0,84429,,360 V,0,84429,,2,4 F,0,84429,84929,1,0 R,0,84974,,1.5708 MY,0,84974,,390 V,0,84974,,2,4 F,0,84974,85474,1,0 R,0,85520,,1.5708 MY,0,85520,,246 V,0,85520,,2,4 F,0,85520,86020,1,0 R,0,86065,,1.5708 MY,0,86065,,407 V,0,86065,,2,4 F,0,86065,86565,1,0 R,0,86611,,1.5708 MY,0,86611,,97 V,0,86611,,2,4 F,0,86611,87111,1,0 R,0,87156,,1.5708 MY,0,87156,,61 V,0,87156,,2,4 F,0,87156,87656,1,0 R,0,87702,,1.5708 MY,0,87702,,340 V,0,87702,,2,4 F,0,87702,88202,1,0
Sprite,Foreground,Centre,"sb\Lhighlight.png",320,0 F,0,0,,0 F,0,0,,0 F,0,0,,0 F,0,0,,0 F,0,0,,0 F,0,0,,0 F,0,0,,0 F,0,0,,0 F,0,0,,0 F,0,0,,0 F,0,0,,0 F,0,0,,0 F,0,0,,0 F,0,0,,0 F,0,0,,0 F,0,0,,0 F,0,0,,0 F,0,0,,0 F,0,0,,0 F,0,0,,0 F,0,0,,0 F,0,0,,0 F,0,0,,0 F,0,0,,0 F,0,0,,0 F,0,0,,0 F,0,0,,0 F,0,0,,0 F,0,0,,0 F,0,0,,0 F,0,0,,0 F,0,0,,0 F,0,0,,0 R,0,69838,,1.5708 MY,0,69838,,326 V,0,69838,,2,4 F,0,69838,70338,1,0 R,0,70520,,1.5708 MY,0,70520,,176 V,0,70520,,2,4 F,0,70520,71020,1,0 R,0,71065,,1.5708 MY,0,71065,,134 V,0,71065,,2,4 F,0,71065,71565,1,0 R,0,71611,,1.5708 MY,0,71611,,336 V,0,71611,,2,4 F,0,71611,72111,1,0 R,0,72157,,1.5708 MY,0,72157,,370 V,0,72157,,2,4 F,0,72157,72657,1,0 R,0,72702,,1.5708 MY,0,72702,,273 V,0,72702,,2,4 F,0,72702,73202,1,0 R,0,73247,,1.5708 MY,0,73247,,278 V,0,73247,,2,4 F,0,73247,73747,1,0 R,0,73793,,1.5708 MY,0,73793,,262 V,0,73793,,2,4 F,0,73793,74293,1,0 R,0,74338,,1.5708 MY,0,74338,,291 V,0,74338,,2,4 F,0,74338,74838,1,0 R,0,74884,,1.5708 MY,0,74884,,364 V,0,74884,,2,4 F,0,74884,75384,1,0 R,0,75429,,1.5708 MY,0,75429,,161 V,0,75429,,2,4 F,0,75429,75929,1,0 R,0,75974,,1.5708 MY,0,75974,,249 V,0,75974,,2,4 F,0,75974,76474,1,0 R,0,76519,,1.5708 MY,0,76519,,265 V,0,76519,,2,4 F,0,76519,77019,1,0 R,0,77066,,1.5708 MY,0,77066,,103 V,0,77066,,2,4 F,0,77066,77566,1,0 R,0,77611,,1.5708 MY,0,77611,,348 V,0,77611,,2,4 F,0,77611,78111,1,0 R,0,78156,,1.5708 MY,0,78156,,237 V,0,78156,,2,4 F,0,78156,78656,1,0 R,0,78701,,1.5708 MY,0,78701,,210 V,0,78701,,2,4 F,0,78701,79201,1,0 R,0,79247,,1.5708 MY,0,79247,,296 V,0,79247,,2,4 F,0,79247,79747,1,0 R,0,79792,,1.5708 MY,0,79792,,332 V,0,79792,,2,4 F,0,79792,80292,1,0 R,0,80338,,1.5708 MY,0,80338,,268 V,0,80338,,2,4 F,0,80338,80838,1,0 R,0,80884,,1.5708 MY,0,80884,,225 V,0,80884,,2,4 F,0,80884,81384,1,0 R,0,81429,,1.5708 MY,0,81429,,327 V,0,81429,,2,4 F,0,81429,81929,1,0 R,0,81974,,1.5708 MY,0,81974,,302 V,0,81974,,2,4 F,0,81974,82474,1,0 R,0,82520,,1.5708 MY,0,82520,,123 V,0,82520,,2,4 F,0,82520,83020,1,0 R,0,83065,,1.5708 MY,0,83065,,93 V,0,83065,,2,4 F,0,83065,83565,1,0 R,0,83611,,1.5708 MY,0,83611,,345 V,0,83611,,2,4 F,0,83611,84111,1,0 R,0,84156,,1.5708 MY,0,84156,,416 V,0,84156,,2,4 F,0,84156,84656,1,0 R,0,84702,,1.5708 MY,0,84702,,201 V,0,84702,,2,4 F,0,84702,85202,1,0 R,0,85247,,1.5708 MY,0,85247,,231 V,0,85247,,2,4 F,0,85247,85747,1,0 R,0,85793,,1.5708 MY,0,85793,,246 V,0,85793,,2,4 F,0,85793,86293,1,0 R,0,86338,,1.5708 MY,0,86338,,407 V,0,86338,,2,4 F,0,86338,86838,1,0 R,0,86883,,1.5708 MY,0,86883,,245 V,0,86883,,2,4 F,0,86883,87383,1,0 R,0,87428,,1.5708 MY,0,87428,,257 V,0,87428,,2,4 F,0,87428,87928,1,0
Sprite,Foreground,Centre,"sb\Lhighlight.png",320,0 F,0,0,,0 F,0,0,,0 F,0,0,,0 F,0,0,,0 F,0,0,,0 F,0,0,,0 F,0,0,,0 F,0,0,,0 F,0,0,,0 F,0,0,,0 F,0,0,,0 F,0,0,,0 F,0,0,,0 F,0,0,,0 F,0,0,,0 F,0,0,,0 F,0,0,,0 R,0,69974,,1.5708 MY,0,69974,,394 V,0,69974,,2,4 F,0,69974,70474,1,0 R,0,70929,,1.5708 MY,0,70929,,85 V,0,70929,,2,4 F,0,70929,71429,1,0 R,0,72157,,1.5708 MY,0,72157,,370 V,0,72157,,2,4 F,0,72157,72657,1,0 R,0,73111,,1.5708 MY,0,73111,,402 V,0,73111,,2,4 F,0,73111,73611,1,0 R,0,74338,,1.5708 MY,0,74338,,291 V,0,74338,,2,4 F,0,74338,74838,1,0 R,0,74884,,1.5708 MY,0,74884,,364 V,0,74884,,2,4 F,0,74884,75384,1,0 R,0,76519,,1.5708 MY,0,76519,,265 V,0,76519,,2,4 F,0,76519,77019,1,0 R,0,77066,,1.5708 MY,0,77066,,103 V,0,77066,,2,4 F,0,77066,77566,1,0 R,0,78701,,1.5708 MY,0,78701,,210 V,0,78701,,2,4 F,0,78701,79201,1,0 R,0,79656,,1.5708 MY,0,79656,,202 V,0,79656,,2,4 F,0,79656,80156,1,0 R,0,80884,,1.5708 MY,0,80884,,225 V,0,80884,,2,4 F,0,80884,81384,1,0 R,0,81838,,1.5708 MY,0,81838,,191 V,0,81838,,2,4 F,0,81838,82338,1,0 R,0,83065,,1.5708 MY,0,83065,,93 V,0,83065,,2,4 F,0,83065,83565,1,0 R,0,83611,,1.5708 MY,0,83611,,345 V,0,83611,,2,4 F,0,83611,84111,1,0 R,0,85247,,1.5708 MY,0,85247,,231 V,0,85247,,2,4 F,0,85247,85747,1,0 R,0,85793,,1.5708 MY,0,85793,,246 V,0,85793,,2,4 F,0,85793,86293,1,0 R,0,87428,,1.5708 MY,0,87428,,257 V,0,87428,,2,4 F,0,87428,87928,1,0
Sprite,Foreground,Centre,"sb\Lhighlight.png",320,0 F,0,0,,0 F,0,0,,0 F,0,0,,0 F,0,0,,0 F,0,0,,0 F,0,0,,0 F,0,0,,0 F,0,0,,0 F,0,0,,0 F,0,0,,0 F,0,0,,0 F,0,0,,0 F,0,0,,0 F,0,0,,0 F,0,0,,0 F,0,0,,0 F,0,0,,0 R,0,70111,,1.5708 MY,0,70111,,410 V,0,70111,,2,4 F,0,70111,70611,1,0 R,0,71202,,1.5708 MY,0,71202,,134 V,0,71202,,2,4 F,0,71202,71702,1,0 R,0,72177,,1.5708 MY,0,72177,,374 V,0,72177,,2,4 F,0,72177,72657,0.9,0 R,0,73384,,1.5708 MY,0,73384,,278 V,0,73384,,2,4 F,0,73384,73884,1,0 R,0,74358,,1.5708 MY,0,74358,,295 V,0,74358,,2,4 F,0,74358,74838,0.9,0 R,0,74904,,1.5708 MY,0,74904,,368 V,0,74904,,2,4 F,0,74904,75384,0.9,0 R,0,76539,,1.5708 MY,0,76539,,269 V,0,76539,,2,4 F,0,76539,77019,0.9,0 R,0,77086,,1.5708 MY,0,77086,,107 V,0,77086,,2,4 F,0,77086,77566,0.9,0 R,0,78721,,1.5708 MY,0,78721,,214 V,0,78721,,2,4 F,0,78721,79201,0.9,0 R,0,79929,,1.5708 MY,0,79929,,332 V,0,79929,,2,4 F,0,79929,80429,1,0 R,0,80904,,1.5708 MY,0,80904,,229 V,0,80904,,2,4 F,0,80904,81384,0.9,0 R,0,82111,,1.5708 MY,0,82111,,302 V,0,82111,,2,4 F,0,82111,82611,1,0 R,0,83085,,1.5708 MY,0,83085,,97 V,0,83085,,2,4 F,0,83085,83565,0.9,0 R,0,83631,,1.5708 MY,0,83631,,349 V,0,83631,,2,4 F,0,83631,84111,0.9,0 R,0,85267,,1.5708 MY,0,85267,,235 V,0,85267,,2,4 F,0,85267,85747,0.9,0 R,0,85813,,1.5708 MY,0,85813,,250 V,0,85813,,2,4 F,0,85813,86293,0.9,0 R,0,87448,,1.5708 MY,0,87448,,261 V,0,87448,,2,4 F,0,87448,87928,0.9,0
Sprite,Foreground,Centre,"sb\Lhighlight.png",320,0 F,0,0,,0 F,0,0,,0 F,0,0,,0 F,0,0,,0 F,0,0,,0 F,0,0,,0 F,0,0,,0 F,0,0,,0 F,0,0,,0 F,0,0,,0 F,0,0,,0 F,0,0,,0 R,0,72197,,1.5708 MY,0,72197,,362 V,0,72197,,2,4 F,0,72197,72657,0.8,0 R,0,74378,,1.5708 MY,0,74378,,283 V,0,74378,,2,4 F,0,74378,74838,0.8,0 R,0,74924,,1.5708 MY,0,74924,,356 V,0,74924,,2,4 F,0,74924,75384,0.8,0 R,0,76559,,1.5708 MY,0,76559,,257 V,0,76559,,2,4 F,0,76559,77019,0.8,0 R,0,77106,,1.5708 MY,0,77106,,95 V,0,77106,,2,4 F,0,77106,77566,0.8,0 R,0,78741,,1.5708 MY,0,78741,,202 V,0,78741,,2,4 F,0,78741,79201,0.8,0 R,0,80924,,1.5708 MY,0,80924,,217 V,0,80924,,2,4 F,0,80924,81384,0.8,0 R,0,83105,,1.5708 MY,0,83105,,85 V,0,83105,,2,4 F,0,83105,83565,0.8,0 R,0,83651,,1.5708 MY,0,83651,,337 V,0,83651,,2,4 F,0,83651,84111,0.8,0 R,0,85287,,1.5708 MY,0,85287,,223 V,0,85287,,2,4 F,0,85287,85747,0.8,0 R,0,85833,,1.5708 MY,0,85833,,238 V,0,85833,,2,4 F,0,85833,86293,0.8,0 R,0,87468,,1.5708 MY,0,87468,,249 V,0,87468,,2,4 F,0,87468,87928,0.8,0
Sprite,Foreground,Centre,"sb\Lhighlight.png",320,0 F,0,0,,0 F,0,0,,0 F,0,0,,0 F,0,0,,0 F,0,0,,0 F,0,0,,0 F,0,0,,0 F,0,0,,0 F,0,0,,0 F,0,0,,0 F,0,0,,0 F,0,0,,0 R,0,72217,,1.5708 MY,0,72217,,382 V,0,72217,,2,4 F,0,72217,72657,0.7,0 R,0,74398,,1.5708 MY,0,74398,,303 V,0,74398,,2,4 F,0,74398,74838,0.7,0 R,0,74944,,1.5708 MY,0,74944,,376 V,0,74944,,2,4 F,0,74944,75384,0.7,0 R,0,76579,,1.5708 MY,0,76579,,277 V,0,76579,,2,4 F,0,76579,77019,0.7,0 R,0,77126,,1.5708 MY,0,77126,,115 V,0,77126,,2,4 F,0,77126,77566,0.7,0 R,0,78761,,1.5708 MY,0,78761,,222 V,0,78761,,2,4 F,0,78761,79201,0.7,0 R,0,80944,,1.5708 MY,0,80944,,237 V,0,80944,,2,4 F,0,80944,81384,0.7,0 R,0,83125,,1.5708 MY,0,83125,,105 V,0,83125,,2,4 F,0,83125,83565,0.7,0 R,0,83671,,1.5708 MY,0,83671,,357 V,0,83671,,2,4 F,0,83671,84111,0.7,0 R,0,85307,,1.5708 MY,0,85307,,243 V,0,85307,,2,4 F,0,85307,85747,0.7,0 R,0,85853,,1.5708 MY,0,85853,,258 V,0,85853,,2,4 F,0,85853,86293,0.7,0 R,0,87488,,1.5708 MY,0,87488,,269 V,0,87488,,2,4 F,0,87488,87928,0.7,0
Sprite,Foreground,Centre,"sb\Lhighlight.png",320,0 F,0,0,,0 F,0,0,,0 F,0,0,,0 F,0,0,,0 F,0,0,,0 F,0,0,,0 F,0,0,,0 F,0,0,,0 F,0,0,,0 F,0,0,,0 F,0,0,,0 F,0,0,,0 R,0,72237,,1.5708 MY,0,72237,,354 V,0,72237,,2,4 F,0,72237,72657,0.6,0 R,0,74418,,1.5708 MY,0,74418,,275 V,0,74418,,2,4 F,0,74418,74838,0.6,0 R,0,74964,,1.5708 MY,0,74964,,348 V,0,74964,,2,4 F,0,74964,75384,0.6,0 R,0,76599,,1.5708 MY,0,76599,,249 V,0,76599,,2,4 F,0,76599,77019,0.6,0 R,0,77146,,1.5708 MY,0,77146,,87 V,0,77146,,2,4 F,0,77146,77566,0.6,0 R,0,78781,,1.5708 MY,0,78781,,194 V,0,78781,,2,4 F,0,78781,79201,0.6,0 R,0,80964,,1.5708 MY,0,80964,,209 V,0,80964,,2,4 F,0,80964,81384,0.6,0 R,0,83145,,1.5708 MY,0,83145,,77 V,0,83145,,2,4 F,0,83145,83565,0.6,0 R,0,83691,,1.5708 MY,0,83691,,329 V,0,83691,,2,4 F,0,83691,84111,0.6,0 R,0,85327,,1.5708 MY,0,85327,,215 V,0,85327,,2,4 F,0,85327,85747,0.6,0 R,0,85873,,1.5708 MY,0,85873,,230 V,0,85873,,2,4 F,0,85873,86293,0.6,0 R,0,87508,,1.5708 MY,0,87508,,241 V,0,87508,,2,4 F,0,87508,87928,0.6,0
Sprite,Foreground,Centre,"sb\Lhighlight.png",320,0 F,0,0,,0 F,0,0,,0 F,0,0,,0 F,0,0,,0 F,0,0,,0 F,0,0,,0 F,0,0,,0 F,0,0,,0 F,0,0,,0 F,0,0,,0 F,0,0,,0 F,0,0,,0 R,0,72257,,1.5708 MY,0,72257,,390 V,0,72257,,2,4 F,0,72257,72657,0.5,0 R,0,74438,,1.5708 MY,0,74438,,311 V,0,74438,,2,4 F,0,74438,74838,0.5,0 R,0,74984,,1.5708 MY,0,74984,,384 V,0,74984,,2,4 F,0,74984,75384,0.5,0 R,0,76619,,1.5708 MY,0,76619,,285 V,0,76619,,2,4 F,0,76619,77019,0.5,0 R,0,77166,,1.5708 MY,0,77166,,123 V,0,77166,,2,4 F,0,77166,77566,0.5,0 R,0,78801,,1.5708 MY,0,78801,,230 V,0,78801,,2,4 F,0,78801,79201,0.5,0 R,0,80984,,1.5708 MY,0,80984,,245 V,0,80984,,2,4 F,0,80984,81384,0.5,0 R,0,83165,,1.5708 MY,0,83165,,113 V,0,83165,,2,4 F,0,83165,83565,0.5,0 R,0,83711,,1.5708 MY,0,83711,,365 V,0,83711,,2,4 F,0,83711,84111,0.5,0 R,0,85347,,1.5708 MY,0,85347,,251 V,0,85347,,2,4 F,0,85347,85747,0.5,0 R,0,85893,,1.5708 MY,0,85893,,266 V,0,85893,,2,4 F,0,85893,86293,0.5,0 R,0,87528,,1.5708 MY,0,87528,,277 V,0,87528,,2,4 F,0,87528,87928,0.5,0
Sprite,Foreground,Centre,"sb\Lhighlight.png",320,0 F,0,0,,0 F,0,0,,0 F,0,0,,0 F,0,0,,0 F,0,0,,0 F,0,0,,0 F,0,0,,0 F,0,0,,0 F,0,0,,0 F,0,0,,0 F,0,0,,0 F,0,0,,0 R,0,72277,,1.5708 MY,0,72277,,346 V,0,72277,,2,4 F,0,72277,72657,0.4,0 R,0,74458,,1.5708 MY,0,74458,,267 V,0,74458,,2,4 F,0,74458,74838,0.4,0 R,0,75004,,1.5708 MY,0,75004,,340 V,0,75004,,2,4 F,0,75004,75384,0.4,0 R,0,76639,,1.5708 MY,0,76639,,241 V,0,76639,,2,4 F,0,76639,77019,0.4,0 R,0,77186,,1.5708 MY,0,77186,,79 V,0,77186,,2,4 F,0,77186,77566,0.4,0 R,0,78821,,1.5708 MY,0,78821,,186 V,0,78821,,2,4 F,0,78821,79201,0.4,0 R,0,81004,,1.5708 MY,0,81004,,201 V,0,81004,,2,4 F,0,81004,81384,0.4,0 R,0,83185,,1.5708 MY,0,83185,,69 V,0,83185,,2,4 F,0,83185,83565,0.4,0 R,0,83731,,1.5708 MY,0,83731,,321 V,0,83731,,2,4 F,0,83731,84111,0.4,0 R,0,85367,,1.5708 MY,0,85367,,207 V,0,85367,,2,4 F,0,85367,85747,0.4,0 R,0,85913,,1.5708 MY,0,85913,,222 V,0,85913,,2,4 F,0,85913,86293,0.4,0 R,0,87548,,1.5708 MY,0,87548,,233 V,0,87548,,2,4 F,0,87548,87928,0.4,0
Sprite,Foreground,Centre,"sb\Lhighlight.png",320,0 F,0,0,,0 F,0,0,,0 F,0,0,,0 F,0,0,,0 F,0,0,,0 F,0,0,,0 F,0,0,,0 F,0,0,,0 F,0,0,,0 F,0,0,,0 F,0,0,,0 F,0,0,,0 R,0,72297,,1.5708 MY,0,72297,,398 V,0,72297,,2,4 F,0,72297,72657,0.3,0 R,0,74478,,1.5708 MY,0,74478,,319 V,0,74478,,2,4 F,0,74478,74838,0.3,0 R,0,75024,,1.5708 MY,0,75024,,392 V,0,75024,,2,4 F,0,75024,75384,0.3,0 R,0,76659,,1.5708 MY,0,76659,,293 V,0,76659,,2,4 F,0,76659,77019,0.3,0 R,0,77206,,1.5708 MY,0,77206,,131 V,0,77206,,2,4 F,0,77206,77566,0.3,0 R,0,78841,,1.5708 MY,0,78841,,238 V,0,78841,,2,4 F,0,78841,79201,0.3,0 R,0,81024,,1.5708 MY,0,81024,,253 V,0,81024,,2,4 F,0,81024,81384,0.3,0 R,0,83205,,1.5708 MY,0,83205,,121 V,0,83205,,2,4 F,0,83205,83565,0.3,0 R,0,83751,,1.5708 MY,0,83751,,373 V,0,83751,,2,4 F,0,83751,84111,0.3,0 R,0,85387,,1.5708 MY,0,85387,,259 V,0,85387,,2,4 F,0,85387,85747,0.3,0 R,0,85933,,1.5708 MY,0,85933,,274 V,0,85933,,2,4 F,0,85933,86293,0.3,0 R,0,87568,,1.5708 MY,0,87568,,285 V,0,87568,,2,4 F,0,87568,87928,0.3,0
Sprite,Foreground,Centre,"sb\Lhighlight.png",320,0 F,0,0,,0 F,0,0,,0 F,0,0,,0 F,0,0,,0 F,0,0,,0 F,0,0,,0 F,0,0,,0 F,0,0,,0 F,0,0,,0 F,0,0,,0 F,0,0,,0 F,0,0,,0 R,0,72317,,1.5708 MY,0,72317,,338 V,0,72317,,2,4 F,0,72317,72657,0.2,0 R,0,74498,,1.5708 MY,0,74498,,259 V,0,74498,,2,4 F,0,74498,74838,0.2,0 R,0,75044,,1.5708 MY,0,75044,,332 V,0,75044,,2,4 F,0,75044,75384,0.2,0 R,0,76679,,1.5708 MY,0,76679,,233 V,0,76679,,2,4 F,0,76679,77019,0.2,0 R,0,77226,,1.5708 MY,0,77226,,71 V,0,77226,,2,4 F,0,77226,77566,0.2,0 R,0,78861,,1.5708 MY,0,78861,,178 V,0,78861,,2,4 F,0,78861,79201,0.2,0 R,0,81044,,1.5708 MY,0,81044,,193 V,0,81044,,2,4 F,0,81044,81384,0.2,0 R,0,83225,,1.5708 MY,0,83225,,61 V,0,83225,,2,4 F,0,83225,83565,0.2,0 R,0,83771,,1.5708 MY,0,83771,,313 V,0,83771,,2,4 F,0,83771,84111,0.2,0 R,0,85407,,1.5708 MY,0,85407,,199 V,0,85407,,2,4 F,0,85407,85747,0.2,0 R,0,85953,,1.5708 MY,0,85953,,214 V,0,85953,,2,4 F,0,85953,86293,0.2,0 R,0,87588,,1.5708 MY,0,87588,,225 V,0,87588,,2,4 F,0,87588,87928,0.2,0
Sprite,Foreground,Centre,"sb\Lhighlight.png",320,0 F,0,0,,0 F,0,0,,0 F,0,0,,0 F,0,0,,0 F,0,0,,0 F,0,0,,0 F,0,0,,0 F,0,0,,0 F,0,0,,0 F,0,0,,0 F,0,0,,0 F,0,0,,0 R,0,72337,,1.5708 MY,0,72337,,406 V,0,72337,,2,4 F,0,72337,72657,0.1,0 R,0,74518,,1.5708 MY,0,74518,,327 V,0,74518,,2,4 F,0,74518,74838,0.1,0 R,0,75064,,1.5708 MY,0,75064,,400 V,0,75064,,2,4 F,0,75064,75384,0.1,0 R,0,76699,,1.5708 MY,0,76699,,301 V,0,76699,,2,4 F,0,76699,77019,0.1,0 R,0,77246,,1.5708 MY,0,77246,,139 V,0,77246,,2,4 F,0,77246,77566,0.1,0 R,0,78881,,1.5708 MY,0,78881,,246 V,0,78881,,2,4 F,0,78881,79201,0.1,0 R,0,81064,,1.5708 MY,0,81064,,261 V,0,81064,,2,4 F,0,81064,81384,0.1,0 R,0,83245,,1.5708 MY,0,83245,,129 V,0,83245,,2,4 F,0,83245,83565,0.1,0 R,0,83791,,1.5708 MY,0,83791,,381 V,0,83791,,2,4 F,0,83791,84111,0.1,0 R,0,85427,,1.5708 MY,0,85427,,267 V,0,85427,,2,4 F,0,85427,85747,0.1,0 R,0,85973,,1.5708 MY,0,85973,,282 V,0,85973,,2,4 F,0,85973,86293,0.1,0 R,0,87608,,1.5708 MY,0,87608,,293 V,0,87608,,2,4 F,0,87608,87928,0.1,0
Sprite,Foreground,Centre,"sb\Lhighlight.png",320,0 F,0,0,,0 F,0,0,,0 F,0,0,,0 F,0,0,,0 F,0,0,,0 F,0,0,,0 F,0,0,,0 F,0,0,,0 R,0,74747,,1.5708 MY,0,74747,,364 V,0,74747,,2,4 F,0,74747,75247,1,0 R,0,75292,,1.5708 MY,0,75292,,161 V,0,75292,,2,4 F,0,75292,75792,1,0 R,0,76929,,1.5708 MY,0,76929,,103 V,0,76929,,2,4 F,0,76929,77429,1,0 R,0,77474,,1.5708 MY,0,77474,,348 V,0,77474,,2,4 F,0,77474,77974,1,0 R,0,83474,,1.5708 MY,0,83474,,345 V,0,83474,,2,4 F,0,83474,83974,1,0 R,0,84019,,1.5708 MY,0,84019,,416 V,0,84019,,2,4 F,0,84019,84519,1,0 R,0,85656,,1.5708 MY,0,85656,,246 V,0,85656,,2,4 F,0,85656,86156,1,0 R,0,86201,,1.5708 MY,0,86201,,407 V,0,86201,,2,4 F,0,86201,86701,1,0
//Storyboard Sound Samples

[TimingPoints]
454,545.454545454546,4,2,1,40,1,0
454,-125,4,2,1,40,0,0
4817,-125,4,2,1,40,0,0
17884,545.454545454546,4,2,1,60,1,0
17884,-100,4,2,1,60,0,0
35338,-66.6666666666667,4,2,1,90,0,1
35474,-66.6666666666667,4,2,1,90,0,0
52793,-100,4,2,1,90,0,0
54974,-66.6666666666667,4,2,1,90,0,1
55111,-66.6666666666667,4,2,1,90,0,0
69702,-76.9230769230769,4,2,1,90,0,0
70247,-55.5555555555556,4,1,2,80,0,1
70316,-55.5555555555556,4,2,1,100,0,1
72430,-55.5555555555556,4,1,2,80,0,1
72498,-55.5555555555556,4,2,1,100,0,1
74611,-55.5555555555556,4,1,2,80,0,1
74679,-55.5555555555556,4,2,1,100,0,1
76793,-55.5555555555556,4,1,2,80,0,1
76861,-55.5555555555556,4,2,1,100,0,1
77339,-55.5555555555556,4,1,2,80,0,1
77407,-55.5555555555556,4,2,1,100,0,1
77884,-55.5555555555556,4,1,2,80,0,1
77952,-55.5555555555556,4,2,1,100,0,1
78430,-55.5555555555556,4,1,2,80,0,1
78498,-55.5555555555556,4,2,1,100,0,1
78975,-55.5555555555556,4,1,2,80,0,1
79043,-55.5555555555556,4,2,1,100,0,1
81157,-55.5555555555556,4,1,2,80,0,1
81225,-55.5555555555556,4,2,1,100,0,1
83339,-55.5555555555556,4,1,2,80,0,1
83407,-55.5555555555556,4,2,1,100,0,1
85520,-55.5555555555556,4,1,2,80,0,1
85588,-55.5555555555556,4,2,1,100,0,1
86066,-55.5555555555556,4,1,2,80,0,1
86134,-55.5555555555556,4,2,1,100,0,1
86611,-55.5555555555556,4,1,2,80,0,1
86679,-55.5555555555556,4,2,1,100,0,1
87157,-55.5555555555556,4,1,2,80,0,1
87225,-55.5555555555556,4,2,1,100,0,1
87702,-125,4,2,1,40,0,0

[Colours]
Combo1 : 14,147,154
Combo2 : 0,65,130
Combo3 : 102,151,253
Combo4 : 141,224,245

[HitObjects]
53,48,454,5,2,0:3:0:0:
53,48,999,1,0,0:0:0:0:
116,111,1272,2,0,P|234:101|373:92,1,240,2|0,0:0|0:0,0:0:0:0:
463,231,2635,5,2,0:3:0:0:
463,231,3180,1,2,0:3:0:0:
427,148,3453,2,0,P|309:158|364:232,1,240,2|0,0:0|0:0,0:0:0:0:
496,310,4817,5,2,0:3:0:0:
496,310,5363,1,0,0:0:0:0:
432,373,5635,2,0,P|369:368|305:364,1,120,2|0,0:0|0:0,0:0:0:0:
248,300,6454,1,0,0:0:0:0:
184,363,6726,1,0,0:0:0:0:
62,300,6999,5,2,0:3:0:0:
62,300,7544,1,0,0:0:0:0:
137,252,7817,2,0,P|143:198|107:133,1,120,2|0,0:0|0:0,0:0:0:0:
33,100,8635,1,0,0:0:0:0:
97,36,8908,1,0,0:0:0:0:
43,212,9181,5,2,0:3:0:0:
43,212,9726,1,0,0:0:0:0:
106,275,9999,2,0,P|201:267|360:280,1,240,2|0,0:0|0:0,0:0:0:0:
498,350,11363,5,2,0:3:0:0:
498,350,11908,1,2,0:3:0:0:
416,316,12181,2,0,P|378:233|468:268,1,240,2|0,0:0|0:0,0:0:0:0:
276,355,13544,5,2,0:3:0:0:
276,355,14090,1,0,0:0:0:0:
212,291,14363,2,0,P|210:224|208:152,1,120,2|0,0:0|0:0,0:0:0:0:
272,107,15181,1,0,0:0:0:0:
208,43,15454,1,0,0:0:0:0:
142,233,15726,5,2,0:3:0:0:
142,233,16272,1,0,0:0:0:0:
208,171,16544,2,0,P|266:152|332:178,1,120,2|0,0:0|0:0,0:0:0:0:
384,232,17363,1,0,0:0:0:0:
447,168,17635,1,0,0:0:0:0:
264,263,17884,6,0,P|199:259|146:269,1,112.5,6|0,0:0|0:0,0:0:0:0:
74,340,18429,1,4,0:0:0:0:
74,340,18565,1,2,0:0:0:0:
74,340,18702,1,2,0:0:0:0:
23,224,18974,2,0,P|26:202|29:178,2,37.5,4|0|0,0:0|0:0|0:0,0:0:0:0:
103,135,19520,2,0,P|100:113|97:89,2,37.5,4|0|0,0:0|0:0|0:0,0:0:0:0:
179,27,20065,6,0,P|214:49|292:38,1,112.5,6|0,0:0|0:0,0:0:0:0:
357,4,20611,1,6,0:0:0:0:
357,4,20747,1,2,0:0:0:0:
357,4,20884,1,2,0:0:0:0:
429,120,21156,2,0,P|426:138|426:168,2,37.5,4|0|0,0:0|0:0|0:0,0:0:0:0:
364,222,21702,2,0,P|366:240|367:270,2,37.5,4|0|0,0:0|0:0|0:0,0:0:0:0:
272,335,22247,6,0,L|148:326,1,112.5,6|0,0:0|0:0,0:0:0:0:
89,258,22793,1,6,0:0:0:0:
89,258,22929,1,2,0:0:0:0:
89,258,23065,1,2,0:0:0:0:
222,183,23338,2,0,L|266:189,2,37.5,4|0|0,0:0|0:0|0:0,0:0:0:0:
159,326,23884,1,6,0:0:0:0:
118,136,24156,1,2,0:0:0:0:
35,353,24429,6,0,P|85:350|168:345,1,112.5,6|0,0:0|0:0,0:0:0:0:
234,298,24974,1,6,0:0:0:0:
234,298,25111,1,2,0:0:0:0:
234,298,25247,1,2,0:0:0:0:
389,326,25520,2,0,P|410:321|438:314,2,37.5,4|0|0,0:0|0:0|0:0,0:0:0:0:
214,220,26065,1,6,0:0:0:0:
287,354,26338,1,2,0:0:0:0:
424,187,26611,6,0,P|426:125|421:59,1,112.5,6|0,0:0|0:0,0:0:0:0:
353,8,27156,1,6,0:0:0:0:
353,8,27293,1,2,0:0:0:0:
353,8,27429,1,2,0:0:0:0:
245,113,27702,2,0,L|252:169,2,37.5,4|0|0,0:0|0:0|0:0,0:0:0:0:
164,185,28247,2,0,L|157:241,2,37.5,4|0|0,0:0|0:0|0:0,0:0:0:0:
210,338,28793,6,0,P|270:331|339:327,1,112.5,6|0,0:0|0:0,0:0:0:0:
425,346,29338,1,6,0:0:0:0:
425,346,29474,1,2,0:0:0:0:
425,346,29611,1,2,0:0:0:0:
369,233,29884,2,0,P|370:205|376:169,2,37.5,4|0|0,0:0|0:0|0:0,0:0:0:0:
292,145,30429,2,0,P|290:117|285:81,2,37.5,4|0|0,0:0|0:0|0:0,0:0:0:0:
189,30,30974,6,0,P|124:35|65:39,1,112.5,6|0,0:0|0:0,0:0:0:0:
10,118,31520,1,6,0:0:0:0:
10,118,31656,1,2,0:0:0:0:
10,118,31793,1,2,0:0:0:0:
137,184,32065,2,0,P|154:181|185:178,2,37.5,4|0|0,0:0|0:0|0:0,0:0:0:0:
42,343,32611,1,6,0:0:0:0:
0,210,32884,1,2,0:0:0:0:
211,325,33156,6,0,P|267:338|338:312,1,112.5,6|0,0:0|0:0,0:0:0:0:
395,260,33702,1,6,0:0:0:0:
395,260,33838,1,2,0:0:0:0:
395,260,33974,1,2,0:0:0:0:
289,176,34247,2,0,P|260:178|239:180,2,37.5,4|0|0,0:0|0:0|0:0,0:0:0:0:
151,257,34793,1,8,0:1:0:0:
151,257,35338,6,0,P|146:196|140:140,1,112.500004291535,6|0,0:1|0:0,0:0:0:0:
272,25,35884,2,0,P|305:29|348:33,1,56.2500021457673,8|0,0:1|0:0,0:0:0:0:
418,110,36156,2,0,P|384:114|342:118,1,56.2500021457673,0|0,0:0|0:0,0:0:0:0:
294,234,36429,2,0,P|288:290|303:361,1,112.500004291535,2|0,0:1|0:0,0:0:0:0:
461,212,36974,2,0,P|446:157|417:109,1,112.500004291535,8|0,0:1|0:0,0:0:0:0:
194,37,37520,6,0,P|137:36|72:37,1,112.500004291535,6|0,0:1|0:0,0:0:0:0:
12,198,38065,2,0,P|15:227|20:270,1,56.2500021457673,8|0,0:1|0:0,0:0:0:0:
94,335,38338,2,0,P|97:305|102:263,1,56.2500021457673,0|0,0:0|0:0,0:0:0:0:
183,151,38611,2,0,P|185:206|195:271,1,112.500004291535,2|0,0:1|0:0,0:0:0:0:
377,362,39156,2,0,P|351:311|321:264,1,112.500004291535,8|0,0:1|0:0,0:0:0:0:
179,125,39702,6,0,P|232:122|312:113,1,112.500004291535,6|0,0:1|0:0,0:0:0:0:
474,43,40247,2,0,P|471:76|472:116,1,56.2500021457673,8|0,0:1|0:0,0:0:0:0:
419,242,40520,2,0,P|418:213|416:185,1,56.2500021457673,0|0,0:0|0:0,0:0:0:0:
333,39,40793,2,0,P|277:35|219:35,1,112.500004291535,2|0,0:1|0:0,0:0:0:0:
116,186,41338,1,8,0:1:0:0:
83,52,41611,1,0,0:0:0:0:
0,232,41884,6,0,P|60:224|112:217,1,112.500004291535,6|0,0:1|0:0,0:0:0:0:
272,320,42429,2,0,P|305:318|342:312,1,56.2500021457673,8|0,0:1|0:0,0:0:0:0:
392,211,42702,2,0,P|364:207|336:206,1,56.2500021457673,0|0,0:0|0:0,0:0:0:0:
484,349,42974,2,0,P|468:287|461:211,1,112.500004291535,2|0,0:1|0:0,0:0:0:0:
455,40,43520,1,8,0:1:0:0:
342,175,43793,1,0,0:0:0:0:
186,39,44065,6,0,P|121:40|63:46,1,112.500004291535,6|0,0:1|0:0,0:0:0:0:
16,208,44611,2,0,P|20:241|24:284,1,56.2500021457673,8|0,0:1|0:0,0:0:0:0:
114,341,44884,2,0,P|118:308|122:265,1,56.2500021457673,0|0,0:0|0:0,0:0:0:0:
210,184,45156,2,0,P|271:185|327:191,1,112.500004291535,2|0,0:1|0:0,0:0:0:0:
453,334,45702,2,0,P|397:339|340:340,1,112.500004291535,8|0,0:1|0:0,0:0:0:0:
197,208,46247,6,0,P|196:151|197:86,1,112.500004291535,6|0,0:1|0:0,0:0:0:0:
339,14,46792,2,0,P|368:17|411:22,1,56.2500021457673,8|0,0:1|0:0,0:0:0:0:
480,107,47065,2,0,P|450:110|408:115,1,56.2500021457673,0|0,0:0|0:0,0:0:0:0:
302,188,47338,2,0,P|357:190|422:200,1,112.500004291535,2|0,0:1|0:0,0:0:0:0:
511,326,47884,2,0,P|456:328|391:338,1,112.500004291535,8|0,0:1|0:0,0:0:0:0:
172,362,48429,6,0,P|119:359|39:350,1,112.500004291535,6|0,0:1|0:0,0:0:0:0:
0,243,48974,2,0,P|3:210|2:170,1,56.2500021457673,8|0,0:1|0:0,0:0:0:0:
48,44,49247,2,0,P|49:73|51:101,1,56.2500021457673,0|0,0:0|0:0,0:0:0:0:
134,234,49520,2,0,P|130:178|130:120,1,112.500004291535,2|0,0:1|0:0,0:0:0:0:
206,311,50065,1,8,0:1:0:0:
47,244,50338,1,0,0:0:0:0:
214,132,50611,6,0,P|274:124|332:124,1,112.500004291535,6|0,0:1|0:0,0:0:0:0:
456,233,51156,2,0,P|454:266|448:303,1,56.2500021457673,8|0,0:1|0:0,0:0:0:0:
347,353,51429,2,0,P|343:325|342:297,1,56.2500021457673,0|0,0:0|0:0,0:0:0:0:
246,213,51702,2,0,P|186:208|120:218,1,112.500004291535,2|0,0:1|0:0,0:0:0:0:
17,367,52247,1,8,0:1:0:0:
194,326,52520,1,0,0:1:0:0:
20,106,52793,5,6,0:1:0:0:
20,106,54429,1,8,0:1:0:0:
20,106,54974,6,0,P|56:96|85:93,1,56.2500021457673,6|2,0:1|0:0,0:0:0:0:
186,186,55247,2,0,P|150:176|121:173,1,56.2500021457673,2|2,0:0|0:0,0:0:0:0:
28,257,55520,1,10,0:1:0:0:
179,347,55793,1,2,0:0:0:0:
131,173,56065,2,0,P|138:110|150:53,1,112.500004291535,2|0,0:1|0:0,0:0:0:0:
334,117,56611,2,0,P|271:124|214:136,1,112.500004291535,8|0,0:1|0:0,0:0:0:0:
441,339,57156,6,0,P|441:307|439:283,1,56.2500021457673,6|2,0:1|0:0,0:0:0:0:
350,189,57429,2,0,P|347:217|347:245,1,56.2500021457673,2|2,0:0|0:0,0:0:0:0:
283,355,57702,1,10,0:1:0:0:
438,282,57974,1,2,0:0:0:0:
254,224,58247,2,0,P|187:230|134:245,1,112.500004291535,2|0,0:1|0:0,0:0:0:0:
339,160,58793,1,10,0:1:0:0:
266,334,59065,1,2,0:0:0:0:
185,89,59338,6,0,P|186:50|191:23,1,56.2500021457673,6|2,0:1|0:0,0:0:0:0:
87,110,59611,2,0,P|90:137|90:165,1,56.2500021457673,2|2,0:0|0:0,0:0:0:0:
185,245,59884,2,0,P|186:206|191:179,1,56.2500021457673,10|2,0:1|0:0,0:0:0:0:
87,266,60156,2,0,P|90:293|90:321,1,56.2500021457673,2|0,0:0|0:0,0:0:0:0:
255,357,60429,2,0,P|302:346|374:344,1,112.500004291535,2|0,0:1|0:0,0:0:0:0:
483,186,60974,1,10,0:1:0:0:
512,353,61247,1,2,0:0:0:0:
318,168,61520,6,0,P|310:116|315:37,1,112.500004291535,6|0,0:1|0:0,0:0:0:0:
235,219,62065,2,0,P|237:252|234:289,1,56.2500021457673,10|2,0:1|0:0,0:0:0:0:
166,166,62338,2,0,P|169:138|176:110,1,56.2500021457673,2|0,0:0|0:0,0:0:0:0:
62,33,62611,2,0,P|84:86|81:158,1,112.500004291535,2|0,0:1|0:0,0:0:0:0:
88,324,63156,2,0,P|89:268|111:216,1,112.500004291535,8|0,0:1|0:0,0:0:0:0:
258,63,63702,6,0,P|294:53|323:50,1,56.2500021457673,6|2,0:1|0:0,0:0:0:0:
424,143,63975,2,0,P|388:133|359:130,1,56.2500021457673,2|2,0:0|0:0,0:0:0:0:
266,214,64248,1,8,0:1:0:0:
422,332,64521,1,2,0:0:0:0:
424,143,64793,2,0,P|431:80|443:23,1,112.500004291535,2|0,0:1|0:0,0:0:0:0:
263,133,65338,2,0,P|273:188|279:244,1,112.500004291535,8|0,0:1|0:0,0:0:0:0:
150,364,65884,6,0,P|118:364|94:362,1,56.2500021457673,6|2,0:1|0:0,0:0:0:0:
0,273,66157,2,0,P|28:270|56:270,1,56.2500021457673,2|2,0:0|0:0,0:0:0:0:
182,203,66430,1,8,0:1:0:0:
93,361,66702,1,2,0:0:0:0:
57,175,66975,2,0,P|63:108|67:58,1,112.500004291535,2|0,0:1|0:0,0:0:0:0:
0,249,67521,1,10,0:1:0:0:
152,180,67793,1,2,0:0:0:0:
33,52,68065,6,0,P|30:77|39:122,1,56.2500021457673,6|2,0:1|0:0,0:0:0:0:
150,235,68338,2,0,P|153:207|151:179,1,56.2500021457673,2|2,0:0|0:0,0:0:0:0:
11,204,68611,2,0,P|36:207|81:198,1,56.2500021457673,10|2,0:1|0:0,0:0:0:0:
194,87,68884,2,0,P|166:83|138:85,1,56.2500021457673,2|0,0:0|0:0,0:0:0:0:
259,192,69156,1,2,0:1:0:0:
259,192,69702,5,6,0:0:0:0:
240,270,69838,1,2,0:0:0:0:
284,338,69974,1,2,0:0:0:0:
363,354,70111,1,2,0:0:0:0:
429,308,70247,6,0,P|432:275|432:240,1,67.4999979400635,6|0,0:1|0:0,0:0:0:0:
344,120,70520,2,0,P|343:153|347:187,1,67.4999979400635,2|0,0:0|0:0,0:0:0:0:
398,29,70793,1,8,0:1:0:0:
398,29,70929,1,0,0:0:0:0:
263,78,71065,1,2,0:0:0:0:
263,78,71202,1,0,0:0:0:0:
431,203,71338,6,0,P|466:197|503:190,1,67.4999979400635,2|0,3:1|0:0,0:0:0:0:
300,280,71611,2,0,P|333:286|366:291,1,67.4999979400635,2|0,0:0|0:0,0:0:0:0:
474,168,71884,2,0,P|441:175|408:179,1,67.4999979400635,8|0,0:1|0:0,0:0:0:0:
343,314,72157,2,0,P|310:309|277:303,1,67.4999979400635,2|0,0:0|0:0,0:0:0:0:
148,156,72429,6,0,P|147:119|148:77,1,67.4999979400635,2|0,0:1|0:0,0:0:0:0:
31,217,72702,2,0,P|33:253|37:295,1,67.4999979400635,2|0,0:0|0:0,0:0:0:0:
193,346,72974,1,8,0:1:0:0:
193,346,73111,1,0,0:0:0:0:
115,222,73247,1,2,0:0:0:0:
115,222,73384,1,0,0:0:0:0:
388,123,73520,6,0,P|349:119|308:115,1,67.4999979400635,2|0,3:1|0:0,0:0:0:0:
218,206,73793,2,0,P|251:209|285:212,1,67.4999979400635,2|0,0:0|0:0,0:0:0:0:
418,94,74065,2,0,P|379:90|338:86,1,67.4999979400635,8|0,0:1|0:0,0:0:0:0:
188,235,74338,2,0,P|221:238|255:241,1,67.4999979400635,2|0,0:0|0:0,0:0:0:0:
407,308,74611,5,6,0:1:0:0:
407,308,74747,1,0,0:0:0:0:
407,308,74884,2,0,P|396:253|400:221,1,67.4999979400635,2|0,0:0|0:0,0:0:0:0:
478,105,75156,1,8,0:1:0:0:
478,105,75292,1,0,0:0:0:0:
478,105,75429,2,0,P|476:138|467:171,1,67.4999979400635,2|0,0:0|0:0,0:0:0:0:
266,281,75702,6,0,P|236:261|204:241,1,67.4999979400635,2|0,3:1|0:0,0:0:0:0:
355,193,75974,2,0,P|326:174|298:156,1,67.4999979400635,2|0,0:0|0:0,0:0:0:0:
232,297,76247,2,0,P|202:277|170:257,1,67.4999979400635,8|0,0:1|0:0,0:0:0:0:
322,209,76519,2,0,P|293:190|265:172,1,67.4999979400635,2|0,0:0|0:0,0:0:0:0:
91,47,76793,5,6,0:1:0:0:
91,47,76929,1,0,0:0:0:0:
91,47,77066,2,0,P|102:102|98:134,1,67.4999979400635,2|0,0:0|0:0,0:0:0:0:
12,292,77338,1,10,0:1:0:0:
12,292,77474,1,0,0:0:0:0:
12,292,77611,2,0,P|14:259|23:226,1,67.4999979400635,2|0,0:0|0:0,0:0:0:0:
231,320,77884,6,0,P|261:325|305:321,1,67.4999979400635,2|0,0:1|0:0,0:0:0:0:
438,181,78156,2,0,P|404:179|371:184,1,67.4999979400635,2|0,0:0|0:0,0:0:0:0:
405,362,78429,2,0,P|410:332|406:288,1,67.4999979400635,10|0,0:1|0:0,0:0:0:0:
262,154,78701,2,0,P|259:188|264:221,1,67.4999979400635,2|0,0:0|0:0,0:0:0:0:
124,349,78974,6,0,P|84:350|56:352,1,67.4999979400635,2|0,0:1|0:0,0:0:0:0:
0,240,79247,2,0,P|40:241|68:243,1,67.4999979400635,2|0,0:0|0:0,0:0:0:0:
204,146,79520,1,8,0:1:0:0:
204,146,79656,1,0,0:0:0:0:
176,276,79792,1,2,0:0:0:0:
176,276,79929,1,0,0:0:0:0:
78,111,80065,6,0,P|72:76|65:39,1,67.4999979400635,2|0,3:1|0:0,0:0:0:0:
215,212,80338,2,0,P|209:179|204:146,1,67.4999979400635,2|0,0:0|0:0,0:0:0:0:
43,68,80611,2,0,P|50:101|54:134,1,67.4999979400635,8|0,0:1|0:0,0:0:0:0:
181,169,80884,2,0,P|186:202|192:235,1,67.4999979400635,2|0,0:0|0:0,0:0:0:0:
340,366,81156,6,0,P|377:367|419:366,1,67.4999979400635,6|0,0:1|0:0,0:0:0:0:
475,271,81429,2,0,P|439:269|397:265,1,67.4999979400635,2|0,0:0|0:0,0:0:0:0:
317,135,81701,1,8,0:1:0:0:
317,135,81838,1,0,0:0:0:0:
259,246,81974,1,2,0:0:0:0:
259,246,82111,1,0,0:0:0:0:
471,201,82248,6,0,P|475:162|479:121,1,67.4999979400635,2|0,3:1|0:0,0:0:0:0:
323,67,82520,2,0,P|320:100|317:134,1,67.4999979400635,2|0,0:0|0:0,0:0:0:0:
500,231,82793,2,0,P|504:192|508:151,1,67.4999979400635,8|0,0:1|0:0,0:0:0:0:
294,37,83065,2,0,P|291:70|288:104,1,67.4999979400635,2|0,0:0|0:0,0:0:0:0:
203,289,83338,5,6,0:1:0:0:
203,289,83474,1,0,0:0:0:0:
203,289,83611,2,0,P|148:278|116:282,1,67.4999979400635,2|0,0:0|0:0,0:0:0:0:
0,360,83883,1,8,0:1:0:0:
0,360,84019,1,0,0:0:0:0:
0,360,84156,2,0,P|33:358|66:349,1,67.4999979400635,2|0,0:0|0:0,0:0:0:0:
250,304,84429,6,0,P|285:301|323:300,1,67.4999979400635,2|0,3:1|0:0,0:0:0:0:
148,145,84702,2,0,P|182:143|215:141,1,67.4999979400635,2|0,0:0|0:0,0:0:0:0:
271,334,84974,2,0,P|306:331|344:330,1,67.4999979400635,8|0,0:1|0:0,0:0:0:0:
169,175,85247,2,0,P|203:173|236:171,1,67.4999979400635,2|0,0:0|0:0,0:0:0:0:
454,190,85520,5,6,0:1:0:0:
454,190,85656,1,0,0:0:0:0:
454,190,85793,2,0,P|457:229|448:275,1,67.4999979400635,2|0,0:0|0:0,0:0:0:0:
270,351,86065,1,10,0:1:0:0:
270,351,86201,1,0,0:0:0:0:
270,351,86338,2,0,P|266:318|269:284,1,67.4999979400635,2|0,0:0|0:0,0:0:0:0:
241,41,86611,6,0,P|211:36|167:40,1,67.4999979400635,2|0,0:1|0:0,0:0:0:0:
51,189,86883,2,0,P|85:191|118:186,1,67.4999979400635,2|0,0:0|0:0,0:0:0:0:
82,5,87156,2,0,P|77:35|81:79,1,67.4999979400635,10|0,0:1|0:0,0:0:0:0:
211,201,87428,2,0,P|214:167|209:134,1,67.4999979400635,2|0,0:0|0:0,0:0:0:0:
48,284,87702,6,0,P|106:277|191:276,1,120,4|0,0:2|0:0,0:0:0:0:
236,323,88520,2,0,P|301:346|365:202,1,240,2|0,0:0|0:0,0:0:0:0:
309,132,89884,2,0,P|301:89|338:10,1,120,4|0,0:0|0:0,0:0:0:0:
409,93,90702,2,0,P|314:88|206:83,1,180,2|0,0:0|0:0,0:0:0:0:
169,143,91793,1,0,0:0:0:0:
273,286,92065,6,0,P|281:232|236:171,1,120,4|0,0:0|0:0,0:0:0:0:
169,143,92884,2,0,P|289:138|373:133,1,180,2|0,0:0|0:0,0:0:0:0:
447,96,93974,1,0,2:0:0:0:
406,307,94247,2,0,P|402:252|412:176,1,120,4|0,0:0|0:0,0:0:0:0:
447,96,95065,1,0,0:0:0:0:
