osu file format v14

[General]
AudioFilename: audio.mp3
AudioLeadIn: 0
PreviewTime: 69702
Countdown: 0
SampleSet: Soft
StackLeniency: 0.7
Mode: 0
LetterboxInBreaks: 0
EpilepsyWarning: 1
WidescreenStoryboard: 1

[Editor]
DistanceSpacing: 1.6
BeatDivisor: 4
GridSize: 4
TimelineZoom: 1

[Metadata]
Title:ILY
TitleUnicode:ILY
Artist:Panda Eyes
ArtistUnicode:Panda Eyes
Creator:M a r v o l l o
Version:Hyper
Source:
Tags:shmiklak marvollo m_a_r_v_o_l_l_o fanteer drumstep Dnb Melodic Electro Dubstep harmonic war ep namki smau5
BeatmapID:1385415
BeatmapSetID:653534

[Difficulty]
HPDrainRate:5.5
CircleSize:4
OverallDifficulty:6.5
ApproachRate:8
SliderMultiplier:1.4
SliderTickRate:1

[Events]
//Background and Video events
0,0,"wallhaven-294805.jpeg",0,0
//Break Periods
//Storyboard Layer 0 (Background)
//Storyboard Layer 1 (Fail)
//Storyboard Layer 2 (Pass)
//Storyboard Layer 3 (Foreground)
Sprite,Foreground,Centre,"sb\ring.png",0,0 M,0,454,,108,108 F,0,454,,1 C,0,454,,255,255,255 S,7,454,2454,0.25,1.5 F,0,455,2455,1,0 M,0,2635,,536,327 F,0,2635,,1 C,0,2635,,255,255,255 S,7,2635,4635,0.25,1.5 F,0,2636,4636,1,0 M,0,4817,,266,216 F,0,4817,,1 C,0,4817,,255,255,255 S,7,4817,6817,0.25,1.5 F,0,4818,6818,1,0 M,0,6999,,364,428 F,0,6999,,1 C,0,6999,,255,255,255 S,7,6999,8999,0.25,1.5 F,0,7000,9000,1,0 M,0,9181,,112,208 F,0,9181,,1 C,0,9181,,255,255,255 S,7,9181,11181,0.25,1.5 F,0,9182,11182,1,0 M,0,11363,,337,162 F,0,11363,,1 C,0,11363,,255,255,255 S,7,11363,13363,0.25,1.5 F,0,11364,13364,1,0 M,0,13544,,558,254 F,0,13544,,1 C,0,13544,,255,255,255 S,7,13544,15544,0.25,1.5 F,0,13545,15545,1,0 M,0,15726,,96,212 F,0,15726,,1 C,0,15726,,255,255,255 S,7,15726,17726,0.25,1.5 F,0,15727,17727,1,0 M,0,17884,,408,260 F,0,17884,,1 C,0,17884,,255,255,255 S,7,17884,19884,0.25,1.5 F,0,17885,19885,1,0 M,0,20066,,100,420 F,0,20066,,1 C,0,20066,,255,255,255 S,7,20066,22066,0.25,1.5 F,0,20067,22067,1,0 M,0,22247,,260,360 F,0,22247,,1 C,0,22247,,255,255,255 S,7,22247,24247,0.25,1.5 F,0,22248,24248,1,0 M,0,24429,,241,298 F,0,24429,,1 C,0,24429,,255,255,255 S,7,24429,26429,0.25,1.5 F,0,24430,26430,1,0 M,0,26611,,512,208 F,0,26611,,1 C,0,26611,,255,255,255 S,7,26611,28611,0.25,1.5 F,0,26612,28612,1,0 M,0,28793,,228,336 F,0,28793,,1 C,0,28793,,255,255,255 S,7,28793,30793,0.25,1.5 F,0,28794,30794,1,0 M,0,30975,,180,252 F,0,30975,,1 C,0,30975,,255,255,255 S,7,30975,32975,0.25,1.5 F,0,30976,32976,1,0 M,0,33157,,531,324 F,0,33157,,1 C,0,33157,,255,255,255 S,7,33157,35157,0.25,1.5 F,0,33158,35158,1,0
Sprite,Foreground,Centre,"sb\ring.png",0,0 M,0,1272,,243,208 F,0,1272,,1 C,0,1272,,255,255,255 S,7,1272,3272,0.25,1.5 F,0,1273,3273,1,0 M,0,3454,,305,330 F,0,3454,,1 C,0,3454,,255,255,255 S,7,3454,5454,0.25,1.5 F,0,3455,5455,1,0 M,0,5635,,455,152 F,0,5635,,1 C,0,5635,,255,255,255 S,7,5635,7635,0.25,1.5 F,0,5636,7636,1,0 M,0,7817,,300,237 F,0,7817,,1 C,0,7817,,255,255,255 S,7,7817,9817,0.25,1.5 F,0,7818,9818,1,0 M,0,9999,,301,270 F,0,9999,,1 C,0,9999,,255,255,255 S,7,9999,11999,0.25,1.5 F,0,10000,12000,1,0 M,0,12181,,479,260 F,0,12181,,1 C,0,12181,,255,255,255 S,7,12181,14181,0.25,1.5 F,0,12182,14182,1,0 M,0,14363,,367,316 F,0,14363,,1 C,0,14363,,255,255,255 S,7,14363,16363,0.25,1.5 F,0,14364,16364,1,0 M,0,16544,,285,148 F,0,16544,,1 C,0,16544,,255,255,255 S,7,16544,18544,0.25,1.5 F,0,16545,18545,1,0 M,0,18702,,508,308 F,0,18702,,1 C,0,18702,,255,255,255 S,7,18702,20702,0.25,1.5 F,0,18703,20703,1,0 M,0,20883,,184,212 F,0,20883,,1 C,0,20883,,255,255,255 S,7,20883,22883,0.25,1.5 F,0,20884,22884,1,0 M,0,23066,,240,136 F,0,23066,,1 C,0,23066,,255,255,255 S,7,23066,25066,0.25,1.5 F,0,23067,25067,1,0 M,0,25247,,132,102 F,0,25247,,1 C,0,25247,,255,255,255 S,7,25247,27247,0.25,1.5 F,0,25248,27248,1,0 M,0,27429,,364,376 F,0,27429,,1 C,0,27429,,255,255,255 S,7,27429,29429,0.25,1.5 F,0,27430,29430,1,0 M,0,29611,,376,168 F,0,29611,,1 C,0,29611,,255,255,255 S,7,29611,31611,0.25,1.5 F,0,29612,31612,1,0 M,0,31793,,320,80 F,0,31793,,1 C,0,31793,,255,255,255 S,7,31793,33793,0.25,1.5 F,0,31794,33794,1,0 M,0,33974,,320,404 F,0,33974,,1 C,0,33974,,255,255,255 S,7,33974,35974,0.25,1.5 F,0,33975,35975,1,0
Sprite,Foreground,Centre,"sb\ring.png",0,0 M,0,87702,,69,374 F,0,87702,,1 C,0,87702,,255,255,255 S,7,87702,89702,0.25,1.5 F,0,87703,89703,1,0 M,0,89884,,468,384 F,0,89884,,1 C,0,89884,,255,255,255 S,7,89884,91884,0.25,1.5 F,0,89885,91885,1,0 M,0,92065,,356,203 F,0,92065,,1 C,0,92065,,255,255,255 S,7,92065,94065,0.25,1.5 F,0,92066,94066,1,0 M,0,94247,,256,328 F,0,94247,,1 C,0,94247,,255,255,255 S,7,94247,96247,0.25,1.5 F,0,94248,96248,1,0
Sprite,Foreground,Centre,"sb\ring.png",0,0 M,0,88520,,240,300 F,0,88520,,1 C,0,88520,,255,255,255 S,7,88520,90520,0.25,1.5 F,0,88521,90521,1,0 M,0,90702,,308,324 F,0,90702,,1 C,0,90702,,255,255,255 S,7,90702,92702,0.25,1.5 F,0,90703,92703,1,0 M,0,92884,,184,138 F,0,92884,,1 C,0,92884,,255,255,255 S,7,92884,94884,0.25,1.5 F,0,92885,94885,1,0 M,0,95065,,200,152 F,0,95065,,1 C,0,95065,,255,255,255 S,7,95065,97065,0.25,1.5 F,0,95066,97066,1,0
Sprite,Foreground,Centre,"sb\Lhighlight.png",320,0 F,0,0,,0 F,0,0,,0 F,0,0,,0 F,0,0,,0 F,0,0,,0 F,0,0,,0 F,0,0,,0 F,0,0,,0 F,0,0,,0 F,0,0,,0 F,0,0,,0 F,0,0,,0 F,0,0,,0 F,0,0,,0 F,0,0,,0 F,0,0,,0 F,0,0,,0 F,0,0,,0 F,0,0,,0 F,0,0,,0 F,0,0,,0 F,0,0,,0 F,0,0,,0 F,0,0,,0 F,0,0,,0 F,0,0,,0 F,0,0,,0 F,0,0,,0 F,0,0,,0 F,0,0,,0 F,0,0,,0 F,0,0,,0 F,0,0,,0 R,0,70247,,1.5708 MY,0,70247,,412 V,0,70247,,2,4 F,0,70247,70747,1,0 R,0,70793,,1.5708 MY,0,70793,,246 V,0,70793,,2,4 F,0,70793,71293,1,0 R,0,71338,,1.5708 MY,0,71338,,192 V,0,71338,,2,4 F,0,71338,71838,1,0 R,0,71884,,1.5708 MY,0,71884,,192 V,0,71884,,2,4 F,0,71884,72384,1,0 R,0,72429,,1.5708 MY,0,72429,,368 V,0,72429,,2,4 F,0,72429,72929,1,0 R,0,72974,,1.5708 MY,0,72974,,400 V,0,72974,,2,4 F,0,72974,73474,1,0 R,0,73520,,1.5708 MY,0,73520,,223 V,0,73520,,2,4 F,0,73520,74020,1,0 R,0,74065,,1.5708 MY,0,74065,,81 V,0,74065,,2,4 F,0,74065,74565,1,0 R,0,74611,,1.5708 MY,0,74611,,291 V,0,74611,,2,4 F,0,74611,75111,1,0 R,0,75156,,1.5708 MY,0,75156,,387 V,0,75156,,2,4 F,0,75156,75656,1,0 R,0,75702,,1.5708 MY,0,75702,,285 V,0,75702,,2,4 F,0,75702,76202,1,0 R,0,76247,,1.5708 MY,0,76247,,381 V,0,76247,,2,4 F,0,76247,76747,1,0 R,0,76793,,1.5708 MY,0,76793,,187 V,0,76793,,2,4 F,0,76793,77293,1,0 R,0,77338,,1.5708 MY,0,77338,,127 V,0,77338,,2,4 F,0,77338,77838,1,0 R,0,77884,,1.5708 MY,0,77884,,209 V,0,77884,,2,4 F,0,77884,78384,1,0 R,0,78429,,1.5708 MY,0,78429,,318 V,0,78429,,2,4 F,0,78429,78929,1,0 R,0,78974,,1.5708 MY,0,78974,,411 V,0,78974,,2,4 F,0,78974,79474,1,0 R,0,79520,,1.5708 MY,0,79520,,201 V,0,79520,,2,4 F,0,79520,80020,1,0 R,0,80065,,1.5708 MY,0,80065,,370 V,0,80065,,2,4 F,0,80065,80565,1,0 R,0,80611,,1.5708 MY,0,80611,,197 V,0,80611,,2,4 F,0,80611,81111,1,0 R,0,81156,,1.5708 MY,0,81156,,218 V,0,81156,,2,4 F,0,81156,81656,1,0 R,0,81701,,1.5708 MY,0,81701,,408 V,0,81701,,2,4 F,0,81701,82201,1,0 R,0,82247,,1.5708 MY,0,82247,,216 V,0,82247,,2,4 F,0,82247,82747,1,0 R,0,82793,,1.5708 MY,0,82793,,84 V,0,82793,,2,4 F,0,82793,83293,1,0 R,0,83338,,1.5708 MY,0,83338,,312 V,0,83338,,2,4 F,0,83338,83838,1,0 R,0,83883,,1.5708 MY,0,83883,,384 V,0,83883,,2,4 F,0,83883,84383,1,0 R,0,84429,,1.5708 MY,0,84429,,267 V,0,84429,,2,4 F,0,84429,84929,1,0 R,0,84974,,1.5708 MY,0,84974,,173 V,0,84974,,2,4 F,0,84974,85474,1,0 R,0,85520,,1.5708 MY,0,85520,,345 V,0,85520,,2,4 F,0,85520,86020,1,0 R,0,86065,,1.5708 MY,0,86065,,246 V,0,86065,,2,4 F,0,86065,86565,1,0 R,0,86611,,1.5708 MY,0,86611,,148 V,0,86611,,2,4 F,0,86611,87111,1,0 R,0,87156,,1.5708 MY,0,87156,,220 V,0,87156,,2,4 F,0,87156,87656,1,0 R,0,87702,,1.5708 MY,0,87702,,374 V,0,87702,,2,4 F,0,87702,88202,1,0
Sprite,Foreground,Centre,"sb\Lhighlight.png",320,0 F,0,0,,0 F,0,0,,0 F,0,0,,0 F,0,0,,0 F,0,0,,0 F,0,0,,0 F,0,0,,0 F,0,0,,0 F,0,0,,0 F,0,0,,0 F,0,0,,0 F,0,0,,0 F,0,0,,0 F,0,0,,0 F,0,0,,0 F,0,0,,0 F,0,0,,0 F,0,0,,0 F,0,0,,0 F,0,0,,0 F,0,0,,0 F,0,0,,0 F,0,0,,0 F,0,0,,0 F,0,0,,0 F,0,0,,0 F,0,0,,0 F,0,0,,0 R,0,71065,,1.5708 MY,0,71065,,116 V,0,71065,,2,4 F,0,71065,71565,1,0 R,0,71610,,1.5708 MY,0,71610,,171 V,0,71610,,2,4 F,0,71610,72110,1,0 R,0,72156,,1.5708 MY,0,72156,,310 V,0,72156,,2,4 F,0,72156,72656,1,0 R,0,73247,,1.5708 MY,0,73247,,308 V,0,73247,,2,4 F,0,73247,73747,1,0 R,0,73793,,1.5708 MY,0,73793,,131 V,0,73793,,2,4 F,0,73793,74293,1,0 R,0,74338,,1.5708 MY,0,74338,,173 V,0,74338,,2,4 F,0,74338,74838,1,0 R,0,74884,,1.5708 MY,0,74884,,291 V,0,74884,,2,4 F,0,74884,75384,1,0 R,0,75429,,1.5708 MY,0,75429,,387 V,0,75429,,2,4 F,0,75429,75929,1,0 R,0,75975,,1.5708 MY,0,75975,,285 V,0,75975,,2,4 F,0,75975,76475,1,0 R,0,76520,,1.5708 MY,0,76520,,381 V,0,76520,,2,4 F,0,76520,77020,1,0 R,0,77065,,1.5708 MY,0,77065,,187 V,0,77065,,2,4 F,0,77065,77565,1,0 R,0,77610,,1.5708 MY,0,77610,,127 V,0,77610,,2,4 F,0,77610,78110,1,0 R,0,78156,,1.5708 MY,0,78156,,209 V,0,78156,,2,4 F,0,78156,78656,1,0 R,0,78701,,1.5708 MY,0,78701,,318 V,0,78701,,2,4 F,0,78701,79201,1,0 R,0,79792,,1.5708 MY,0,79792,,252 V,0,79792,,2,4 F,0,79792,80292,1,0 R,0,80337,,1.5708 MY,0,80337,,278 V,0,80337,,2,4 F,0,80337,80837,1,0 R,0,80883,,1.5708 MY,0,80883,,105 V,0,80883,,2,4 F,0,80883,81383,1,0 R,0,81974,,1.5708 MY,0,81974,,335 V,0,81974,,2,4 F,0,81974,82474,1,0 R,0,82520,,1.5708 MY,0,82520,,131 V,0,82520,,2,4 F,0,82520,83020,1,0 R,0,83065,,1.5708 MY,0,83065,,132 V,0,83065,,2,4 F,0,83065,83565,1,0 R,0,83611,,1.5708 MY,0,83611,,312 V,0,83611,,2,4 F,0,83611,84111,1,0 R,0,84156,,1.5708 MY,0,84156,,384 V,0,84156,,2,4 F,0,84156,84656,1,0 R,0,84702,,1.5708 MY,0,84702,,267 V,0,84702,,2,4 F,0,84702,85202,1,0 R,0,85247,,1.5708 MY,0,85247,,173 V,0,85247,,2,4 F,0,85247,85747,1,0 R,0,85792,,1.5708 MY,0,85792,,345 V,0,85792,,2,4 F,0,85792,86292,1,0 R,0,86337,,1.5708 MY,0,86337,,246 V,0,86337,,2,4 F,0,86337,86837,1,0 R,0,86883,,1.5708 MY,0,86883,,148 V,0,86883,,2,4 F,0,86883,87383,1,0 R,0,87428,,1.5708 MY,0,87428,,220 V,0,87428,,2,4 F,0,87428,87928,1,0
Sprite,Foreground,Centre,"sb\Lhighlight.png",320,0 F,0,0,,0 F,0,0,,0 F,0,0,,0 F,0,0,,0 F,0,0,,0 F,0,0,,0 F,0,0,,0 F,0,0,,0 F,0,0,,0 F,0,0,,0 F,0,0,,0 F,0,0,,0 F,0,0,,0 F,0,0,,0 F,0,0,,0 F,0,0,,0 F,0,0,,0 F,0,0,,0 R,0,72156,,1.5708 MY,0,72156,,310 V,0,72156,,2,4 F,0,72156,72656,1,0 R,0,74338,,1.5708 MY,0,74338,,173 V,0,74338,,2,4 F,0,74338,74838,1,0 R,0,74884,,1.5708 MY,0,74884,,291 V,0,74884,,2,4 F,0,74884,75384,1,0 R,0,75838,,1.5708 MY,0,75838,,285 V,0,75838,,2,4 F,0,75838,76338,1,0 R,0,76383,,1.5708 MY,0,76383,,381 V,0,76383,,2,4 F,0,76383,76883,1,0 R,0,76929,,1.5708 MY,0,76929,,187 V,0,76929,,2,4 F,0,76929,77429,1,0 R,0,77474,,1.5708 MY,0,77474,,127 V,0,77474,,2,4 F,0,77474,77974,1,0 R,0,78020,,1.5708 MY,0,78020,,209 V,0,78020,,2,4 F,0,78020,78520,1,0 R,0,78565,,1.5708 MY,0,78565,,318 V,0,78565,,2,4 F,0,78565,79065,1,0 R,0,80883,,1.5708 MY,0,80883,,105 V,0,80883,,2,4 F,0,80883,81383,1,0 R,0,83065,,1.5708 MY,0,83065,,132 V,0,83065,,2,4 F,0,83065,83565,1,0 R,0,83611,,1.5708 MY,0,83611,,312 V,0,83611,,2,4 F,0,83611,84111,1,0 R,0,84565,,1.5708 MY,0,84565,,267 V,0,84565,,2,4 F,0,84565,85065,1,0 R,0,85110,,1.5708 MY,0,85110,,173 V,0,85110,,2,4 F,0,85110,85610,1,0 R,0,85656,,1.5708 MY,0,85656,,345 V,0,85656,,2,4 F,0,85656,86156,1,0 R,0,86201,,1.5708 MY,0,86201,,246 V,0,86201,,2,4 F,0,86201,86701,1,0 R,0,86747,,1.5708 MY,0,86747,,148 V,0,86747,,2,4 F,0,86747,87247,1,0 R,0,87292,,1.5708 MY,0,87292,,220 V,0,87292,,2,4 F,0,87292,87792,1,0
Sprite,Foreground,Centre,"sb\Lhighlight.png",320,0 F,0,0,,0 F,0,0,,0 F,0,0,,0 F,0,0,,0 F,0,0,,0 F,0,0,,0 F,0,0,,0 F,0,0,,0 F,0,0,,0 F,0,0,,0 F,0,0,,0 F,0,0,,0 R,0,72176,,1.5708 MY,0,72176,,314 V,0,72176,,2,4 F,0,72176,72656,0.9,0 R,0,74358,,1.5708 MY,0,74358,,177 V,0,74358,,2,4 F,0,74358,74838,0.9,0 R,0,74904,,1.5708 MY,0,74904,,295 V,0,74904,,2,4 F,0,74904,75384,0.9,0 R,0,76520,,1.5708 MY,0,76520,,381 V,0,76520,,2,4 F,0,76520,77020,1,0 R,0,77065,,1.5708 MY,0,77065,,187 V,0,77065,,2,4 F,0,77065,77565,1,0 R,0,78701,,1.5708 MY,0,78701,,318 V,0,78701,,2,4 F,0,78701,79201,1,0 R,0,80903,,1.5708 MY,0,80903,,109 V,0,80903,,2,4 F,0,80903,81383,0.9,0 R,0,83085,,1.5708 MY,0,83085,,136 V,0,83085,,2,4 F,0,83085,83565,0.9,0 R,0,83631,,1.5708 MY,0,83631,,316 V,0,83631,,2,4 F,0,83631,84111,0.9,0 R,0,85247,,1.5708 MY,0,85247,,173 V,0,85247,,2,4 F,0,85247,85747,1,0 R,0,85792,,1.5708 MY,0,85792,,345 V,0,85792,,2,4 F,0,85792,86292,1,0 R,0,87428,,1.5708 MY,0,87428,,220 V,0,87428,,2,4 F,0,87428,87928,1,0
Sprite,Foreground,Centre,"sb\Lhighlight.png",320,0 F,0,0,,0 F,0,0,,0 F,0,0,,0 F,0,0,,0 F,0,0,,0 F,0,0,,0 F,0,0,,0 F,0,0,,0 F,0,0,,0 F,0,0,,0 F,0,0,,0 F,0,0,,0 R,0,72196,,1.5708 MY,0,72196,,302 V,0,72196,,2,4 F,0,72196,72656,0.8,0 R,0,74378,,1.5708 MY,0,74378,,165 V,0,74378,,2,4 F,0,74378,74838,0.8,0 R,0,74924,,1.5708 MY,0,74924,,283 V,0,74924,,2,4 F,0,74924,75384,0.8,0 R,0,76540,,1.5708 MY,0,76540,,385 V,0,76540,,2,4 F,0,76540,77020,0.9,0 R,0,77085,,1.5708 MY,0,77085,,191 V,0,77085,,2,4 F,0,77085,77565,0.9,0 R,0,78721,,1.5708 MY,0,78721,,322 V,0,78721,,2,4 F,0,78721,79201,0.9,0 R,0,80923,,1.5708 MY,0,80923,,97 V,0,80923,,2,4 F,0,80923,81383,0.8,0 R,0,83105,,1.5708 MY,0,83105,,124 V,0,83105,,2,4 F,0,83105,83565,0.8,0 R,0,83651,,1.5708 MY,0,83651,,304 V,0,83651,,2,4 F,0,83651,84111,0.8,0 R,0,85267,,1.5708 MY,0,85267,,177 V,0,85267,,2,4 F,0,85267,85747,0.9,0 R,0,85812,,1.5708 MY,0,85812,,349 V,0,85812,,2,4 F,0,85812,86292,0.9,0 R,0,87448,,1.5708 MY,0,87448,,224 V,0,87448,,2,4 F,0,87448,87928,0.9,0
Sprite,Foreground,Centre,"sb\Lhighlight.png",320,0 F,0,0,,0 F,0,0,,0 F,0,0,,0 F,0,0,,0 F,0,0,,0 F,0,0,,0 F,0,0,,0 F,0,0,,0 F,0,0,,0 F,0,0,,0 F,0,0,,0 F,0,0,,0 R,0,72216,,1.5708 MY,0,72216,,322 V,0,72216,,2,4 F,0,72216,72656,0.7,0 R,0,74398,,1.5708 MY,0,74398,,185 V,0,74398,,2,4 F,0,74398,74838,0.7,0 R,0,74944,,1.5708 MY,0,74944,,303 V,0,74944,,2,4 F,0,74944,75384,0.7,0 R,0,76560,,1.5708 MY,0,76560,,373 V,0,76560,,2,4 F,0,76560,77020,0.8,0 R,0,77105,,1.5708 MY,0,77105,,179 V,0,77105,,2,4 F,0,77105,77565,0.8,0 R,0,78741,,1.5708 MY,0,78741,,310 V,0,78741,,2,4 F,0,78741,79201,0.8,0 R,0,80943,,1.5708 MY,0,80943,,117 V,0,80943,,2,4 F,0,80943,81383,0.7,0 R,0,83125,,1.5708 MY,0,83125,,144 V,0,83125,,2,4 F,0,83125,83565,0.7,0 R,0,83671,,1.5708 MY,0,83671,,324 V,0,83671,,2,4 F,0,83671,84111,0.7,0 R,0,85287,,1.5708 MY,0,85287,,165 V,0,85287,,2,4 F,0,85287,85747,0.8,0 R,0,85832,,1.5708 MY,0,85832,,337 V,0,85832,,2,4 F,0,85832,86292,0.8,0 R,0,87468,,1.5708 MY,0,87468,,212 V,0,87468,,2,4 F,0,87468,87928,0.8,0
Sprite,Foreground,Centre,"sb\Lhighlight.png",320,0 F,0,0,,0 F,0,0,,0 F,0,0,,0 F,0,0,,0 F,0,0,,0 F,0,0,,0 F,0,0,,0 F,0,0,,0 F,0,0,,0 F,0,0,,0 F,0,0,,0 F,0,0,,0 R,0,72236,,1.5708 MY,0,72236,,294 V,0,72236,,2,4 F,0,72236,72656,0.6,0 R,0,74418,,1.5708 MY,0,74418,,157 V,0,74418,,2,4 F,0,74418,74838,0.6,0 R,0,74964,,1.5708 MY,0,74964,,275 V,0,74964,,2,4 F,0,74964,75384,0.6,0 R,0,76580,,1.5708 MY,0,76580,,393 V,0,76580,,2,4 F,0,76580,77020,0.7,0 R,0,77125,,1.5708 MY,0,77125,,199 V,0,77125,,2,4 F,0,77125,77565,0.7,0 R,0,78761,,1.5708 MY,0,78761,,330 V,0,78761,,2,4 F,0,78761,79201,0.7,0 R,0,80963,,1.5708 MY,0,80963,,89 V,0,80963,,2,4 F,0,80963,81383,0.6,0 R,0,83145,,1.5708 MY,0,83145,,116 V,0,83145,,2,4 F,0,83145,83565,0.6,0 R,0,83691,,1.5708 MY,0,83691,,296 V,0,83691,,2,4 F,0,83691,84111,0.6,0 R,0,85307,,1.5708 MY,0,85307,,185 V,0,85307,,2,4 F,0,85307,85747,0.7,0 R,0,85852,,1.5708 MY,0,85852,,357 V,0,85852,,2,4 F,0,85852,86292,0.7,0 R,0,87488,,1.5708 MY,0,87488,,232 V,0,87488,,2,4 F,0,87488,87928,0.7,0
Sprite,Foreground,Centre,"sb\Lhighlight.png",320,0 F,0,0,,0 F,0,0,,0 F,0,0,,0 F,0,0,,0 F,0,0,,0 F,0,0,,0 F,0,0,,0 F,0,0,,0 F,0,0,,0 F,0,0,,0 F,0,0,,0 F,0,0,,0 R,0,72256,,1.5708 MY,0,72256,,330 V,0,72256,,2,4 F,0,72256,72656,0.5,0 R,0,74438,,1.5708 MY,0,74438,,193 V,0,74438,,2,4 F,0,74438,74838,0.5,0 R,0,74984,,1.5708 MY,0,74984,,311 V,0,74984,,2,4 F,0,74984,75384,0.5,0 R,0,76600,,1.5708 MY,0,76600,,365 V,0,76600,,2,4 F,0,76600,77020,0.6,0 R,0,77145,,1.5708 MY,0,77145,,171 V,0,77145,,2,4 F,0,77145,77565,0.6,0 R,0,78781,,1.5708 MY,0,78781,,302 V,0,78781,,2,4 F,0,78781,79201,0.6,0 R,0,80983,,1.5708 MY,0,80983,,125 V,0,80983,,2,4 F,0,80983,81383,0.5,0 R,0,83165,,1.5708 MY,0,83165,,152 V,0,83165,,2,4 F,0,83165,83565,0.5,0 R,0,83711,,1.5708 MY,0,83711,,332 V,0,83711,,2,4 F,0,83711,84111,0.5,0 R,0,85327,,1.5708 MY,0,85327,,157 V,0,85327,,2,4 F,0,85327,85747,0.6,0 R,0,85872,,1.5708 MY,0,85872,,329 V,0,85872,,2,4 F,0,85872,86292,0.6,0 R,0,87508,,1.5708 MY,0,87508,,204 V,0,87508,,2,4 F,0,87508,87928,0.6,0
Sprite,Foreground,Centre,"sb\Lhighlight.png",320,0 F,0,0,,0 F,0,0,,0 F,0,0,,0 F,0,0,,0 F,0,0,,0 F,0,0,,0 F,0,0,,0 F,0,0,,0 F,0,0,,0 F,0,0,,0 F,0,0,,0 F,0,0,,0 R,0,72276,,1.5708 MY,0,72276,,286 V,0,72276,,2,4 F,0,72276,72656,0.4,0 R,0,74458,,1.5708 MY,0,74458,,149 V,0,74458,,2,4 F,0,74458,74838,0.4,0 R,0,75004,,1.5708 MY,0,75004,,267 V,0,75004,,2,4 F,0,75004,75384,0.4,0 R,0,76620,,1.5708 MY,0,76620,,401 V,0,76620,,2,4 F,0,76620,77020,0.5,0 R,0,77165,,1.5708 MY,0,77165,,207 V,0,77165,,2,4 F,0,77165,77565,0.5,0 R,0,78801,,1.5708 MY,0,78801,,338 V,0,78801,,2,4 F,0,78801,79201,0.5,0 R,0,81003,,1.5708 MY,0,81003,,81 V,0,81003,,2,4 F,0,81003,81383,0.4,0 R,0,83185,,1.5708 MY,0,83185,,108 V,0,83185,,2,4 F,0,83185,83565,0.4,0 R,0,83731,,1.5708 MY,0,83731,,288 V,0,83731,,2,4 F,0,83731,84111,0.4,0 R,0,85347,,1.5708 MY,0,85347,,193 V,0,85347,,2,4 F,0,85347,85747,0.5,0 R,0,85892,,1.5708 MY,0,85892,,365 V,0,85892,,2,4 F,0,85892,86292,0.5,0 R,0,87528,,1.5708 MY,0,87528,,240 V,0,87528,,2,4 F,0,87528,87928,0.5,0
Sprite,Foreground,Centre,"sb\Lhighlight.png",320,0 F,0,0,,0 F,0,0,,0 F,0,0,,0 F,0,0,,0 F,0,0,,0 F,0,0,,0 F,0,0,,0 F,0,0,,0 F,0,0,,0 F,0,0,,0 F,0,0,,0 F,0,0,,0 R,0,72296,,1.5708 MY,0,72296,,338 V,0,72296,,2,4 F,0,72296,72656,0.3,0 R,0,74478,,1.5708 MY,0,74478,,201 V,0,74478,,2,4 F,0,74478,74838,0.3,0 R,0,75024,,1.5708 MY,0,75024,,319 V,0,75024,,2,4 F,0,75024,75384,0.3,0 R,0,76640,,1.5708 MY,0,76640,,357 V,0,76640,,2,4 F,0,76640,77020,0.4,0 R,0,77185,,1.5708 MY,0,77185,,163 V,0,77185,,2,4 F,0,77185,77565,0.4,0 R,0,78821,,1.5708 MY,0,78821,,294 V,0,78821,,2,4 F,0,78821,79201,0.4,0 R,0,81023,,1.5708 MY,0,81023,,133 V,0,81023,,2,4 F,0,81023,81383,0.3,0 R,0,83205,,1.5708 MY,0,83205,,160 V,0,83205,,2,4 F,0,83205,83565,0.3,0 R,0,83751,,1.5708 MY,0,83751,,340 V,0,83751,,2,4 F,0,83751,84111,0.3,0 R,0,85367,,1.5708 MY,0,85367,,149 V,0,85367,,2,4 F,0,85367,85747,0.4,0 R,0,85912,,1.5708 MY,0,85912,,321 V,0,85912,,2,4 F,0,85912,86292,0.4,0 R,0,87548,,1.5708 MY,0,87548,,196 V,0,87548,,2,4 F,0,87548,87928,0.4,0
Sprite,Foreground,Centre,"sb\Lhighlight.png",320,0 F,0,0,,0 F,0,0,,0 F,0,0,,0 F,0,0,,0 F,0,0,,0 F,0,0,,0 F,0,0,,0 F,0,0,,0 F,0,0,,0 F,0,0,,0 F,0,0,,0 F,0,0,,0 R,0,72316,,1.5708 MY,0,72316,,278 V,0,72316,,2,4 F,0,72316,72656,0.2,0 R,0,74498,,1.5708 MY,0,74498,,141 V,0,74498,,2,4 F,0,74498,74838,0.2,0 R,0,75044,,1.5708 MY,0,75044,,259 V,0,75044,,2,4 F,0,75044,75384,0.2,0 R,0,76660,,1.5708 MY,0,76660,,409 V,0,76660,,2,4 F,0,76660,77020,0.3,0 R,0,77205,,1.5708 MY,0,77205,,215 V,0,77205,,2,4 F,0,77205,77565,0.3,0 R,0,78841,,1.5708 MY,0,78841,,346 V,0,78841,,2,4 F,0,78841,79201,0.3,0 R,0,81043,,1.5708 MY,0,81043,,73 V,0,81043,,2,4 F,0,81043,81383,0.2,0 R,0,83225,,1.5708 MY,0,83225,,100 V,0,83225,,2,4 F,0,83225,83565,0.2,0 R,0,83771,,1.5708 MY,0,83771,,280 V,0,83771,,2,4 F,0,83771,84111,0.2,0 R,0,85387,,1.5708 MY,0,85387,,201 V,0,85387,,2,4 F,0,85387,85747,0.3,0 R,0,85932,,1.5708 MY,0,85932,,373 V,0,85932,,2,4 F,0,85932,86292,0.3,0 R,0,87568,,1.5708 MY,0,87568,,248 V,0,87568,,2,4 F,0,87568,87928,0.3,0
Sprite,Foreground,Centre,"sb\Lhighlight.png",320,0 F,0,0,,0 F,0,0,,0 F,0,0,,0 F,0,0,,0 F,0,0,,0 F,0,0,,0 F,0,0,,0 F,0,0,,0 F,0,0,,0 F,0,0,,0 F,0,0,,0 F,0,0,,0 R,0,72336,,1.5708 MY,0,72336,,346 V,0,72336,,2,4 F,0,72336,72656,0.1,0 R,0,74518,,1.5708 MY,0,74518,,209 V,0,74518,,2,4 F,0,74518,74838,0.1,0 R,0,75064,,1.5708 MY,0,75064,,327 V,0,75064,,2,4 F,0,75064,75384,0.1,0 R,0,76680,,1.5708 MY,0,76680,,349 V,0,76680,,2,4 F,0,76680,77020,0.2,0 R,0,77225,,1.5708 MY,0,77225,,155 V,0,77225,,2,4 F,0,77225,77565,0.2,0 R,0,78861,,1.5708 MY,0,78861,,286 V,0,78861,,2,4 F,0,78861,79201,0.2,0 R,0,81063,,1.5708 MY,0,81063,,141 V,0,81063,,2,4 F,0,81063,81383,0.1,0 R,0,83245,,1.5708 MY,0,83245,,168 V,0,83245,,2,4 F,0,83245,83565,0.1,0 R,0,83791,,1.5708 MY,0,83791,,348 V,0,83791,,2,4 F,0,83791,84111,0.1,0 R,0,85407,,1.5708 MY,0,85407,,141 V,0,85407,,2,4 F,0,85407,85747,0.2,0 R,0,85952,,1.5708 MY,0,85952,,313 V,0,85952,,2,4 F,0,85952,86292,0.2,0 R,0,87588,,1.5708 MY,0,87588,,188 V,0,87588,,2,4 F,0,87588,87928,0.2,0
Sprite,Foreground,Centre,"sb\Lhighlight.png",320,0 F,0,0,,0 F,0,0,,0 F,0,0,,0 F,0,0,,0 F,0,0,,0 F,0,0,,0 F,0,0,,0 F,0,0,,0 F,0,0,,0 F,0,0,,0 R,0,74747,,1.5708 MY,0,74747,,291 V,0,74747,,2,4 F,0,74747,75247,1,0 R,0,75292,,1.5708 MY,0,75292,,387 V,0,75292,,2,4 F,0,75292,75792,1,0 R,0,76700,,1.5708 MY,0,76700,,417 V,0,76700,,2,4 F,0,76700,77020,0.1,0 R,0,77245,,1.5708 MY,0,77245,,223 V,0,77245,,2,4 F,0,77245,77565,0.1,0 R,0,78881,,1.5708 MY,0,78881,,354 V,0,78881,,2,4 F,0,78881,79201,0.1,0 R,0,83474,,1.5708 MY,0,83474,,312 V,0,83474,,2,4 F,0,83474,83974,1,0 R,0,84019,,1.5708 MY,0,84019,,384 V,0,84019,,2,4 F,0,84019,84519,1,0 R,0,85427,,1.5708 MY,0,85427,,209 V,0,85427,,2,4 F,0,85427,85747,0.1,0 R,0,85972,,1.5708 MY,0,85972,,381 V,0,85972,,2,4 F,0,85972,86292,0.1,0 R,0,87608,,1.5708 MY,0,87608,,256 V,0,87608,,2,4 F,0,87608,87928,0.1,0
//Storyboard Sound Samples

[TimingPoints]
454,545.454545454546,4,2,1,40,1,0
454,-125,4,2,1,40,0,0
4817,-125,4,2,1,40,0,0
17884,545.454545454546,4,2,1,60,1,0
17884,-100,4,2,1,60,0,0
35338,-83.3333333333333,4,2,1,90,0,1
35474,-83.3333333333333,4,2,1,90,0,0
52793,-100,4,2,1,90,0,0
54974,-83.3333333333333,4,2,1,90,0,1
55111,-83.3333333333333,4,2,1,90,0,0
69702,-83.3333333333333,4,2,1,90,0,0
70247,-71.4285714285714,4,1,2,80,0,1
70316,-71.4285714285714,4,2,1,100,0,1
72430,-71.4285714285714,4,1,2,80,0,1
72498,-71.4285714285714,4,2,1,100,0,1
74611,-71.4285714285714,4,1,2,80,0,1
74679,-71.4285714285714,4,2,1,100,0,1
76793,-71.4285714285714,4,1,2,80,0,1
76861,-71.4285714285714,4,2,1,100,0,1
77339,-71.4285714285714,4,1,2,80,0,1
77407,-71.4285714285714,4,2,1,100,0,1
77884,-71.4285714285714,4,1,2,80,0,1
77952,-71.4285714285714,4,2,1,100,0,1
78430,-71.4285714285714,4,1,2,80,0,1
78498,-71.4285714285714,4,2,1,100,0,1
78975,-71.4285714285714,4,1,2,80,0,1
79043,-71.4285714285714,4,2,1,100,0,1
81157,-71.4285714285714,4,1,2,80,0,1
81225,-71.4285714285714,4,2,1,100,0,1
83339,-71.4285714285714,4,1,2,80,0,1
83407,-71.4285714285714,4,2,1,100,0,1
85520,-71.4285714285714,4,1,2,80,0,1
85588,-71.4285714285714,4,2,1,100,0,1
86066,-71.4285714285714,4,1,2,80,0,1
86134,-71.4285714285714,4,2,1,100,0,1
86611,-71.4285714285714,4,1,2,80,0,1
86679,-71.4285714285714,4,2,1,100,0,1
87157,-71.4285714285714,4,1,2,80,0,1
87225,-71.4285714285714,4,2,1,100,0,1
87702,-125,4,2,1,40,0,0

[Colours]
Combo1 : 14,147,154
Combo2 : 0,65,130
Combo3 : 102,151,253
Combo4 : 141,224,245

[HitObjects]
44,52,454,5,2,0:3:0:0:
116,216,999,1,0,0:0:0:0:
179,152,1272,2,0,P|267:140|364:148,1,168,2|0,0:0|0:0,0:0:0:0:
472,271,2635,5,2,0:3:0:0:
305,338,3181,1,2,0:3:0:0:
241,274,3454,2,0,P|192:268|72:288,1,168,2|0,0:0|0:0,0:0:0:0:
202,160,4817,5,2,0:3:0:0:
328,33,5363,1,0,0:0:0:0:
391,96,5635,2,0,B|401:150|401:150|384:212,1,112,2|0,0:0|0:0,0:0:0:0:
336,280,6454,1,0,0:0:0:0:
387,353,6726,1,0,0:0:0:0:
300,372,6999,5,2,0:3:0:0:
173,245,7544,1,0,0:0:0:0:
236,181,7817,2,0,P|251:127|220:64,1,112,2|0,0:0|0:0,0:0:0:0:
156,28,8635,1,0,0:0:0:0:
76,68,8908,1,0,0:0:0:0:
48,152,9181,5,2,0:3:0:0:
174,278,9726,1,0,0:0:0:0:
237,214,9999,2,0,P|316:208|412:240,1,168,2|0,0:0|0:0,0:0:0:0:
273,106,11363,5,2,0:3:0:0:
352,268,11908,1,2,0:3:0:0:
415,204,12181,2,0,B|433:123|433:123|406:34,1,168,2|0,0:0|0:0,0:0:0:0:
494,198,13544,5,2,0:3:0:0:
367,324,14090,1,0,0:0:0:0:
303,260,14363,2,0,P|246:268|184:276,1,112,2|0,0:0|0:0,0:0:0:0:
104,296,15181,1,0,0:0:0:0:
32,244,15454,1,0,0:0:0:0:
32,156,15726,5,2,0:3:0:0:
158,29,16272,1,0,0:0:0:0:
221,92,16544,2,0,P|284:92|346:73,1,112,2|0,0:0|0:0,0:0:0:0:
407,32,17363,1,0,0:0:0:0:
444,113,17635,1,0,0:0:0:0:
344,204,17884,6,0,P|334:255|372:338,1,140,6|4,0:0|0:0,0:0:0:0:
408,296,18565,1,2,0:0:0:0:
444,252,18702,2,0,P|340:255|216:260,1,210,2|4,0:0|0:0,0:0:0:0:
36,364,20065,5,6,0:0:0:0:
120,156,20611,1,6,0:0:0:0:
120,156,20747,1,2,0:0:0:0:
120,156,20884,2,0,P|188:168|320:108,1,210,2|4,0:0|0:0,0:0:0:0:
196,304,22247,5,6,0:0:0:0:
176,80,22793,1,6,0:0:0:0:
176,80,22929,1,2,0:0:0:0:
176,80,23065,2,0,P|134:113|41:137,1,140,2|0,0:0|0:0,0:0:0:0:
20,244,23884,1,6,0:0:0:0:
98,322,24156,1,2,0:0:0:0:
177,242,24429,5,6,0:0:0:0:
68,46,24974,1,6,0:0:0:0:
68,46,25111,1,2,0:0:0:0:
68,46,25247,2,0,P|141:47|232:48,1,140,2|0,0:0|0:0,0:0:0:0:
316,16,26065,1,6,0:0:0:0:
424,44,26338,1,2,0:0:0:0:
448,152,26611,5,6,0:0:0:0:
300,320,27156,1,6,0:0:0:0:
300,320,27293,1,2,0:0:0:0:
300,320,27429,2,0,P|303:206|312:96,1,210,2|4,0:0|0:0,0:0:0:0:
164,280,28793,5,6,0:0:0:0:
312,112,29338,1,6,0:0:0:0:
312,112,29475,1,2,0:0:0:0:
312,112,29611,2,0,P|308:225|300:336,1,210,2|4,0:0|0:0,0:0:0:0:
116,196,30974,5,6,0:0:0:0:
256,24,31520,1,6,0:0:0:0:
256,24,31656,1,2,0:0:0:0:
256,24,31793,2,0,P|308:44|404:24,1,140,2|0,0:0|0:0,0:0:0:0:
469,111,32611,1,6,0:0:0:0:
389,190,32884,1,2,0:0:0:0:
467,268,33156,5,6,0:0:0:0:
256,348,33702,1,6,0:0:0:0:
256,348,33838,1,2,0:0:0:0:
256,348,33974,2,0,P|208:320|112:320,1,140,2|0,0:0|0:0,0:0:0:0:
20,360,34793,1,8,0:1:0:0:
197,42,35338,6,0,P|244:39|312:36,1,83.9999974365235,6|0,0:1|0:0,0:0:0:0:
396,108,35884,1,8,0:1:0:0:
396,108,36020,1,0,0:0:0:0:
396,108,36156,1,0,0:0:0:0:
288,215,36429,2,0,P|249:212|188:204,1,83.9999974365235,2|0,0:1|0:0,0:0:0:0:
109,301,36974,2,0,P|147:298|209:290,1,83.9999974365235,8|0,0:1|0:0,0:0:0:0:
352,344,37520,6,0,P|397:337|444:329,1,83.9999974365235,6|0,0:1|0:0,0:0:0:0:
504,216,38065,1,8,0:1:0:0:
504,216,38202,1,0,0:0:0:0:
504,216,38338,1,0,0:0:0:0:
377,133,38611,2,0,P|377:91|380:32,1,83.9999974365235,2|0,0:1|0:0,0:0:0:0:
283,144,39156,2,0,P|285:186|286:245,1,83.9999974365235,8|0,0:1|0:0,0:0:0:0:
165,347,39702,6,0,P|128:344|76:344,1,83.9999974365235,6|0,0:1|0:0,0:0:0:0:
8,228,40247,1,8,0:1:0:0:
8,228,40384,1,0,0:0:0:0:
8,228,40520,1,0,0:0:0:0:
115,120,40793,2,0,P|120:48|116:28,1,83.9999974365235,2|0,0:1|0:0,0:0:0:0:
44,148,41338,1,8,0:1:0:0:
176,168,41611,1,0,0:0:0:0:
294,49,41884,6,0,P|344:40|392:48,1,83.9999974365235,6|0,0:1|0:0,0:0:0:0:
471,138,42429,1,8,0:1:0:0:
471,138,42565,1,0,0:0:0:0:
471,138,42702,1,0,0:0:0:0:
364,244,42974,2,0,P|319:242|264:240,1,83.9999974365235,2|0,0:1|0:0,0:0:0:0:
148,276,43520,1,8,0:1:0:0:
268,336,43793,1,0,0:0:0:0:
404,236,44065,6,0,P|406:188|410:121,1,83.9999974365235,6|0,0:1|0:0,0:0:0:0:
338,37,44611,1,8,0:1:0:0:
338,37,44747,1,0,0:0:0:0:
338,37,44883,1,0,0:0:0:0:
231,145,45156,2,0,P|233:183|242:245,1,83.9999974365235,2|0,0:1|0:0,0:0:0:0:
145,324,45701,2,0,P|147:285|156:224,1,83.9999974365235,8|0,0:1|0:0,0:0:0:0:
240,96,46247,6,0,P|285:89|332:81,1,83.9999974365235,6|0,0:1|0:0,0:0:0:0:
418,177,46792,1,8,0:1:0:0:
418,177,46929,1,0,0:0:0:0:
418,177,47065,1,0,0:0:0:0:
310,284,47338,2,0,P|268:283|209:281,1,83.9999974365235,2|0,0:1|0:0,0:0:0:0:
132,188,47883,2,0,P|173:188|233:191,1,83.9999974365235,8|0,0:1|0:0,0:0:0:0:
160,32,48429,6,0,P|123:34|71:35,1,83.9999974365235,6|0,0:1|0:0,0:0:0:0:
3,151,48974,1,8,0:1:0:0:
3,151,49111,1,0,0:0:0:0:
3,151,49247,1,0,0:0:0:0:
110,259,49520,2,0,P|115:331|111:351,1,83.9999974365235,2|0,0:1|0:0,0:0:0:0:
39,231,50065,1,8,0:1:0:0:
171,211,50338,1,0,0:0:0:0:
289,330,50611,6,0,P|339:339|387:331,1,83.9999974365235,6|0,0:1|0:0,0:0:0:0:
466,241,51156,1,8,0:1:0:0:
466,241,51292,1,0,0:0:0:0:
466,241,51429,1,0,0:0:0:0:
359,135,51701,2,0,P|314:136|259:139,1,83.9999974365235,2|0,0:1|0:0,0:0:0:0:
148,180,52247,1,8,0:1:0:0:
276,228,52520,1,0,0:1:0:0:
146,304,52793,5,6,0:1:0:0:
146,304,54429,1,8,0:1:0:0:
440,144,54974,6,0,P|441:115|440:72,1,41.9999987182618,6|2,0:1|0:0,0:0:0:0:
368,60,55247,2,0,P|367:89|368:132,1,41.9999987182618,2|2,0:0|0:0,0:0:0:0:
307,161,55520,2,0,P|271:163|195:142,1,83.9999974365235,10|2,0:1|0:0,0:0:0:0:
128,249,56065,2,0,P|164:247|240:268,1,83.9999974365235,2|0,0:1|0:0,0:0:0:0:
306,351,56611,2,0,P|304:315|325:239,1,83.9999974365235,8|0,0:1|0:0,0:0:0:0:
392,120,57156,6,0,P|397:91|397:75,1,41.9999987182618,6|2,0:1|0:0,0:0:0:0:
321,111,57429,2,0,P|316:140|316:156,1,41.9999987182618,2|2,0:0|0:0,0:0:0:0:
256,212,57702,2,0,P|208:207|137:203,1,83.9999974365235,10|2,0:1|0:0,0:0:0:0:
77,299,58247,2,0,P|124:294|196:290,1,83.9999974365235,2|0,0:1|0:0,0:0:0:0:
65,196,58793,1,10,0:1:0:0:
159,101,59065,1,2,0:0:0:0:
311,171,59338,6,0,P|339:169|362:160,1,41.9999987182618,6|2,0:1|0:0,0:0:0:0:
402,232,59611,2,0,P|373:233|351:243,1,41.9999987182618,2|2,0:0|0:0,0:0:0:0:
308,304,59884,1,10,0:1:0:0:
273,327,60020,1,2,0:0:0:0:
232,333,60156,1,2,0:0:0:0:
160,220,60429,2,0,P|163:173|164:128,1,83.9999974365235,2|0,0:1|0:0,0:0:0:0:
68,41,60974,1,10,0:1:0:0:
60,176,61247,1,2,0:0:0:0:
168,48,61520,6,0,P|192:44|280:44,1,83.9999974365235,6|0,0:1|0:0,0:0:0:0:
369,105,62065,1,10,0:1:0:0:
369,105,62202,1,2,0:0:0:0:
369,105,62338,1,2,0:0:0:0:
304,244,62611,2,0,P|307:289|319:348,1,83.9999974365235,2|0,0:1|0:0,0:0:0:0:
233,218,63156,2,0,P|236:173|248:114,1,83.9999974365235,8|0,0:1|0:0,0:0:0:0:
96,52,63702,6,0,P|64:52|40:60,1,41.9999987182618,6|2,0:1|0:0,0:0:0:0:
17,129,63974,2,0,P|49:129|73:137,1,41.9999987182618,2|2,0:0|0:0,0:0:0:0:
118,190,64247,2,0,P|113:233|112:288,1,83.9999974365235,8|2,0:1|0:0,0:0:0:0:
212,364,64793,2,0,P|207:320|206:266,1,83.9999974365235,2|0,0:1|0:0,0:0:0:0:
304,188,65338,2,0,P|299:231|298:286,1,83.9999974365235,8|0,0:1|0:0,0:0:0:0:
453,337,65884,6,0,P|460:316|460:284,1,41.9999987182618,6|2,0:1|0:0,0:0:0:0:
426,219,66156,2,0,P|419:198|419:166,1,41.9999987182618,2|2,0:0|0:0,0:0:0:0:
446,99,66429,2,0,P|436:60|380:24,1,83.9999974365235,8|2,0:1|0:0,0:0:0:0:
280,80,66974,2,0,P|241:78|168:72,1,83.9999974365235,2|0,0:1|0:0,0:0:0:0:
100,170,67520,1,10,0:1:0:0:
236,180,67793,1,2,0:0:0:0:
96,88,68065,6,0,P|76:88|44:92,1,41.9999987182618,6|2,0:1|0:0,0:0:0:0:
48,176,68338,2,0,P|68:176|100:180,1,41.9999987182618,2|2,0:0|0:0,0:0:0:0:
149,237,68611,1,10,0:1:0:0:
186,254,68747,1,2,0:0:0:0:
228,252,68883,1,2,0:0:0:0:
140,356,69156,1,2,0:1:0:0:
140,356,70247,6,0,P|68:344|48:268,1,146.999995513916,6|0,0:1|0:0,0:0:0:0:
84,190,70793,2,0,P|88:154|92:122,1,48.9999985046387,8|0,0:1|0:0,0:0:0:0:
148,60,71065,2,0,P|184:56|216:52,1,48.9999985046387,2|0,0:0|0:0,0:0:0:0:
252,136,71338,2,0,P|256:172|260:204,1,48.9999985046387,2|0,3:1|0:0,0:0:0:0:
326,115,71610,2,0,P|330:79|334:47,1,48.9999985046387,2|0,0:0|0:0,0:0:0:0:
404,136,71884,2,0,P|408:172|412:204,1,48.9999985046387,8|0,0:1|0:0,0:0:0:0:
478,254,72156,2,0,P|482:218|486:186,1,48.9999985046387,2|0,0:0|0:0,0:0:0:0:
336,312,72429,6,0,P|276:296|176:312,1,146.999995513916,2|0,0:1|0:0,0:0:0:0:
102,344,72974,2,0,P|75:343|44:340,1,48.9999985046387,8|0,0:1|0:0,0:0:0:0:
10,252,73247,2,0,P|36:251|68:248,1,48.9999985046387,2|0,0:0|0:0,0:0:0:0:
113,167,73520,2,0,P|86:166|55:163,1,48.9999985046387,2|0,3:1|0:0,0:0:0:0:
21,75,73793,2,0,P|47:74|79:71,1,48.9999985046387,2|0,0:0|0:0,0:0:0:0:
155,25,74065,2,0,P|182:26|213:29,1,48.9999985046387,8|0,0:1|0:0,0:0:0:0:
247,117,74338,2,0,P|221:118|189:121,1,48.9999985046387,2|0,0:0|0:0,0:0:0:0:
123,235,74611,5,6,0:1:0:0:
123,235,74747,1,0,0:0:0:0:
123,235,74884,2,0,P|120:262|119:303,1,48.9999985046387,2|0,0:0|0:0,0:0:0:0:
203,331,75156,1,8,0:1:0:0:
203,331,75292,1,0,0:0:0:0:
203,331,75429,2,0,P|200:303|199:263,1,48.9999985046387,2|0,0:0|0:0,0:0:0:0:
282,229,75702,1,2,3:1:0:0:
282,229,75838,1,0,0:0:0:0:
282,229,75975,2,0,P|279:256|278:297,1,48.9999985046387,2|0,0:0|0:0,0:0:0:0:
362,325,76247,1,8,0:1:0:0:
362,325,76383,1,0,0:0:0:0:
362,325,76520,2,0,P|359:297|358:257,1,48.9999985046387,2|0,0:0|0:0,0:0:0:0:
406,131,76793,5,6,0:1:0:0:
406,131,76929,1,0,0:0:0:0:
406,131,77065,2,0,P|445:123|473:126,1,48.9999985046387,2|0,0:0|0:0,0:0:0:0:
311,71,77338,1,10,0:1:0:0:
311,71,77474,1,0,0:0:0:0:
311,71,77610,2,0,P|272:63|244:66,1,48.9999985046387,2|0,0:0|0:0,0:0:0:0:
131,153,77884,1,2,0:1:0:0:
131,153,78020,1,0,0:0:0:0:
131,153,78156,2,0,P|170:145|198:148,1,48.9999985046387,2|0,0:0|0:0,0:0:0:0:
276,262,78429,1,10,0:1:0:0:
276,262,78565,1,0,0:0:0:0:
276,262,78701,2,0,P|284:301|281:329,1,48.9999985046387,2|0,0:0|0:0,0:0:0:0:
98,355,78974,6,0,P|84:303|112:211,1,146.999995513916,2|0,0:1|0:0,0:0:0:0:
178,145,79520,2,0,P|214:142|246:141,1,48.9999985046387,8|0,0:1|0:0,0:0:0:0:
308,196,79792,2,0,P|304:232|300:264,1,48.9999985046387,2|0,0:0|0:0,0:0:0:0:
372,314,80065,2,0,P|408:310|440:306,1,48.9999985046387,2|0,3:1|0:0,0:0:0:0:
467,222,80337,2,0,P|431:226|399:230,1,48.9999985046387,2|0,0:0|0:0,0:0:0:0:
368,141,80611,2,0,P|404:137|436:133,1,48.9999985046387,8|0,0:1|0:0,0:0:0:0:
463,49,80883,2,0,P|427:53|395:57,1,48.9999985046387,2|0,0:0|0:0,0:0:0:0:
231,162,81156,6,0,P|247:222|231:322,1,146.999995513916,6|0,0:1|0:0,0:0:0:0:
152,352,81701,2,0,P|125:351|94:348,1,48.9999985046387,8|0,0:1|0:0,0:0:0:0:
33,279,81974,2,0,P|32:253|29:221,1,48.9999985046387,2|0,0:0|0:0,0:0:0:0:
99,160,82247,2,0,P|123:162|147:162,1,48.9999985046387,2|0,3:1|0:0,0:0:0:0:
192,75,82520,2,0,P|218:74|250:71,1,48.9999985046387,2|0,0:0|0:0,0:0:0:0:
329,28,82793,2,0,P|355:29|387:32,1,48.9999985046387,8|0,0:1|0:0,0:0:0:0:
464,76,83065,2,0,P|465:102|468:134,1,48.9999985046387,2|0,0:0|0:0,0:0:0:0:
429,256,83338,5,6,0:1:0:0:
429,256,83474,1,0,0:0:0:0:
429,256,83611,2,0,P|432:283|433:324,1,48.9999985046387,2|0,0:0|0:0,0:0:0:0:
309,328,83883,1,8,0:1:0:0:
309,328,84019,1,0,0:0:0:0:
309,328,84156,2,0,P|281:325|243:321,1,48.9999985046387,2|0,0:0|0:0,0:0:0:0:
207,211,84429,1,2,3:1:0:0:
207,211,84565,1,0,0:0:0:0:
207,211,84702,2,0,P|210:184|211:143,1,48.9999985046387,2|0,0:0|0:0,0:0:0:0:
98,117,84974,1,8,0:1:0:0:
98,117,85110,1,0,0:0:0:0:
98,117,85247,2,0,P|101:145|102:185,1,48.9999985046387,2|0,0:0|0:0,0:0:0:0:
250,289,85520,5,6,0:1:0:0:
250,289,85656,1,0,0:0:0:0:
250,289,85792,2,0,P|289:297|317:294,1,48.9999985046387,2|0,0:0|0:0,0:0:0:0:
429,190,86065,1,10,0:1:0:0:
429,190,86201,1,0,0:0:0:0:
429,190,86337,2,0,P|390:198|362:195,1,48.9999985046387,2|0,0:0|0:0,0:0:0:0:
250,92,86611,1,2,0:1:0:0:
250,92,86747,1,0,0:0:0:0:
250,92,86883,2,0,P|289:100|317:97,1,48.9999985046387,2|0,0:0|0:0,0:0:0:0:
144,164,87156,1,10,0:1:0:0:
144,164,87292,1,0,0:0:0:0:
144,164,87428,2,0,P|104:166|77:176,1,48.9999985046387,2|0,0:0|0:0,0:0:0:0:
5,318,87702,6,0,P|48:328|121:293,1,112,4|0,0:2|0:0,0:0:0:0:
176,244,88520,1,2,0:0:0:0:
404,328,89884,6,0,P|360:352|296:328,1,112,4|0,0:0|0:0,0:0:0:0:
244,268,90702,1,2,0:0:0:0:
356,84,91793,5,0,0:0:0:0:
292,147,92065,2,0,P|248:160|180:144,1,112,4|0,0:0|0:0,0:0:0:0:
120,82,92884,1,2,0:0:0:0:
256,336,93974,5,0,2:0:0:0:
192,272,94247,2,0,L|200:156,1,112,4|0,0:0|0:0,0:0:0:0:
136,96,95065,1,0,0:0:0:0:
