osu file format v14

[General]
AudioFilename: audio.mp3
AudioLeadIn: 0
PreviewTime: 69702
Countdown: 0
SampleSet: Soft
StackLeniency: 0.7
Mode: 0
LetterboxInBreaks: 0
EpilepsyWarning: 1
WidescreenStoryboard: 1

[Editor]
DistanceSpacing: 2
BeatDivisor: 8
GridSize: 32
TimelineZoom: 1.5

[Metadata]
Title:ILY
TitleUnicode:ILY
Artist:Panda Eyes
ArtistUnicode:Panda Eyes
Creator:M a r v o l l o
Version:Fanteer's Expert
Source:
Tags:shmiklak marvollo m_a_r_v_o_l_l_o fanteer drumstep Dnb Melodic Electro Dubstep harmonic war ep namki smau5
BeatmapID:1385396
BeatmapSetID:653534

[Difficulty]
HPDrainRate:6
CircleSize:4
OverallDifficulty:8
ApproachRate:9.3
SliderMultiplier:1.7
SliderTickRate:1

[Events]
//Background and Video events
0,0,"wallhaven-294805.jpeg",0,0
//Break Periods
//Storyboard Layer 0 (Background)
//Storyboard Layer 1 (Fail)
//Storyboard Layer 2 (Pass)
//Storyboard Layer 3 (Foreground)
Sprite,Foreground,Centre,"sb\ring.png",0,0 M,0,454,,264,380 F,0,454,,1 C,0,454,,255,255,255 S,7,454,2454,0.25,1.5 F,0,455,2455,1,0 M,0,2635,,360,180 F,0,2635,,1 C,0,2635,,255,255,255 S,7,2635,4635,0.25,1.5 F,0,2636,4636,1,0 M,0,4817,,264,420 F,0,4817,,1 C,0,4817,,255,255,255 S,7,4817,6817,0.25,1.5 F,0,4818,6818,1,0 M,0,6999,,136,244 F,0,6999,,1 C,0,6999,,255,255,255 S,7,6999,8999,0.25,1.5 F,0,7000,9000,1,0 M,0,9181,,220,276 F,0,9181,,1 C,0,9181,,255,255,255 S,7,9181,11181,0.25,1.5 F,0,9182,11182,1,0 M,0,11363,,220,276 F,0,11363,,1 C,0,11363,,255,255,255 S,7,11363,13363,0.25,1.5 F,0,11364,13364,1,0 M,0,13544,,118,119 F,0,13544,,1 C,0,13544,,255,255,255 S,7,13544,15544,0.25,1.5 F,0,13545,15545,1,0 M,0,15726,,424,368 F,0,15726,,1 C,0,15726,,255,255,255 S,7,15726,17726,0.25,1.5 F,0,15727,17727,1,0 M,0,17884,,136,216 F,0,17884,,1 C,0,17884,,255,255,255 S,7,17884,19884,0.25,1.5 F,0,17885,19885,1,0 M,0,20066,,487,363 F,0,20066,,1 C,0,20066,,255,255,255 S,7,20066,22066,0.25,1.5 F,0,20067,22067,1,0 M,0,22247,,285,126 F,0,22247,,1 C,0,22247,,255,255,255 S,7,22247,24247,0.25,1.5 F,0,22248,24248,1,0 M,0,24429,,248,245 F,0,24429,,1 C,0,24429,,255,255,255 S,7,24429,26429,0.25,1.5 F,0,24430,26430,1,0 M,0,26611,,319,379 F,0,26611,,1 C,0,26611,,255,255,255 S,7,26611,28611,0.25,1.5 F,0,26612,28612,1,0 M,0,28793,,95,323 F,0,28793,,1 C,0,28793,,255,255,255 S,7,28793,30793,0.25,1.5 F,0,28794,30794,1,0 M,0,30975,,405,208 F,0,30975,,1 C,0,30975,,255,255,255 S,7,30975,32975,0.25,1.5 F,0,30976,32976,1,0 M,0,33157,,366,92 F,0,33157,,1 C,0,33157,,255,255,255 S,7,33157,35157,0.25,1.5 F,0,33158,35158,1,0
Sprite,Foreground,Centre,"sb\ring.png",0,0 M,0,1272,,312,312 F,0,1272,,1 C,0,1272,,255,255,255 S,7,1272,3272,0.25,1.5 F,0,1273,3273,1,0 M,0,3454,,432,120 F,0,3454,,1 C,0,3454,,255,255,255 S,7,3454,5454,0.25,1.5 F,0,3455,5455,1,0 M,0,5635,,216,344 F,0,5635,,1 C,0,5635,,255,255,255 S,7,5635,7635,0.25,1.5 F,0,5636,7636,1,0 M,0,7817,,220,276 F,0,7817,,1 C,0,7817,,255,255,255 S,7,7817,9817,0.25,1.5 F,0,7818,9818,1,0 M,0,9999,,248,364 F,0,9999,,1 C,0,9999,,255,255,255 S,7,9999,11999,0.25,1.5 F,0,10000,12000,1,0 M,0,12181,,301,260 F,0,12181,,1 C,0,12181,,255,255,255 S,7,12181,14181,0.25,1.5 F,0,12182,14182,1,0 M,0,14363,,198,160 F,0,14363,,1 C,0,14363,,255,255,255 S,7,14363,16363,0.25,1.5 F,0,14364,16364,1,0 M,0,16544,,344,404 F,0,16544,,1 C,0,16544,,255,255,255 S,7,16544,18544,0.25,1.5 F,0,16545,18545,1,0
Sprite,Foreground,Centre,"sb\ring.png",0,0 M,0,87702,,340,329 F,0,87702,,1 C,0,87702,,255,255,255 S,7,87702,89702,0.25,1.5 F,0,87703,89703,1,0 M,0,89884,,193,72 F,0,89884,,1 C,0,89884,,255,255,255 S,7,89884,91884,0.25,1.5 F,0,89885,91885,1,0 M,0,92065,,318,304 F,0,92065,,1 C,0,92065,,255,255,255 S,7,92065,94065,0.25,1.5 F,0,92066,94066,1,0 M,0,94247,,320,303 F,0,94247,,1 C,0,94247,,255,255,255 S,7,94247,96247,0.25,1.5 F,0,94248,96248,1,0
Sprite,Foreground,Centre,"sb\ring.png",0,0 M,0,88520,,258,297 F,0,88520,,1 C,0,88520,,255,255,255 S,7,88520,90520,0.25,1.5 F,0,88521,90521,1,0 M,0,90702,,267,127 F,0,90702,,1 C,0,90702,,255,255,255 S,7,90702,92702,0.25,1.5 F,0,90703,92703,1,0 M,0,92884,,303,212 F,0,92884,,1 C,0,92884,,255,255,255 S,7,92884,94884,0.25,1.5 F,0,92885,94885,1,0 M,0,95065,,334,397 F,0,95065,,1 C,0,95065,,255,255,255 S,7,95065,97065,0.25,1.5 F,0,95066,97066,1,0
Sprite,Foreground,Centre,"sb\Lhighlight.png",320,0 F,0,0,,0 F,0,0,,0 F,0,0,,0 F,0,0,,0 F,0,0,,0 F,0,0,,0 F,0,0,,0 F,0,0,,0 F,0,0,,0 F,0,0,,0 F,0,0,,0 F,0,0,,0 F,0,0,,0 F,0,0,,0 F,0,0,,0 F,0,0,,0 F,0,0,,0 F,0,0,,0 F,0,0,,0 F,0,0,,0 F,0,0,,0 F,0,0,,0 F,0,0,,0 F,0,0,,0 F,0,0,,0 F,0,0,,0 F,0,0,,0 F,0,0,,0 F,0,0,,0 F,0,0,,0 F,0,0,,0 F,0,0,,0 F,0,0,,0 F,0,0,,0 R,0,69702,,1.5708 MY,0,69702,,400 V,0,69702,,2,4 F,0,69702,70202,1,0 R,0,70247,,1.5708 MY,0,70247,,364 V,0,70247,,2,4 F,0,70247,70747,1,0 R,0,70793,,1.5708 MY,0,70793,,72 V,0,70793,,2,4 F,0,70793,71293,1,0 R,0,71338,,1.5708 MY,0,71338,,119 V,0,71338,,2,4 F,0,71338,71838,1,0 R,0,71884,,1.5708 MY,0,71884,,298 V,0,71884,,2,4 F,0,71884,72384,1,0 R,0,72429,,1.5708 MY,0,72429,,282 V,0,72429,,2,4 F,0,72429,72929,1,0 R,0,72974,,1.5708 MY,0,72974,,216 V,0,72974,,2,4 F,0,72974,73474,1,0 R,0,73520,,1.5708 MY,0,73520,,144 V,0,73520,,2,4 F,0,73520,74020,1,0 R,0,74065,,1.5708 MY,0,74065,,310 V,0,74065,,2,4 F,0,74065,74565,1,0 R,0,74611,,1.5708 MY,0,74611,,186 V,0,74611,,2,4 F,0,74611,75111,1,0 R,0,75156,,1.5708 MY,0,75156,,144 V,0,75156,,2,4 F,0,75156,75656,1,0 R,0,75702,,1.5708 MY,0,75702,,144 V,0,75702,,2,4 F,0,75702,76202,1,0 R,0,76247,,1.5708 MY,0,76247,,180 V,0,76247,,2,4 F,0,76247,76747,1,0 R,0,76793,,1.5708 MY,0,76793,,323 V,0,76793,,2,4 F,0,76793,77293,1,0 R,0,77338,,1.5708 MY,0,77338,,330 V,0,77338,,2,4 F,0,77338,77838,1,0 R,0,77884,,1.5708 MY,0,77884,,110 V,0,77884,,2,4 F,0,77884,78384,1,0 R,0,78429,,1.5708 MY,0,78429,,180 V,0,78429,,2,4 F,0,78429,78929,1,0 R,0,78974,,1.5708 MY,0,78974,,416 V,0,78974,,2,4 F,0,78974,79474,1,0 R,0,79520,,1.5708 MY,0,79520,,409 V,0,79520,,2,4 F,0,79520,80020,1,0 R,0,80065,,1.5708 MY,0,80065,,108 V,0,80065,,2,4 F,0,80065,80565,1,0 R,0,80611,,1.5708 MY,0,80611,,332 V,0,80611,,2,4 F,0,80611,81111,1,0 R,0,81156,,1.5708 MY,0,81156,,155 V,0,81156,,2,4 F,0,81156,81656,1,0 R,0,81701,,1.5708 MY,0,81701,,152 V,0,81701,,2,4 F,0,81701,82201,1,0 R,0,82247,,1.5708 MY,0,82247,,276 V,0,82247,,2,4 F,0,82247,82747,1,0 R,0,82793,,1.5708 MY,0,82793,,281 V,0,82793,,2,4 F,0,82793,83293,1,0 R,0,83338,,1.5708 MY,0,83338,,80 V,0,83338,,2,4 F,0,83338,83838,1,0 R,0,83883,,1.5708 MY,0,83883,,283 V,0,83883,,2,4 F,0,83883,84383,1,0 R,0,84429,,1.5708 MY,0,84429,,250 V,0,84429,,2,4 F,0,84429,84929,1,0 R,0,84974,,1.5708 MY,0,84974,,223 V,0,84974,,2,4 F,0,84974,85474,1,0 R,0,85520,,1.5708 MY,0,85520,,254 V,0,85520,,2,4 F,0,85520,86020,1,0 R,0,86065,,1.5708 MY,0,86065,,136 V,0,86065,,2,4 F,0,86065,86565,1,0 R,0,86611,,1.5708 MY,0,86611,,241 V,0,86611,,2,4 F,0,86611,87111,1,0 R,0,87156,,1.5708 MY,0,87156,,172 V,0,87156,,2,4 F,0,87156,87656,1,0 R,0,87702,,1.5708 MY,0,87702,,329 V,0,87702,,2,4 F,0,87702,88202,1,0
Sprite,Foreground,Centre,"sb\Lhighlight.png",320,0 F,0,0,,0 F,0,0,,0 F,0,0,,0 F,0,0,,0 F,0,0,,0 F,0,0,,0 F,0,0,,0 F,0,0,,0 F,0,0,,0 F,0,0,,0 F,0,0,,0 F,0,0,,0 F,0,0,,0 F,0,0,,0 F,0,0,,0 F,0,0,,0 F,0,0,,0 F,0,0,,0 F,0,0,,0 F,0,0,,0 F,0,0,,0 F,0,0,,0 F,0,0,,0 F,0,0,,0 F,0,0,,0 F,0,0,,0 F,0,0,,0 F,0,0,,0 F,0,0,,0 F,0,0,,0 F,0,0,,0 F,0,0,,0 F,0,0,,0 R,0,69838,,1.5708 MY,0,69838,,416 V,0,69838,,2,4 F,0,69838,70338,1,0 R,0,70520,,1.5708 MY,0,70520,,336 V,0,70520,,2,4 F,0,70520,71020,1,0 R,0,71065,,1.5708 MY,0,71065,,211 V,0,71065,,2,4 F,0,71065,71565,1,0 R,0,71611,,1.5708 MY,0,71611,,127 V,0,71611,,2,4 F,0,71611,72111,1,0 R,0,72156,,1.5708 MY,0,72156,,401 V,0,72156,,2,4 F,0,72156,72656,1,0 R,0,72702,,1.5708 MY,0,72702,,196 V,0,72702,,2,4 F,0,72702,73202,1,0 R,0,73247,,1.5708 MY,0,73247,,132 V,0,73247,,2,4 F,0,73247,73747,1,0 R,0,73793,,1.5708 MY,0,73793,,196 V,0,73793,,2,4 F,0,73793,74293,1,0 R,0,74338,,1.5708 MY,0,74338,,254 V,0,74338,,2,4 F,0,74338,74838,1,0 R,0,74884,,1.5708 MY,0,74884,,310 V,0,74884,,2,4 F,0,74884,75384,1,0 R,0,75429,,1.5708 MY,0,75429,,180 V,0,75429,,2,4 F,0,75429,75929,1,0 R,0,75974,,1.5708 MY,0,75974,,130 V,0,75974,,2,4 F,0,75974,76474,1,0 R,0,76520,,1.5708 MY,0,76520,,364 V,0,76520,,2,4 F,0,76520,77020,1,0 R,0,77065,,1.5708 MY,0,77065,,249 V,0,77065,,2,4 F,0,77065,77565,1,0 R,0,77611,,1.5708 MY,0,77611,,196 V,0,77611,,2,4 F,0,77611,78111,1,0 R,0,78156,,1.5708 MY,0,78156,,130 V,0,78156,,2,4 F,0,78156,78656,1,0 R,0,78702,,1.5708 MY,0,78702,,360 V,0,78702,,2,4 F,0,78702,79202,1,0 R,0,79247,,1.5708 MY,0,79247,,310 V,0,79247,,2,4 F,0,79247,79747,1,0 R,0,79792,,1.5708 MY,0,79792,,204 V,0,79792,,2,4 F,0,79792,80292,1,0 R,0,80338,,1.5708 MY,0,80338,,232 V,0,80338,,2,4 F,0,80338,80838,1,0 R,0,80884,,1.5708 MY,0,80884,,211 V,0,80884,,2,4 F,0,80884,81384,1,0 R,0,81429,,1.5708 MY,0,81429,,358 V,0,81429,,2,4 F,0,81429,81929,1,0 R,0,81974,,1.5708 MY,0,81974,,228 V,0,81974,,2,4 F,0,81974,82474,1,0 R,0,82520,,1.5708 MY,0,82520,,268 V,0,82520,,2,4 F,0,82520,83020,1,0 R,0,83065,,1.5708 MY,0,83065,,237 V,0,83065,,2,4 F,0,83065,83565,1,0 R,0,83611,,1.5708 MY,0,83611,,162 V,0,83611,,2,4 F,0,83611,84111,1,0 R,0,84156,,1.5708 MY,0,84156,,311 V,0,84156,,2,4 F,0,84156,84656,1,0 R,0,84701,,1.5708 MY,0,84701,,272 V,0,84701,,2,4 F,0,84701,85201,1,0 R,0,85247,,1.5708 MY,0,85247,,262 V,0,85247,,2,4 F,0,85247,85747,1,0 R,0,85793,,1.5708 MY,0,85793,,174 V,0,85793,,2,4 F,0,85793,86293,1,0 R,0,86338,,1.5708 MY,0,86338,,254 V,0,86338,,2,4 F,0,86338,86838,1,0 R,0,86883,,1.5708 MY,0,86883,,355 V,0,86883,,2,4 F,0,86883,87383,1,0 R,0,87429,,1.5708 MY,0,87429,,254 V,0,87429,,2,4 F,0,87429,87929,1,0
Sprite,Foreground,Centre,"sb\Lhighlight.png",320,0 F,0,0,,0 F,0,0,,0 F,0,0,,0 F,0,0,,0 F,0,0,,0 F,0,0,,0 F,0,0,,0 F,0,0,,0 F,0,0,,0 F,0,0,,0 F,0,0,,0 F,0,0,,0 F,0,0,,0 F,0,0,,0 F,0,0,,0 F,0,0,,0 F,0,0,,0 F,0,0,,0 F,0,0,,0 F,0,0,,0 F,0,0,,0 F,0,0,,0 F,0,0,,0 F,0,0,,0 F,0,0,,0 R,0,69974,,1.5708 MY,0,69974,,353 V,0,69974,,2,4 F,0,69974,70474,1,0 R,0,70929,,1.5708 MY,0,70929,,128 V,0,70929,,2,4 F,0,70929,71429,1,0 R,0,71474,,1.5708 MY,0,71474,,289 V,0,71474,,2,4 F,0,71474,71974,1,0 R,0,72156,,1.5708 MY,0,72156,,401 V,0,72156,,2,4 F,0,72156,72656,1,0 R,0,73111,,1.5708 MY,0,73111,,264 V,0,73111,,2,4 F,0,73111,73611,1,0 R,0,73929,,1.5708 MY,0,73929,,132 V,0,73929,,2,4 F,0,73929,74429,1,0 R,0,74438,,1.5708 MY,0,74438,,274 V,0,74438,,2,4 F,0,74438,74838,0.5,0 R,0,74884,,1.5708 MY,0,74884,,310 V,0,74884,,2,4 F,0,74884,75384,1,0 R,0,75838,,1.5708 MY,0,75838,,310 V,0,75838,,2,4 F,0,75838,76338,1,0 R,0,76520,,1.5708 MY,0,76520,,364 V,0,76520,,2,4 F,0,76520,77020,1,0 R,0,77065,,1.5708 MY,0,77065,,249 V,0,77065,,2,4 F,0,77065,77565,1,0 R,0,78020,,1.5708 MY,0,78020,,276 V,0,78020,,2,4 F,0,78020,78520,1,0 R,0,78565,,1.5708 MY,0,78565,,216 V,0,78565,,2,4 F,0,78565,79065,1,0 R,0,79656,,1.5708 MY,0,79656,,292 V,0,79656,,2,4 F,0,79656,80156,1,0 R,0,80201,,1.5708 MY,0,80201,,316 V,0,80201,,2,4 F,0,80201,80701,1,0 R,0,80884,,1.5708 MY,0,80884,,211 V,0,80884,,2,4 F,0,80884,81384,1,0 R,0,81838,,1.5708 MY,0,81838,,194 V,0,81838,,2,4 F,0,81838,82338,1,0 R,0,82656,,1.5708 MY,0,82656,,424 V,0,82656,,2,4 F,0,82656,83156,1,0 R,0,83165,,1.5708 MY,0,83165,,257 V,0,83165,,2,4 F,0,83165,83565,0.5,0 R,0,83611,,1.5708 MY,0,83611,,162 V,0,83611,,2,4 F,0,83611,84111,1,0 R,0,84565,,1.5708 MY,0,84565,,252 V,0,84565,,2,4 F,0,84565,85065,1,0 R,0,85247,,1.5708 MY,0,85247,,262 V,0,85247,,2,4 F,0,85247,85747,1,0 R,0,85793,,1.5708 MY,0,85793,,174 V,0,85793,,2,4 F,0,85793,86293,1,0 R,0,86747,,1.5708 MY,0,86747,,213 V,0,86747,,2,4 F,0,86747,87247,1,0 R,0,87292,,1.5708 MY,0,87292,,412 V,0,87292,,2,4 F,0,87292,87792,1,0
Sprite,Foreground,Centre,"sb\Lhighlight.png",320,0 F,0,0,,0 F,0,0,,0 F,0,0,,0 F,0,0,,0 F,0,0,,0 F,0,0,,0 F,0,0,,0 F,0,0,,0 F,0,0,,0 F,0,0,,0 F,0,0,,0 F,0,0,,0 F,0,0,,0 F,0,0,,0 F,0,0,,0 F,0,0,,0 F,0,0,,0 F,0,0,,0 F,0,0,,0 F,0,0,,0 F,0,0,,0 R,0,70110,,1.5708 MY,0,70110,,336 V,0,70110,,2,4 F,0,70110,70610,1,0 R,0,71747,,1.5708 MY,0,71747,,204 V,0,71747,,2,4 F,0,71747,72247,1,0 R,0,72256,,1.5708 MY,0,72256,,421 V,0,72256,,2,4 F,0,72256,72656,0.5,0 R,0,73384,,1.5708 MY,0,73384,,284 V,0,73384,,2,4 F,0,73384,73884,1,0 R,0,74202,,1.5708 MY,0,74202,,181 V,0,74202,,2,4 F,0,74202,74702,1,0 R,0,74904,,1.5708 MY,0,74904,,314 V,0,74904,,2,4 F,0,74904,75384,0.9,0 R,0,76111,,1.5708 MY,0,76111,,353 V,0,76111,,2,4 F,0,76111,76611,1,0 R,0,76620,,1.5708 MY,0,76620,,384 V,0,76620,,2,4 F,0,76620,77020,0.5,0 R,0,77085,,1.5708 MY,0,77085,,253 V,0,77085,,2,4 F,0,77085,77565,0.9,0 R,0,78293,,1.5708 MY,0,78293,,294 V,0,78293,,2,4 F,0,78293,78793,1,0 R,0,78802,,1.5708 MY,0,78802,,380 V,0,78802,,2,4 F,0,78802,79202,0.5,0 R,0,80474,,1.5708 MY,0,80474,,211 V,0,80474,,2,4 F,0,80474,80974,1,0 R,0,80984,,1.5708 MY,0,80984,,231 V,0,80984,,2,4 F,0,80984,81384,0.5,0 R,0,82111,,1.5708 MY,0,82111,,116 V,0,82111,,2,4 F,0,82111,82611,1,0 R,0,82929,,1.5708 MY,0,82929,,388 V,0,82929,,2,4 F,0,82929,83429,1,0 R,0,83631,,1.5708 MY,0,83631,,166 V,0,83631,,2,4 F,0,83631,84111,0.9,0 R,0,84838,,1.5708 MY,0,84838,,360 V,0,84838,,2,4 F,0,84838,85338,1,0 R,0,85347,,1.5708 MY,0,85347,,282 V,0,85347,,2,4 F,0,85347,85747,0.5,0 R,0,85813,,1.5708 MY,0,85813,,178 V,0,85813,,2,4 F,0,85813,86293,0.9,0 R,0,87020,,1.5708 MY,0,87020,,328 V,0,87020,,2,4 F,0,87020,87520,1,0 R,0,87529,,1.5708 MY,0,87529,,274 V,0,87529,,2,4 F,0,87529,87929,0.5,0
Sprite,Foreground,Centre,"sb\Lhighlight.png",320,0 F,0,0,,0 F,0,0,,0 F,0,0,,0 F,0,0,,0 F,0,0,,0 F,0,0,,0 F,0,0,,0 F,0,0,,0 F,0,0,,0 F,0,0,,0 F,0,0,,0 F,0,0,,0 R,0,72176,,1.5708 MY,0,72176,,405 V,0,72176,,2,4 F,0,72176,72656,0.9,0 R,0,74338,,1.5708 MY,0,74338,,254 V,0,74338,,2,4 F,0,74338,74838,1,0 R,0,74924,,1.5708 MY,0,74924,,302 V,0,74924,,2,4 F,0,74924,75384,0.8,0 R,0,76540,,1.5708 MY,0,76540,,368 V,0,76540,,2,4 F,0,76540,77020,0.9,0 R,0,77105,,1.5708 MY,0,77105,,241 V,0,77105,,2,4 F,0,77105,77565,0.8,0 R,0,78702,,1.5708 MY,0,78702,,360 V,0,78702,,2,4 F,0,78702,79202,1,0 R,0,80904,,1.5708 MY,0,80904,,215 V,0,80904,,2,4 F,0,80904,81384,0.9,0 R,0,83065,,1.5708 MY,0,83065,,237 V,0,83065,,2,4 F,0,83065,83565,1,0 R,0,83651,,1.5708 MY,0,83651,,154 V,0,83651,,2,4 F,0,83651,84111,0.8,0 R,0,85267,,1.5708 MY,0,85267,,266 V,0,85267,,2,4 F,0,85267,85747,0.9,0 R,0,85833,,1.5708 MY,0,85833,,166 V,0,85833,,2,4 F,0,85833,86293,0.8,0 R,0,87429,,1.5708 MY,0,87429,,254 V,0,87429,,2,4 F,0,87429,87929,1,0
Sprite,Foreground,Centre,"sb\Lhighlight.png",320,0 F,0,0,,0 F,0,0,,0 F,0,0,,0 F,0,0,,0 F,0,0,,0 F,0,0,,0 F,0,0,,0 F,0,0,,0 F,0,0,,0 F,0,0,,0 F,0,0,,0 F,0,0,,0 R,0,72196,,1.5708 MY,0,72196,,393 V,0,72196,,2,4 F,0,72196,72656,0.8,0 R,0,74358,,1.5708 MY,0,74358,,258 V,0,74358,,2,4 F,0,74358,74838,0.9,0 R,0,74944,,1.5708 MY,0,74944,,322 V,0,74944,,2,4 F,0,74944,75384,0.7,0 R,0,76560,,1.5708 MY,0,76560,,356 V,0,76560,,2,4 F,0,76560,77020,0.8,0 R,0,77125,,1.5708 MY,0,77125,,261 V,0,77125,,2,4 F,0,77125,77565,0.7,0 R,0,78722,,1.5708 MY,0,78722,,364 V,0,78722,,2,4 F,0,78722,79202,0.9,0 R,0,80924,,1.5708 MY,0,80924,,203 V,0,80924,,2,4 F,0,80924,81384,0.8,0 R,0,83085,,1.5708 MY,0,83085,,241 V,0,83085,,2,4 F,0,83085,83565,0.9,0 R,0,83671,,1.5708 MY,0,83671,,174 V,0,83671,,2,4 F,0,83671,84111,0.7,0 R,0,85287,,1.5708 MY,0,85287,,254 V,0,85287,,2,4 F,0,85287,85747,0.8,0 R,0,85853,,1.5708 MY,0,85853,,186 V,0,85853,,2,4 F,0,85853,86293,0.7,0 R,0,87449,,1.5708 MY,0,87449,,258 V,0,87449,,2,4 F,0,87449,87929,0.9,0
Sprite,Foreground,Centre,"sb\Lhighlight.png",320,0 F,0,0,,0 F,0,0,,0 F,0,0,,0 F,0,0,,0 F,0,0,,0 F,0,0,,0 F,0,0,,0 F,0,0,,0 F,0,0,,0 F,0,0,,0 F,0,0,,0 F,0,0,,0 R,0,72216,,1.5708 MY,0,72216,,413 V,0,72216,,2,4 F,0,72216,72656,0.7,0 R,0,74378,,1.5708 MY,0,74378,,246 V,0,74378,,2,4 F,0,74378,74838,0.8,0 R,0,74964,,1.5708 MY,0,74964,,294 V,0,74964,,2,4 F,0,74964,75384,0.6,0 R,0,76580,,1.5708 MY,0,76580,,376 V,0,76580,,2,4 F,0,76580,77020,0.7,0 R,0,77145,,1.5708 MY,0,77145,,233 V,0,77145,,2,4 F,0,77145,77565,0.6,0 R,0,78742,,1.5708 MY,0,78742,,352 V,0,78742,,2,4 F,0,78742,79202,0.8,0 R,0,80944,,1.5708 MY,0,80944,,223 V,0,80944,,2,4 F,0,80944,81384,0.7,0 R,0,83105,,1.5708 MY,0,83105,,229 V,0,83105,,2,4 F,0,83105,83565,0.8,0 R,0,83691,,1.5708 MY,0,83691,,146 V,0,83691,,2,4 F,0,83691,84111,0.6,0 R,0,85307,,1.5708 MY,0,85307,,274 V,0,85307,,2,4 F,0,85307,85747,0.7,0 R,0,85873,,1.5708 MY,0,85873,,158 V,0,85873,,2,4 F,0,85873,86293,0.6,0 R,0,87469,,1.5708 MY,0,87469,,246 V,0,87469,,2,4 F,0,87469,87929,0.8,0
Sprite,Foreground,Centre,"sb\Lhighlight.png",320,0 F,0,0,,0 F,0,0,,0 F,0,0,,0 F,0,0,,0 F,0,0,,0 F,0,0,,0 F,0,0,,0 F,0,0,,0 F,0,0,,0 F,0,0,,0 F,0,0,,0 F,0,0,,0 R,0,72236,,1.5708 MY,0,72236,,385 V,0,72236,,2,4 F,0,72236,72656,0.6,0 R,0,74398,,1.5708 MY,0,74398,,266 V,0,74398,,2,4 F,0,74398,74838,0.7,0 R,0,74984,,1.5708 MY,0,74984,,330 V,0,74984,,2,4 F,0,74984,75384,0.5,0 R,0,76600,,1.5708 MY,0,76600,,348 V,0,76600,,2,4 F,0,76600,77020,0.6,0 R,0,77165,,1.5708 MY,0,77165,,269 V,0,77165,,2,4 F,0,77165,77565,0.5,0 R,0,78762,,1.5708 MY,0,78762,,372 V,0,78762,,2,4 F,0,78762,79202,0.7,0 R,0,80964,,1.5708 MY,0,80964,,195 V,0,80964,,2,4 F,0,80964,81384,0.6,0 R,0,83125,,1.5708 MY,0,83125,,249 V,0,83125,,2,4 F,0,83125,83565,0.7,0 R,0,83711,,1.5708 MY,0,83711,,182 V,0,83711,,2,4 F,0,83711,84111,0.5,0 R,0,85327,,1.5708 MY,0,85327,,246 V,0,85327,,2,4 F,0,85327,85747,0.6,0 R,0,85893,,1.5708 MY,0,85893,,194 V,0,85893,,2,4 F,0,85893,86293,0.5,0 R,0,87489,,1.5708 MY,0,87489,,266 V,0,87489,,2,4 F,0,87489,87929,0.7,0
Sprite,Foreground,Centre,"sb\Lhighlight.png",320,0 F,0,0,,0 F,0,0,,0 F,0,0,,0 F,0,0,,0 F,0,0,,0 F,0,0,,0 F,0,0,,0 F,0,0,,0 F,0,0,,0 F,0,0,,0 F,0,0,,0 F,0,0,,0 R,0,72276,,1.5708 MY,0,72276,,377 V,0,72276,,2,4 F,0,72276,72656,0.4,0 R,0,74418,,1.5708 MY,0,74418,,238 V,0,74418,,2,4 F,0,74418,74838,0.6,0 R,0,75004,,1.5708 MY,0,75004,,286 V,0,75004,,2,4 F,0,75004,75384,0.4,0 R,0,76640,,1.5708 MY,0,76640,,340 V,0,76640,,2,4 F,0,76640,77020,0.4,0 R,0,77185,,1.5708 MY,0,77185,,225 V,0,77185,,2,4 F,0,77185,77565,0.4,0 R,0,78782,,1.5708 MY,0,78782,,344 V,0,78782,,2,4 F,0,78782,79202,0.6,0 R,0,81004,,1.5708 MY,0,81004,,187 V,0,81004,,2,4 F,0,81004,81384,0.4,0 R,0,83145,,1.5708 MY,0,83145,,221 V,0,83145,,2,4 F,0,83145,83565,0.6,0 R,0,83731,,1.5708 MY,0,83731,,138 V,0,83731,,2,4 F,0,83731,84111,0.4,0 R,0,85367,,1.5708 MY,0,85367,,238 V,0,85367,,2,4 F,0,85367,85747,0.4,0 R,0,85913,,1.5708 MY,0,85913,,150 V,0,85913,,2,4 F,0,85913,86293,0.4,0 R,0,87509,,1.5708 MY,0,87509,,238 V,0,87509,,2,4 F,0,87509,87929,0.6,0
Sprite,Foreground,Centre,"sb\Lhighlight.png",320,0 F,0,0,,0 F,0,0,,0 F,0,0,,0 F,0,0,,0 F,0,0,,0 F,0,0,,0 F,0,0,,0 F,0,0,,0 F,0,0,,0 F,0,0,,0 F,0,0,,0 F,0,0,,0 R,0,72296,,1.5708 MY,0,72296,,429 V,0,72296,,2,4 F,0,72296,72656,0.3,0 R,0,74458,,1.5708 MY,0,74458,,230 V,0,74458,,2,4 F,0,74458,74838,0.4,0 R,0,75024,,1.5708 MY,0,75024,,338 V,0,75024,,2,4 F,0,75024,75384,0.3,0 R,0,76660,,1.5708 MY,0,76660,,392 V,0,76660,,2,4 F,0,76660,77020,0.3,0 R,0,77205,,1.5708 MY,0,77205,,277 V,0,77205,,2,4 F,0,77205,77565,0.3,0 R,0,78822,,1.5708 MY,0,78822,,336 V,0,78822,,2,4 F,0,78822,79202,0.4,0 R,0,81024,,1.5708 MY,0,81024,,239 V,0,81024,,2,4 F,0,81024,81384,0.3,0 R,0,83185,,1.5708 MY,0,83185,,213 V,0,83185,,2,4 F,0,83185,83565,0.4,0 R,0,83751,,1.5708 MY,0,83751,,190 V,0,83751,,2,4 F,0,83751,84111,0.3,0 R,0,85387,,1.5708 MY,0,85387,,290 V,0,85387,,2,4 F,0,85387,85747,0.3,0 R,0,85933,,1.5708 MY,0,85933,,202 V,0,85933,,2,4 F,0,85933,86293,0.3,0 R,0,87549,,1.5708 MY,0,87549,,230 V,0,87549,,2,4 F,0,87549,87929,0.4,0
Sprite,Foreground,Centre,"sb\Lhighlight.png",320,0 F,0,0,,0 F,0,0,,0 F,0,0,,0 F,0,0,,0 F,0,0,,0 F,0,0,,0 F,0,0,,0 F,0,0,,0 F,0,0,,0 F,0,0,,0 F,0,0,,0 F,0,0,,0 R,0,72316,,1.5708 MY,0,72316,,369 V,0,72316,,2,4 F,0,72316,72656,0.2,0 R,0,74478,,1.5708 MY,0,74478,,282 V,0,74478,,2,4 F,0,74478,74838,0.3,0 R,0,75044,,1.5708 MY,0,75044,,278 V,0,75044,,2,4 F,0,75044,75384,0.2,0 R,0,76680,,1.5708 MY,0,76680,,332 V,0,76680,,2,4 F,0,76680,77020,0.2,0 R,0,77225,,1.5708 MY,0,77225,,217 V,0,77225,,2,4 F,0,77225,77565,0.2,0 R,0,78842,,1.5708 MY,0,78842,,388 V,0,78842,,2,4 F,0,78842,79202,0.3,0 R,0,81044,,1.5708 MY,0,81044,,179 V,0,81044,,2,4 F,0,81044,81384,0.2,0 R,0,83205,,1.5708 MY,0,83205,,265 V,0,83205,,2,4 F,0,83205,83565,0.3,0 R,0,83771,,1.5708 MY,0,83771,,130 V,0,83771,,2,4 F,0,83771,84111,0.2,0 R,0,85407,,1.5708 MY,0,85407,,230 V,0,85407,,2,4 F,0,85407,85747,0.2,0 R,0,85953,,1.5708 MY,0,85953,,142 V,0,85953,,2,4 F,0,85953,86293,0.2,0 R,0,87569,,1.5708 MY,0,87569,,282 V,0,87569,,2,4 F,0,87569,87929,0.3,0
Sprite,Foreground,Centre,"sb\Lhighlight.png",320,0 F,0,0,,0 F,0,0,,0 F,0,0,,0 F,0,0,,0 F,0,0,,0 F,0,0,,0 F,0,0,,0 F,0,0,,0 F,0,0,,0 F,0,0,,0 F,0,0,,0 F,0,0,,0 R,0,72336,,1.5708 MY,0,72336,,437 V,0,72336,,2,4 F,0,72336,72656,0.1,0 R,0,74498,,1.5708 MY,0,74498,,222 V,0,74498,,2,4 F,0,74498,74838,0.2,0 R,0,75064,,1.5708 MY,0,75064,,346 V,0,75064,,2,4 F,0,75064,75384,0.1,0 R,0,76700,,1.5708 MY,0,76700,,400 V,0,76700,,2,4 F,0,76700,77020,0.1,0 R,0,77245,,1.5708 MY,0,77245,,285 V,0,77245,,2,4 F,0,77245,77565,0.1,0 R,0,78862,,1.5708 MY,0,78862,,328 V,0,78862,,2,4 F,0,78862,79202,0.2,0 R,0,81064,,1.5708 MY,0,81064,,247 V,0,81064,,2,4 F,0,81064,81384,0.1,0 R,0,83225,,1.5708 MY,0,83225,,205 V,0,83225,,2,4 F,0,83225,83565,0.2,0 R,0,83791,,1.5708 MY,0,83791,,198 V,0,83791,,2,4 F,0,83791,84111,0.1,0 R,0,85427,,1.5708 MY,0,85427,,298 V,0,85427,,2,4 F,0,85427,85747,0.1,0 R,0,85973,,1.5708 MY,0,85973,,210 V,0,85973,,2,4 F,0,85973,86293,0.1,0 R,0,87589,,1.5708 MY,0,87589,,222 V,0,87589,,2,4 F,0,87589,87929,0.2,0
Sprite,Foreground,Centre,"sb\Lhighlight.png",320,0 F,0,0,,0 F,0,0,,0 F,0,0,,0 F,0,0,,0 F,0,0,,0 F,0,0,,0 F,0,0,,0 F,0,0,,0 R,0,74518,,1.5708 MY,0,74518,,290 V,0,74518,,2,4 F,0,74518,74838,0.1,0 R,0,75293,,1.5708 MY,0,75293,,254 V,0,75293,,2,4 F,0,75293,75793,1,0 R,0,76929,,1.5708 MY,0,76929,,439 V,0,76929,,2,4 F,0,76929,77429,1,0 R,0,78882,,1.5708 MY,0,78882,,396 V,0,78882,,2,4 F,0,78882,79202,0.1,0 R,0,83245,,1.5708 MY,0,83245,,273 V,0,83245,,2,4 F,0,83245,83565,0.1,0 R,0,84020,,1.5708 MY,0,84020,,166 V,0,84020,,2,4 F,0,84020,84520,1,0 R,0,85656,,1.5708 MY,0,85656,,223 V,0,85656,,2,4 F,0,85656,86156,1,0 R,0,87609,,1.5708 MY,0,87609,,290 V,0,87609,,2,4 F,0,87609,87929,0.1,0
//Storyboard Sound Samples

[TimingPoints]
454,545.454545454546,4,2,1,40,1,0
454,-111.111111111111,4,2,1,40,0,0
4817,-111.111111111111,4,2,1,40,0,0
17884,545.454545454546,4,2,1,60,1,0
17884,-76.9230769230769,4,2,1,60,0,0
35338,-52.6315789473684,4,2,1,90,0,1
35474,-58.8235294117647,4,2,1,90,0,0
52793,-100,4,2,1,90,0,0
54974,-55.5555555555556,4,2,1,90,0,1
55111,-55.5555555555556,4,2,1,90,0,0
69702,-66.6666666666667,4,2,1,90,0,0
70247,-55.5555555555556,4,1,2,80,0,1
70316,-55.5555555555556,4,2,1,100,0,1
72430,-55.5555555555556,4,1,2,80,0,1
72498,-55.5555555555556,4,2,1,100,0,1
74611,-55.5555555555556,4,1,2,80,0,1
74679,-55.5555555555556,4,2,1,100,0,1
76793,-55.5555555555556,4,1,2,80,0,1
76861,-55.5555555555556,4,2,1,100,0,1
77339,-55.5555555555556,4,1,2,80,0,1
77407,-55.5555555555556,4,2,1,100,0,1
77884,-55.5555555555556,4,1,2,80,0,1
77952,-55.5555555555556,4,2,1,100,0,1
78430,-55.5555555555556,4,1,2,80,0,1
78498,-55.5555555555556,4,2,1,100,0,1
78975,-55.5555555555556,4,1,2,80,0,1
79043,-55.5555555555556,4,2,1,100,0,1
81157,-55.5555555555556,4,1,2,80,0,1
81225,-55.5555555555556,4,2,1,100,0,1
83339,-55.5555555555556,4,1,2,80,0,1
83407,-55.5555555555556,4,2,1,100,0,1
85520,-55.5555555555556,4,1,2,80,0,1
85588,-55.5555555555556,4,2,1,100,0,1
86066,-55.5555555555556,4,1,2,80,0,1
86134,-55.5555555555556,4,2,1,100,0,1
86611,-55.5555555555556,4,1,2,80,0,1
86679,-55.5555555555556,4,2,1,100,0,1
87157,-55.5555555555556,4,1,2,80,0,1
87225,-55.5555555555556,4,2,1,100,0,1
87702,-125,4,2,1,40,0,0

[Colours]
Combo1 : 14,147,154
Combo2 : 0,65,130
Combo3 : 102,151,253
Combo4 : 141,224,245

[HitObjects]
200,324,454,5,2,0:3:0:0:
200,324,999,1,0,0:0:0:0:
248,256,1272,6,0,B|240:192|184:172|184:172|188:116|208:64|208:64|164:56|128:20,1,305.999990661621,2|0,0:0|0:0,0:0:0:0:
296,124,2635,5,2,0:3:0:0:
296,124,3181,1,2,0:3:0:0:
368,64,3454,6,0,B|407:120|384:176|344:204|344:204|400:184|400:184|382:232|392:272,1,305.999990661621,2|0,0:0|0:0,0:0:0:0:
200,364,4817,5,2,0:3:0:0:
200,364,5363,1,0,0:0:0:0:
152,288,5635,6,0,B|150:265|142:241|142:241|151:218|164:201|164:201|152:172|159:143,1,152.999995330811,2|0,0:0|0:0,0:0:0:0:
224,76,6454,1,0,0:0:0:0:
156,16,6726,1,0,0:0:0:0:
72,188,6999,5,2,0:3:0:0:
72,188,7544,1,0,0:0:0:0:
156,220,7817,6,0,P|209:179|293:183,1,152.999995330811,2|0,0:0|0:0,0:0:0:0:
360,244,8635,1,0,0:0:0:0:
348,332,8908,1,0,0:0:0:0:
156,220,9181,5,2,0:3:0:0:
156,220,9726,1,0,0:0:0:0:
184,308,9999,6,0,B|127:323|85:292|69:249|69:249|43:289|10:300|10:300|-4:345|13:385,1,305.999990661621,2|0,0:0|0:0,0:0:0:0:
156,220,11363,5,2,0:3:0:0:
156,220,11908,1,2,0:3:0:0:
237,204,12181,2,0,B|286:219|300:278|300:278|333:225|350:145|270:83,1,305.999990661621,2|0,0:0|0:0,0:0:0:0:
54,63,13544,5,2,0:3:0:0:
54,63,14090,1,0,0:0:0:0:
134,104,14363,6,0,B|170:99|194:108|194:108|236:89|236:89|262:96|288:92,1,152.999995330811,2|0,0:0|0:0,0:0:0:0:
360,48,15181,1,0,0:0:0:0:
416,116,15454,1,0,0:0:0:0:
360,312,15726,5,2,0:3:0:0:
360,312,16272,1,0,0:0:0:0:
280,348,16544,6,0,B|250:341|225:330|225:330|183:335|183:335|154:328|122:329,1,152.999995330811,2|0,0:0|0:0,0:0:0:0:
64,268,17363,1,0,0:0:0:0:
0,328,17635,1,0,0:0:0:0:
72,160,17884,6,0,L|76:100,2,55.2499974708558,6|0|0,0:0|0:0|0:0,0:0:0:0:
181,315,18429,6,0,L|184:370,2,55.2499974708558,4|2|2,0:0|0:0|0:0,0:0:0:0:
200,48,18974,6,0,L|260:44,1,55.2499974708558,4|0,0:0|0:0,0:0:0:0:
376,112,19247,2,0,L|316:108,1,55.2499974708558,0|0,0:0|0:0,0:0:0:0:
194,165,19520,2,0,L|254:161,1,55.2499974708558,4|0,0:0|0:0,0:0:0:0:
370,229,19793,2,0,L|310:225,1,55.2499974708558,0|0,0:0|0:0,0:0:0:0:
423,307,20065,6,0,P|454:270|459:198,1,110.499994941712,6|0,0:0|0:0,0:0:0:0:
376,112,20611,2,0,L|380:55,2,55.2499974708558,6|2|2,0:0|0:0|0:0,0:0:0:0:
370,229,21156,6,0,L|376:287,1,55.2499974708558,4|0,0:0|0:0,0:0:0:0:
294,317,21429,2,0,L|288:371,1,55.2499974708558,0|0,0:0|0:0,0:0:0:0:
221,210,21702,2,0,L|226:264,1,55.2499974708558,4|0,0:0|0:0,0:0:0:0:
145,122,21975,2,0,L|139:176,1,55.2499974708558,0|0,0:0|0:0,0:0:0:0:
221,70,22247,6,0,L|334:63,1,110.499994941712,6|0,0:0|0:0,0:0:0:0:
422,22,22793,6,0,L|484:25,2,55.2499974708558,6|2|2,0:0|0:0|0:0,0:0:0:0:
331,63,23338,6,0,P|328:86|329:118,1,55.2499974708558,4|0,0:0|0:0,0:0:0:0:
390,180,23611,2,0,P|392:207|391:235,1,55.2499974708558,0|0,0:0|0:0,0:0:0:0:
326,290,23884,2,0,L|215:283,1,110.499994941712,6|2,0:0|0:0,0:0:0:0:
184,189,24429,6,0,P|139:219|116:294,1,110.499994941712,6|0,0:0|0:0,0:0:0:0:
219,338,24974,6,0,L|215:283,2,55.2499974708558,6|2|2,0:0|0:0|0:0,0:0:0:0:
59,83,25520,6,0,P|87:78|118:79,1,55.2499974708558,4|0,0:0|0:0,0:0:0:0:
186,123,25793,2,0,P|213:123|240:118,1,55.2499974708558,0|0,0:0|0:0,0:0:0:0:
269,36,26065,2,0,P|305:61|323:149,1,110.499994941712,6|2,0:0|0:0,0:0:0:0:
255,323,26611,6,0,L|366:318,1,110.499994941712,6|0,0:0|0:0,0:0:0:0:
203,259,27156,6,0,P|185:283|174:312,2,55.2499974708558,6|2|2,0:0|0:0|0:0,0:0:0:0:
361,137,27702,5,4,0:0:0:0:
336,109,27838,1,0,0:0:0:0:
304,90,27974,2,0,L|247:87,1,55.2499974708558,0|0,0:0|0:0,0:0:0:0:
90,209,28247,1,4,0:0:0:0:
115,237,28383,1,0,0:0:0:0:
147,256,28519,2,0,L|204:259,1,55.2499974708558,0|0,0:0|0:0,0:0:0:0:
31,267,28793,6,0,L|22:379,1,110.499994941712,6|0,0:0|0:0,0:0:0:0:
147,256,29338,6,0,L|144:196,2,55.2499974708558,6|2|2,0:0|0:0|0:0,0:0:0:0:
63,135,29884,5,4,0:0:0:0:
76,110,30020,1,0,0:0:0:0:
88,87,30156,2,0,L|152:85,1,55.2499974708558,0|0,0:0|0:0,0:0:0:0:
309,244,30429,1,4,0:0:0:0:
295,268,30565,1,0,0:0:0:0:
284,292,30701,2,0,L|220:294,1,55.2499974708558,0|0,0:0|0:0,0:0:0:0:
341,152,30974,6,0,P|382:179|406:256,1,110.499994941712,6|0,0:0|0:0,0:0:0:0:
249,90,31520,6,0,L|245:30,2,55.2499974708558,6|2|2,0:0|0:0|0:0,0:0:0:0:
309,244,32065,5,4,0:0:0:0:
307,271,32201,1,0,0:0:0:0:
304,297,32338,2,0,L|301:367,1,55.2499974708558,0|0,0:0|0:0,0:0:0:0:
365,162,32611,2,0,P|335:149|302:147,1,55.2499974708558,6|0,0:0|0:0,0:0:0:0:
202,197,32884,2,0,P|174:193|149:181,1,55.2499974708558,2|0,0:0|0:0,0:0:0:0:
302,36,33156,6,0,L|313:152,1,110.499994941712,6|0,0:0|0:0,0:0:0:0:
202,197,33702,6,0,L|199:252,2,55.2499974708558,6|2|2,0:0|0:0|0:0,0:0:0:0:
404,235,34247,1,4,0:0:0:0:
406,261,34383,1,0,0:0:0:0:
409,289,34520,2,0,L|415:361,1,55.2499974708558,0|0,0:0|0:0,0:0:0:0:
484,159,34793,5,8,0:1:0:0:
486,158,35338,6,0,L|322:148,1,161.499995687485,6|0,0:1|0:0,0:0:0:0:
454,3,35884,2,0,P|468:36|473:80,1,72.2500013780594,8|0,0:1|0:0,0:0:0:0:
220,153,36156,2,0,P|225:118|240:85,1,72.2500013780594,0|0,0:0|0:0,0:0:0:0:
320,313,36429,2,0,L|246:318,1,72.2500013780594,2|0,0:1|0:0,0:0:0:0:
322,148,36702,2,0,L|396:153,1,72.2500013780594,0|0,0:0|0:0,0:0:0:0:
132,160,36974,2,0,P|144:92|192:4,1,144.500002756119,8|0,0:1|0:0,0:0:0:0:
161,335,37520,6,0,L|8:325,1,144.500002756119,6|0,0:1|0:0,0:0:0:0:
151,106,38065,1,8,0:1:0:0:
98,240,38202,1,0,0:0:0:0:
54,98,38338,2,0,P|65:59|92:28,1,72.2500013780594,0|0,0:0|0:0,0:0:0:0:
250,185,38611,2,0,L|176:189,1,72.2500013780594,2|0,0:1|0:0,0:0:0:0:
310,95,38884,2,0,L|385:99,1,72.2500013780594,0|0,0:0|0:0,0:0:0:0:
253,261,39156,2,0,L|104:268,1,144.500002756119,8|0,0:1|0:0,0:0:0:0:
472,174,39702,6,0,L|482:322,1,144.500002756119,6|0,0:1|0:0,0:0:0:0:
253,261,40247,1,8,0:1:0:0:
359,210,40384,1,0,0:0:0:0:
270,363,40520,2,0,P|231:362|199:349,1,72.2500013780594,0|0,0:0|0:0,0:0:0:0:
273,115,40793,2,0,L|280:194,1,72.2500013780594,2|0,0:1|0:0,0:0:0:0:
116,102,41065,2,0,L|122:29,1,72.2500013780594,0|0,0:0|0:0,0:0:0:0:
279,186,41338,2,0,L|272:258,1,72.2500013780594,8|0,0:1|0:0,0:0:0:0:
122,173,41611,2,0,L|115:101,1,72.2500013780594,0|0,0:0|0:0,0:0:0:0:
320,39,41884,6,0,L|469:29,1,144.500002756119,6|0,0:1|0:0,0:0:0:0:
279,186,42429,1,8,0:1:0:0:
207,78,42565,1,0,0:0:0:0:
385,216,42702,2,0,P|405:252|413:296,1,72.2500013780594,0|0,0:0|0:0,0:0:0:0:
118,163,42974,2,0,L|203:159,1,72.2500013780594,2|0,0:1|0:0,0:0:0:0:
320,284,43247,2,0,L|235:280,1,72.2500013780594,0|0,0:0|0:0,0:0:0:0:
348,22,43520,2,0,L|356:103,1,72.2500013780594,8|0,0:1|0:0,0:0:0:0:
191,159,43793,2,0,L|198:87,1,72.2500013780594,0|0,0:0|0:0,0:0:0:0:
332,361,44065,6,0,L|187:353,1,144.500002756119,6|0,0:1|0:0,0:0:0:0:
191,159,44611,1,8,0:1:0:0:
276,268,44747,1,0,0:0:0:0:
94,167,44884,2,0,P|98:131|118:95,1,72.2500013780594,0|0,0:0|0:0,0:0:0:0:
102,305,45156,2,0,L|29:309,1,72.2500013780594,2|0,0:1|0:0,0:0:0:0:
191,159,45429,2,0,L|264:163,1,72.2500013780594,0|0,0:0|0:0,0:0:0:0:
308,368,45702,2,0,L|164:356,1,144.500002756119,8|0,0:1|0:0,0:0:0:0:
159,70,46247,6,0,P|110:111|110:208,1,144.500002756119,6|0,0:1|0:0,0:0:0:0:
280,284,46793,1,8,0:1:0:0:
191,159,46929,1,0,0:0:0:0:
110,288,47065,2,0,L|102:365,1,72.2500013780594,0|0,0:0|0:0,0:0:0:0:
280,284,47338,2,0,L|351:276,1,72.2500013780594,2|0,0:1|0:0,0:0:0:0:
191,159,47611,2,0,L|118:151,1,72.2500013780594,0|0,0:0|0:0,0:0:0:0:
320,95,47884,2,0,L|464:80,1,144.500002756119,8|0,0:1|0:0,0:0:0:0:
231,62,48429,6,0,P|272:95|284:204,1,144.500002756119,6|0,0:1|0:0,0:0:0:0:
231,357,48974,1,8,0:1:0:0:
151,236,49111,1,0,0:0:0:0:
304,280,49247,2,0,P|324:309|336:353,1,72.2500013780594,0|0,0:0|0:0,0:0:0:0:
77,239,49520,2,0,L|154:235,1,72.2500013780594,2|0,0:1|0:0,0:0:0:0:
231,357,49793,2,0,L|155:353,1,72.2500013780594,0|0,0:0|0:0,0:0:0:0:
13,175,50065,2,0,L|17:99,1,72.2500013780594,8|0,0:1|0:0,0:0:0:0:
146,163,50338,2,0,L|149:235,1,72.2500013780594,0|0,0:0|0:0,0:0:0:0:
144,32,50611,6,0,L|289:20,1,144.500002756119,6|0,0:1|0:0,0:0:0:0:
369,204,51156,1,8,0:1:0:0:
482,103,51293,1,0,0:0:0:0:
292,143,51429,2,0,P|276:175|272:220,1,72.2500013780594,0|0,0:0|0:0,0:0:0:0:
461,313,51702,2,0,L|453:240,1,72.2500013780594,2|0,0:1|0:0,0:0:0:0:
389,30,51974,2,0,L|381:103,1,72.2500013780594,0|0,0:0|0:0,0:0:0:0:
198,219,52247,2,0,L|271:211,1,72.2500013780594,8|0,0:1|0:1,0:0:0:0:
122,337,52520,2,0,L|50:329,1,72.2500013780594,0|0,0:1|0:1,0:0:0:0:
20,112,52793,5,6,0:1:0:0:
20,112,53338,1,2,0:0:0:0:
29,88,53474,1,2,0:0:0:0:
37,64,53611,2,0,P|110:64|175:185,1,212.5,2|0,0:0|0:0,0:0:0:0:
141,258,54429,1,8,0:1:0:0:
141,258,54974,5,6,0:1:0:0:
176,173,55111,1,2,0:0:0:0:
190,344,55247,1,2,0:0:0:0:
49,203,55384,1,2,0:0:0:0:
259,269,55520,2,0,P|281:301|289:339,1,76.4999976654053,10|2,0:1|0:0,0:0:0:0:
176,173,55793,2,0,L|184:97,1,76.4999976654053,2|0,0:0|0:0,0:0:0:0:
104,352,56065,2,0,L|27:360,1,76.4999976654053,2|0,0:1|0:0,0:0:0:0:
259,269,56338,2,0,L|335:277,1,76.4999976654053,0|0,0:0|0:0,0:0:0:0:
120,88,56611,2,0,P|71:90|0:164,1,152.999995330811,8|0,0:1|0:0,0:0:0:0:
164,8,57156,5,6,0:1:0:0:
201,205,57293,1,2,0:0:0:0:
276,86,57429,1,2,0:0:0:0:
100,188,57565,1,2,0:0:0:0:
259,269,57702,2,0,L|335:261,1,76.4999976654053,10|2,0:1|0:0,0:0:0:0:
179,357,57974,2,0,L|102:349,1,76.4999976654053,2|0,0:0|0:0,0:0:0:0:
326,170,58247,2,0,P|364:176|409:204,1,76.4999976654053,2|0,0:1|0:0,0:0:0:0:
100,188,58520,2,0,P|62:182|17:155,1,76.4999976654053,0|0,0:0|0:0,0:0:0:0:
242,42,58793,2,0,L|248:124,1,76.4999976654053,10|0,0:1|0:0,0:0:0:0:
179,357,59065,2,0,L|184:279,1,76.4999976654053,2|0,0:0|0:0,0:0:0:0:
92,94,59338,5,6,0:1:0:0:
62,280,59474,1,2,0:0:0:0:
196,195,59611,1,2,0:0:0:0:
35,276,59747,1,2,0:0:0:0:
179,357,59884,1,10,0:1:0:0:
14,271,60020,1,2,0:0:0:0:
196,195,60156,2,0,P|236:199|292:221,1,76.4999976654053,2|0,0:0|0:0,0:0:0:0:
64,109,60429,2,0,P|60:70|53:17,1,76.4999976654053,2|0,0:1|0:0,0:0:0:0:
237,11,60702,2,0,P|232:48|228:86,1,76.4999976654053,0|0,0:0|0:0,0:0:0:0:
89,282,60974,2,0,P|53:276|3:269,1,76.4999976654053,10|0,0:1|0:0,0:0:0:0:
206,360,61247,2,0,P|243:354|281:348,1,76.4999976654053,2|0,0:0|0:0,0:0:0:0:
435,167,61520,6,0,L|427:331,1,152.999995330811,6|0,0:1|0:0,0:0:0:0:
331,60,62065,1,10,0:1:0:0:
343,221,62202,1,2,0:0:0:0:
166,49,62338,2,0,L|256:40,1,76.4999976654053,2|0,0:0|0:0,0:0:0:0:
180,204,62611,2,0,L|171:294,1,76.4999976654053,2|0,0:1|0:0,0:0:0:0:
343,221,62884,2,0,L|335:145,1,76.4999976654053,0|0,0:0|0:0,0:0:0:0:
76,293,63156,2,0,P|115:356|188:372,1,152.999995330811,8|0,0:1|0:0,0:0:0:0:
128,108,63702,5,6,0:1:0:0:
172,280,63838,1,2,0:0:0:0:
240,136,63974,1,2,0:0:0:0:
48,256,64111,1,2,0:0:0:0:
264,328,64247,2,0,P|304:320|340:316,1,76.4999976654053,8|2,0:1|0:0,0:0:0:0:
183,204,64520,2,0,P|175:241|171:279,1,76.4999976654053,2|0,0:0|0:0,0:0:0:0:
40,64,64793,2,0,L|118:56,1,76.4999976654053,2|0,0:1|0:0,0:0:0:0:
292,128,65065,2,0,L|214:120,1,76.4999976654053,0|0,0:0|0:0,0:0:0:0:
376,0,65338,2,0,P|424:48|436:164,1,152.999995330811,8|0,0:1|0:0,0:0:0:0:
395,355,65884,5,6,0:1:0:0:
362,218,66020,1,2,0:0:0:0:
303,357,66156,1,2,0:0:0:0:
454,266,66293,1,2,0:0:0:0:
268,136,66429,2,0,L|187:141,1,76.4999976654053,8|0,0:1|0:0,0:0:0:0:
395,355,66702,2,0,L|471:359,1,76.4999976654053,2|0,0:0|0:0,0:0:0:0:
174,242,66974,2,0,L|169:319,1,76.4999976654053,2|0,0:1|0:0,0:0:0:0:
303,357,67247,2,0,L|298:279,1,76.4999976654053,0|0,0:0|0:0,0:0:0:0:
160,104,67520,2,0,L|83:108,1,76.4999976654053,10|0,0:1|0:0,0:0:0:0:
296,32,67793,2,0,L|373:37,1,76.4999976654053,2|0,0:0|0:0,0:0:0:0:
304,256,68065,5,6,0:1:0:0:
200,176,68202,1,2,0:0:0:0:
280,344,68338,1,2,0:0:0:0:
405,195,68474,1,2,0:0:0:0:
256,336,68611,1,10,0:1:0:0:
416,280,68747,1,2,0:0:0:0:
275,187,68884,2,0,P|237:179|199:175,1,76.4999976654053,2|0,0:0|0:0,0:0:0:0:
480,344,69156,5,2,0:1:0:0:
480,344,69702,5,6,0:0:0:0:
394,360,69838,1,2,0:0:0:0:
339,297,69974,1,2,0:0:0:0:
253,280,70110,1,0,0:0:0:0:
96,308,70247,6,0,L|85:384,1,76.4999976654053,6|0,0:1|0:0,0:0:0:0:
253,280,70520,2,0,L|242:203,1,76.4999976654053,2|0,0:0|0:0,0:0:0:0:
152,16,70793,1,8,0:1:0:0:
292,72,70929,1,0,0:0:0:0:
164,155,71065,2,0,L|85:147,1,76.4999976654053,2|0,0:0|0:0,0:0:0:0:
42,63,71338,5,2,3:1:0:0:
82,233,71474,1,0,0:0:0:0:
220,71,71611,1,2,0:0:0:0:
88,148,71747,1,0,0:0:0:0:
213,242,71884,2,0,P|251:240|287:226,1,76.4999976654053,8|0,0:1|0:0,0:0:0:0:
118,345,72156,2,0,P|83:331|37:330,1,76.4999976654053,2|0,0:0|0:0,0:0:0:0:
287,226,72429,6,0,L|294:310,1,76.4999976654053,2|0,0:1|0:0,0:0:0:0:
105,140,72702,2,0,L|111:62,1,76.4999976654053,2|0,0:0|0:0,0:0:0:0:
196,160,72974,1,8,0:1:0:0:
40,208,73111,1,0,0:0:0:0:
204,76,73247,1,2,0:0:0:0:
132,228,73384,1,0,0:0:0:0:
301,88,73520,6,0,P|295:43|275:8,1,76.4999976654053,2|0,3:1|0:0,0:0:0:0:
105,140,73793,1,2,0:0:0:0:
204,76,73929,1,0,0:0:0:0:
166,254,74065,1,8,0:1:0:0:
86,125,74202,1,0,0:0:0:0:
240,198,74338,2,0,P|257:234|257:280,1,76.4999976654053,2|0,0:0|0:0,0:0:0:0:
9,130,74611,6,0,L|91:124,1,76.4999976654053,6|0,0:1|0:0,0:0:0:0:
166,254,74884,2,0,L|84:248,1,76.4999976654053,2|0,0:0|0:0,0:0:0:0:
276,88,75156,1,8,0:1:0:0:
240,198,75293,1,0,0:0:0:0:
85,124,75429,2,0,P|92:85|117:46,1,76.4999976654053,2|0,0:0|0:0,0:0:0:0:
276,88,75702,5,2,3:1:0:0:
166,254,75838,1,0,0:0:0:0:
253,74,75974,1,2,0:0:0:0:
284,297,76111,1,0,0:0:0:0:
85,124,76247,2,0,L|171:117,1,76.4999976654053,8|0,0:1|0:0,0:0:0:0:
92,308,76520,2,0,L|6:300,1,76.4999976654053,2|0,0:0|0:0,0:0:0:0:
261,267,76793,5,6,0:1:0:0:
234,383,76929,1,0,0:0:0:0:
153,193,77065,2,0,P|156:153|167:86,1,76.4999976654053,2|0,0:0|0:0,0:0:0:0:
337,274,77338,2,0,L|251:266,1,76.4999976654053,10|0,0:1|0:0,0:0:0:0:
320,140,77611,2,0,L|406:133,1,76.4999976654053,2|0,0:0|0:0,0:0:0:0:
108,54,77884,5,2,0:1:0:0:
84,220,78020,1,0,0:0:0:0:
208,74,78156,1,2,0:0:0:0:
184,238,78293,1,0,0:0:0:0:
28,124,78429,1,10,0:1:0:0:
272,160,78565,1,0,0:0:0:0:
120,304,78702,2,0,P|84:296|32:292,1,76.4999976654053,2|0,0:0|0:0,0:0:0:0:
408,360,78974,6,0,L|484:354,1,76.4999976654053,2|0,0:1|0:0,0:0:0:0:
333,254,79247,2,0,L|327:176,1,76.4999976654053,2|0,0:0|0:0,0:0:0:0:
295,353,79520,1,8,0:1:0:0:
430,236,79656,1,0,0:0:0:0:
227,148,79792,2,0,L|150:155,1,76.4999976654053,2|0,0:0|0:0,0:0:0:0:
233,52,80065,5,2,3:1:0:0:
185,260,80201,1,0,0:0:0:0:
327,176,80338,1,2,0:0:0:0:
150,155,80474,1,0,0:0:0:0:
310,276,80611,2,0,P|348:276|390:255,1,76.4999976654053,8|0,0:1|0:0,0:0:0:0:
150,155,80884,2,0,P|114:139|76:139,1,76.4999976654053,2|0,0:0|0:0,0:0:0:0:
320,99,81156,6,0,L|327:182,1,76.4999976654053,6|0,0:1|0:0,0:0:0:0:
88,302,81429,2,0,L|94:225,1,76.4999976654053,2|0,0:0|0:0,0:0:0:0:
224,96,81701,1,8,0:1:0:0:
77,138,81838,1,0,0:0:0:0:
240,172,81974,1,2,0:0:0:0:
136,60,82111,1,0,0:0:0:0:
16,220,82247,6,0,L|8:296,1,76.4999976654053,2|0,3:1|0:0,0:0:0:0:
176,212,82520,1,2,0:0:0:0:
112,368,82656,1,0,0:0:0:0:
93,225,82793,1,8,0:1:0:0:
232,332,82929,1,0,0:0:0:0:
307,181,83065,2,0,P|307:145|295:101,1,76.4999976654053,2|0,0:0|0:0,0:0:0:0:
67,24,83338,6,0,L|149:18,1,76.4999976654053,6|0,0:1|0:0,0:0:0:0:
298,106,83611,2,0,L|216:100,1,76.4999976654053,2|0,0:0|0:0,0:0:0:0:
83,227,83883,1,8,0:1:0:0:
118,110,84020,1,0,0:0:0:0:
256,255,84156,2,0,P|263:292|266:330,1,76.4999976654053,2|0,0:0|0:0,0:0:0:0:
361,194,84429,5,2,3:1:0:0:
167,196,84565,1,0,0:0:0:0:
362,216,84701,1,2,0:0:0:0:
171,304,84838,1,0,0:0:0:0:
153,167,84974,2,0,L|164:91,1,76.4999976654053,8|0,0:1|0:0,0:0:0:0:
38,206,85247,2,0,L|49:282,1,76.4999976654053,2|0,0:0|0:0,0:0:0:0:
297,198,85520,5,6,0:1:0:0:
153,167,85656,1,0,0:0:0:0:
303,118,85793,2,0,P|337:130|369:164,1,76.4999976654053,2|0,0:0|0:0,0:0:0:0:
178,80,86065,2,0,L|170:3,1,76.4999976654053,10|0,0:1|0:0,0:0:0:0:
297,198,86338,2,0,L|308:274,1,76.4999976654053,2|0,0:0|0:0,0:0:0:0:
175,185,86611,5,2,0:1:0:0:
365,157,86747,1,0,0:0:0:0:
197,299,86883,1,2,0:0:0:0:
386,272,87020,1,0,0:0:0:0:
246,116,87156,1,10,0:1:0:0:
298,356,87292,1,0,0:0:0:0:
462,198,87429,2,0,P|452:156|448:96,1,76.4999976654053,2|0,0:0|0:0,0:0:0:0:
276,273,87702,5,4,0:2:0:0:
276,273,88247,1,0,0:0:0:0:
194,241,88520,6,0,B|199:188|167:134|167:134|203:154|203:154|191:113|196:66|224:23,1,272,2|0,0:0|0:0,0:0:0:0:
129,16,89884,5,4,0:0:0:0:
129,16,90429,1,0,0:0:0:0:
203,71,90702,6,0,B|250:48|315:81|328:131|328:131|329:105|339:74,1,204,2|0,0:0|0:0,0:0:0:0:
239,156,91793,1,0,0:0:0:0:
254,248,92065,5,4,0:0:0:0:
254,248,92611,1,0,0:0:0:0:
239,156,92884,6,0,P|335:200|326:308,1,204,2|0,0:0|0:0,0:0:0:0:
270,342,93974,1,0,2:0:0:0:
256,247,94247,5,4,0:0:0:0:
256,247,94793,1,0,0:0:0:0:
270,341,95065,1,0,0:0:0:0:
