osu file format v14

[General]
AudioFilename: audio.mp3
AudioLeadIn: 0
PreviewTime: -1
Countdown: 1
SampleSet: Soft
StackLeniency: 0.7
Mode: 0
LetterboxInBreaks: 0
WidescreenStoryboard: 1

[Editor]
DistanceSpacing: 0.8
BeatDivisor: 4
GridSize: 8
TimelineZoom: 1

[Metadata]
Title:ILY
TitleUnicode:ILY
Artist:Panda Eyes
ArtistUnicode:Panda Eyes
Creator:Kakaris1
Version:Extra Jump Challenge AR9.5 HP3
Source:
Tags:
BeatmapID:1361911
BeatmapSetID:642408

[Difficulty]
HPDrainRate:3
CircleSize:4
OverallDifficulty:8
ApproachRate:9.5
SliderMultiplier:1.8
SliderTickRate:1

[Events]
//Background and Video events
0,0,"bg12.jpg",0,0
//Break Periods
//Storyboard Layer 0 (Background)
//Storyboard Layer 1 (Fail)
//Storyboard Layer 2 (Pass)
//Storyboard Layer 3 (Foreground)
//Storyboard Sound Samples

[TimingPoints]
430,545.454545454546,4,2,0,100,1,0
52772,-200,4,2,0,100,0,0
53181,545.454545454546,4,2,0,100,1,0
53590,-200,4,2,0,100,0,0
54271,545.454545454546,4,2,0,100,1,0

[HitObjects]
120,120,409,6,0,L|248:200,1,135
360,224,954,1,0,0:0:0:0:
416,72,1227,1,0,0:0:0:0:
360,136,2590,2,0,L|232:224,1,135
104,264,3136,1,0,0:0:0:0:
80,80,3409,1,0,0:0:0:0:
336,96,4772,6,0,L|224:176,1,135
128,224,5317,1,0,0:0:0:0:
72,80,5590,1,0,0:0:0:0:
192,176,6409,1,0,0:0:0:0:
352,136,6681,1,0,0:0:0:0:
176,336,6954,2,0,L|96:208,1,135
168,96,7500,1,0,0:0:0:0:
392,104,7772,1,0,0:0:0:0:
392,224,8590,5,0,0:0:0:0:
88,168,8863,1,0,0:0:0:0:
400,80,9136,1,0,0:0:0:0:
312,264,9681,1,0,0:0:0:0:
72,168,9954,1,0,0:0:0:0:
152,168,11318,5,0,0:0:0:0:
384,216,11863,1,0,0:0:0:0:
128,288,12136,1,0,0:0:0:0:
312,112,13500,6,0,L|104:232,1,225
304,72,14454,1,0,0:0:0:0:
440,88,15136,1,0,0:0:0:0:
368,216,15409,1,0,0:0:0:0:
480,320,15681,1,0,0:0:0:0:
112,328,16227,5,0,0:0:0:0:
280,168,16500,1,0,0:0:0:0:
120,104,17863,2,0,L|184:184,2,90
224,72,18681,2,0,L|304:128,2,90
432,72,19500,1,0,0:0:0:0:
432,192,20045,6,0,L|336:272,2,90
256,256,20863,2,0,L|208:176,2,90
376,288,21681,1,0,0:0:0:0:
136,256,22227,2,0,L|96:152,2,90
368,104,23045,2,0,L|312:200,2,90
240,264,23863,1,0,0:0:0:0:
424,240,24136,1,0,0:0:0:0:
264,104,24409,6,0,L|168:176,2,90
432,64,25227,2,0,L|432:168,2,90
296,240,26045,1,0,0:0:0:0:
104,128,26318,1,0,0:0:0:0:
80,88,26590,2,0,L|200:200,1,135
400,208,27136,1,0,0:0:0:0:
152,368,27272,1,0,0:0:0:0:
88,56,27409,6,0,B|144:88|144:88|152:160|152:160|256:112|256:112|272:184|272:184|352:112|352:112|352:112,1,405
456,64,28772,2,0,L|424:232,1,135
320,328,29318,1,0,0:0:0:0:
96,144,29454,1,0,0:0:0:0:
216,56,29591,2,0,B|280:72|280:72|256:136|256:136|360:152|360:152|336:216|336:216|256:216|256:216|240:240|240:240,1,405
88,288,30954,2,0,L|104:144,1,135
160,56,31500,1,0,0:0:0:0:
352,88,31636,1,0,0:0:0:0:
216,320,31772,6,0,B|144:288|144:288|104:144|104:144|104:184,1,225
264,64,32590,1,0,0:0:0:0:
416,208,32863,1,0,0:0:0:0:
320,296,33136,2,0,L|192:216,1,135
80,152,33681,5,0,0:0:0:0:
296,88,33818,1,0,0:0:0:0:
432,200,33954,6,0,L|192:256,1,225
80,240,34772,1,0,0:0:0:0:
112,72,35318,6,0,L|224:96,1,90
312,56,35863,1,0,0:0:0:0:
480,184,36000,1,0,0:0:0:0:
440,320,36136,2,0,L|128:312,1,270
128,128,37227,1,0,0:0:0:0:
280,96,37500,2,0,B|344:136|344:136|408:80|408:80|416:88|416:88,1,135
464,240,38044,1,0,0:0:0:0:
80,320,38181,1,0,0:0:0:0:
64,176,38317,6,0,L|296:32,1,270
440,80,39409,1,0,0:0:0:0:
104,112,39681,2,0,L|248:176,1,135
480,304,40227,1,0,0:0:0:0:
440,104,40363,1,0,0:0:0:0:
248,72,40500,2,0,L|112:296,1,225
176,336,41318,1,0,0:0:0:0:
344,136,41590,1,0,0:0:0:0:
88,80,41863,6,0,L|200:160,1,135
312,200,42409,1,0,0:0:0:0:
464,48,42545,1,0,0:0:0:0:
496,120,42681,2,0,L|352:304,1,225
128,288,43500,1,0,0:0:0:0:
80,112,43772,1,0,0:0:0:0:
208,80,44045,2,0,L|312:104,1,90
448,96,44590,5,0,0:0:0:0:
272,256,44727,1,0,0:0:0:0:
56,192,44863,2,0,L|304:72,1,270
440,104,45954,1,0,0:0:0:0:
160,208,46227,2,0,L|256:96,1,135
376,64,46772,1,0,0:0:0:0:
480,344,46909,1,0,0:0:0:0:
352,360,47045,2,0,L|80:320,1,270
144,144,48136,1,0,0:0:0:0:
384,64,48409,6,0,L|400:224,1,135
304,328,48954,1,0,0:0:0:0:
40,96,49090,1,0,0:0:0:0:
160,48,49227,2,0,P|248:48|328:160,1,225
416,224,50045,1,0,0:0:0:0:
208,312,50318,1,0,0:0:0:0:
88,176,50590,2,0,L|208:104,1,135
336,88,51136,1,0,0:0:0:0:
456,256,51272,1,0,0:0:0:0:
352,320,51409,6,0,L|144:208,1,225
80,88,52227,1,0,0:0:0:0:
432,88,52500,1,0,0:0:0:0:
304,160,52772,2,0,L|224:192,1,67.5
64,328,53317,1,0,0:0:0:0:
56,40,53453,1,0,0:0:0:0:
224,128,53590,2,0,L|328:192,1,112.5
464,320,54407,5,0,0:0:0:0:
472,224,54952,1,0,0:0:0:0:
24,40,55089,1,0,0:0:0:0:
216,368,55225,1,0,0:0:0:0:
336,32,55361,1,0,0:0:0:0:
464,48,55498,2,0,L|408:128,1,90
304,216,55907,1,0,0:0:0:0:
120,224,56043,2,0,L|232:104,1,135
320,48,56589,5,0,0:0:0:0:
448,160,56861,1,0,0:0:0:0:
64,360,57134,1,0,0:0:0:0:
80,120,57271,1,0,0:0:0:0:
416,136,57407,1,0,0:0:0:0:
392,376,57543,1,0,0:0:0:0:
184,240,57680,6,0,L|296:104,1,135
392,72,58225,1,0,0:0:0:0:
432,264,58498,2,0,L|320:264,1,90
152,256,59043,1,0,0:0:0:0:
144,56,59316,1,0,0:0:0:0:
464,80,59452,1,0,0:0:0:0:
128,296,59589,1,0,0:0:0:0:
480,328,59725,1,0,0:0:0:0:
288,368,59861,2,0,L|272:272,1,90
216,96,60407,5,0,0:0:0:0:
432,112,60680,2,0,L|336:176,1,90
160,256,61225,1,0,0:0:0:0:
88,120,61498,2,0,L|200:120,1,90
384,176,62043,1,0,0:0:0:0:
192,288,62316,2,0,L|248:192,1,90
336,88,62861,2,0,L|408:160,1,90
440,256,63407,5,0,0:0:0:0:
192,264,63680,1,0,0:0:0:0:
80,56,63816,1,0,0:0:0:0:
344,216,63952,1,0,0:0:0:0:
224,32,64089,1,0,0:0:0:0:
400,24,64225,2,0,L|440:128,1,90
448,240,64771,1,0,0:0:0:0:
240,280,65044,1,0,0:0:0:0:
104,184,65316,6,0,L|200:128,1,90
488,16,65861,1,0,0:0:0:0:
16,368,65998,1,0,0:0:0:0:
0,16,66134,1,0,0:0:0:0:
496,376,66271,1,0,0:0:0:0:
480,256,66407,2,0,L|432:176,1,90
280,80,66952,1,0,0:0:0:0:
88,248,67225,1,0,0:0:0:0:
208,312,67498,6,0,L|320:248,1,90
464,240,68043,1,0,0:0:0:0:
240,264,68180,1,0,0:0:0:0:
216,48,68316,1,0,0:0:0:0:
136,320,68452,1,0,0:0:0:0:
208,184,68589,2,0,L|304:128,1,90
424,104,69134,1,0,0:0:0:0:
472,184,69680,5,0,0:0:0:0:
432,344,69816,1,0,0:0:0:0:
368,208,69952,1,0,0:0:0:0:
336,312,70089,1,0,0:0:0:0:
256,240,70225,1,0,0:0:0:0:
128,40,70361,5,0,0:0:0:0:
40,320,70498,1,0,0:0:0:0:
232,64,70634,1,0,0:0:0:0:
160,320,70771,1,0,0:0:0:0:
360,64,70907,1,0,0:0:0:0:
288,336,71043,1,0,0:0:0:0:
480,72,71180,1,0,0:0:0:0:
464,344,71316,1,0,0:0:0:0:
216,56,71452,5,0,0:0:0:0:
64,312,71589,5,0,0:0:0:0:
352,312,71725,5,0,0:0:0:0:
216,48,71862,5,0,0:0:0:0:
56,320,71998,5,0,0:0:0:0:
352,320,72134,5,0,0:0:0:0:
296,104,72271,5,0,0:0:0:0:
432,104,72407,2,0,L|400:192,1,90
488,352,72952,1,0,0:0:0:0:
0,352,73089,1,0,0:0:0:0:
496,232,73225,1,0,0:0:0:0:
0,200,73361,1,0,0:0:0:0:
496,88,73498,1,0,0:0:0:0:
0,56,73634,1,0,0:0:0:0:
384,24,73771,1,0,0:0:0:0:
120,16,73907,1,0,0:0:0:0:
384,168,74043,5,0,0:0:0:0:
112,168,74180,1,0,0:0:0:0:
240,304,74316,1,0,0:0:0:0:
384,168,74452,1,0,0:0:0:0:
112,168,74589,1,0,0:0:0:0:
232,304,74725,1,0,0:0:0:0:
144,40,74861,1,0,0:0:0:0:
32,336,74998,1,0,0:0:0:0:
400,360,75134,5,0,0:0:0:0:
448,48,75271,1,0,0:0:0:0:
216,64,75407,1,0,0:0:0:0:
248,360,75543,1,0,0:0:0:0:
480,336,75680,1,0,0:0:0:0:
472,48,75816,1,0,0:0:0:0:
56,72,75953,1,0,0:0:0:0:
56,376,76089,1,0,0:0:0:0:
448,368,76225,1,0,0:0:0:0:
416,96,76362,1,0,0:0:0:0:
304,104,76498,6,0,L|208:160,1,90
32,320,77043,1,0,0:0:0:0:
504,360,77180,1,0,0:0:0:0:
120,32,77316,1,0,0:0:0:0:
472,24,77452,1,0,0:0:0:0:
176,296,77589,1,0,0:0:0:0:
456,104,77725,1,0,0:0:0:0:
200,96,77861,1,0,0:0:0:0:
448,336,77998,1,0,0:0:0:0:
24,24,78134,5,0,0:0:0:0:
504,384,78271,1,0,0:0:0:0:
16,8,78407,1,0,0:0:0:0:
504,384,78543,1,0,0:0:0:0:
16,16,78680,1,0,0:0:0:0:
496,376,78816,1,0,0:0:0:0:
504,16,78952,5,0,0:0:0:0:
16,376,79089,1,0,0:0:0:0:
16,16,79225,1,0,0:0:0:0:
504,376,79361,1,0,0:0:0:0:
504,8,79498,1,0,0:0:0:0:
56,80,79634,1,0,0:0:0:0:
104,336,79771,1,0,0:0:0:0:
448,272,79907,1,0,0:0:0:0:
400,48,80043,1,0,0:0:0:0:
144,80,80180,5,0,0:0:0:0:
160,312,80316,1,0,0:0:0:0:
400,304,80452,1,0,0:0:0:0:
360,56,80589,1,0,0:0:0:0:
120,208,80725,1,0,0:0:0:0:
256,224,80861,2,0,L|352:192,1,90
432,120,81271,1,0,0:0:0:0:
128,48,81407,1,0,0:0:0:0:
40,272,81543,1,0,0:0:0:0:
392,288,81680,1,0,0:0:0:0:
448,192,81816,6,0,L|344:152,1,90
144,72,82225,1,0,0:0:0:0:
40,288,82361,1,0,0:0:0:0:
400,312,82498,1,0,0:0:0:0:
416,80,82634,1,0,0:0:0:0:
264,104,82771,2,0,L|200:176,1,90
144,280,83180,5,0,0:0:0:0:
496,336,83316,1,0,0:0:0:0:
184,176,83452,1,0,0:0:0:0:
488,248,83589,1,0,0:0:0:0:
304,160,83725,1,0,0:0:0:0:
448,176,83861,1,0,0:0:0:0:
304,40,83998,1,0,0:0:0:0:
464,32,84134,1,0,0:0:0:0:
384,104,84271,5,0,0:0:0:0:
40,48,84407,1,0,0:0:0:0:
0,384,84543,1,0,0:0:0:0:
488,376,84680,1,0,0:0:0:0:
504,8,84816,1,0,0:0:0:0:
16,16,84952,1,0,0:0:0:0:
16,312,85089,1,0,0:0:0:0:
488,312,85225,1,0,0:0:0:0:
488,64,85361,1,0,0:0:0:0:
256,8,85498,1,0,0:0:0:0:
248,376,85634,5,0,0:0:0:0:
256,8,85771,1,0,0:0:0:0:
248,376,85907,1,0,0:0:0:0:
256,8,86043,1,0,0:0:0:0:
248,376,86180,1,0,0:0:0:0:
256,8,86316,1,0,0:0:0:0:
248,376,86452,1,0,0:0:0:0:
256,8,86589,1,0,0:0:0:0:
248,376,86725,1,0,0:0:0:0:
248,8,86861,1,0,0:0:0:0:
248,368,86998,5,0,0:0:0:0:
248,8,87134,1,0,0:0:0:0:
248,376,87271,1,0,0:0:0:0:
248,16,87407,1,0,0:0:0:0:
248,376,87543,1,0,0:0:0:0:
384,40,87680,2,0,L|448:120,1,90
472,176,88225,1,0,0:0:0:0:
288,296,88498,1,0,0:0:0:0:
120,200,89861,6,0,L|192:120,1,90
384,80,90407,1,0,0:0:0:0:
472,248,90680,1,0,0:0:0:0:
112,152,91771,1,0,0:0:0:0:
184,344,92043,2,0,L|224:240,1,90
224,112,92589,1,0,0:0:0:0:
424,208,92861,1,0,0:0:0:0:
128,176,93952,1,0,0:0:0:0:
184,328,94225,6,0,L|208:232,1,90
256,104,94771,1,0,0:0:0:0:
432,184,95043,1,0,0:0:0:0:
