osu file format v14

[General]
AudioFilename: audio.mp3
AudioLeadIn: 0
PreviewTime: 31470
Countdown: 1
SampleSet: Soft
StackLeniency: 0.5
Mode: 0
LetterboxInBreaks: 0
WidescreenStoryboard: 1

[Editor]
DistanceSpacing: 1
BeatDivisor: 2
GridSize: 4
TimelineZoom: 1

[Metadata]
Title:ILY
TitleUnicode:ILY
Artist:Panda Eyes
ArtistUnicode:Panda Eyes
Creator:Frontlines
Version:Normal
Source:
Tags:drum and bass dnb part cut version panda eyes not japanese uk glitch hop drumstep edm electronic dance music uk mrsuicidesheep ily frontlines
BeatmapID:1755302
BeatmapSetID:799219

[Difficulty]
HPDrainRate:4
CircleSize:3.5
OverallDifficulty:4
ApproachRate:5
SliderMultiplier:1.2
SliderTickRate:1

[Events]
//Background and Video events
0,0,"69259931_p0_master1200.jpg",0,0
//Break Periods
//Storyboard Layer 0 (Background)
//Storyboard Layer 1 (Fail)
//Storyboard Layer 2 (Pass)
//Storyboard Layer 3 (Foreground)
//Storyboard Sound Samples

[TimingPoints]
459,545.454545454546,4,2,0,65,1,0
17913,535.714285714286,4,2,0,65,1,0
17913,-105.263157894737,4,2,0,65,0,0
20055,512.820512820513,4,2,0,65,1,0
20055,-105.263157894737,4,2,0,65,0,0
22106,483.870967741935,4,2,0,65,1,0
22106,-105.263157894737,4,2,0,65,0,0
24041,454.545454545455,4,2,0,65,1,0
24041,-105.263157894737,4,2,0,65,0,0
25859,422.535211267606,4,2,0,65,1,0
25859,-105.263157894737,4,2,0,65,0,0
27549,397.350993377483,4,2,0,70,1,0
27549,-105.263157894737,4,2,0,70,0,0
29138,357.142857142857,4,2,0,65,1,0
29138,-105.263157894737,4,2,0,65,0,0
30552,344.827586206897,4,2,0,65,1,0
30552,-105.263157894737,4,2,0,65,0,0
31931,-100,4,2,0,75,0,1
42965,-333.333333333333,4,2,0,75,0,0
44345,-100,4,2,0,75,0,1
54000,-105.263157894737,4,2,0,40,0,0
65034,-105.263157894737,4,2,0,60,0,0
66414,-105.263157894737,4,2,0,40,0,0
74689,-105.263157894737,4,2,0,65,0,0
81500,-105.263157894737,4,2,0,5,0,0

[Colours]
Combo1 : 55,255,181
Combo2 : 33,107,169
Combo3 : 29,233,243
Combo4 : 27,159,239

[HitObjects]
104,204,459,2,0,P|197:194|254:255,1,180
252,252,2640,2,0,L|447:229|447:229,1,180
430,230,4822,6,0,B|468:169|468:169|447:31,1,180
451,62,7004,2,0,B|347:58|393:115|270:102,1,180
108,335,9186,6,0,P|149:257|129:172,1,180
129,172,11368,2,0,L|324:199,1,180
307,196,13549,6,0,B|300:95|358:134|345:9,1,180
346,24,15731,2,0,P|291:56|170:26,1,180
181,35,17913,5,6,1:0:0:0:
111,125,18448,2,0,L|98:197,1,56.9999984779358,0|2,0:0|1:0,0:0:0:0:
100,181,20055,5,6,1:0:0:0:
194,244,20567,2,0,L|198:308,1,56.9999984779358,0|2,0:0|1:0,0:0:0:0:
377,160,21849,5,2,0:0:0:0:
377,160,22106,1,6,1:0:0:0:
269,121,22589,2,0,L|273:64,1,56.9999984779358,2|2,0:0|1:0,0:0:0:0:
397,256,23799,5,2,0:0:0:0:
397,256,24041,1,6,1:0:0:0:
304,322,24495,2,0,L|243:326,1,56.9999984779358,2|2,0:0|1:0,0:0:0:0:
125,132,25631,5,2,0:0:0:0:
125,132,25859,1,6,1:0:0:0:
168,237,26281,2,0,L|164:303,1,56.9999984779358,2|2,0:0|1:0,0:0:0:0:
350,54,27549,6,0,L|356:125,1,56.9999984779358,6|0,1:0|0:0,0:0:0:0:
367,166,27946,1,2,0:0:0:0:
367,166,28145,1,2,1:0:0:0:
142,204,28939,5,2,0:0:0:0:
142,204,29138,2,0,L|143:263,1,56.9999984779358,6|0,1:0|0:0,0:0:0:0:
130,304,29495,1,2,0:0:0:0:
130,304,29673,1,2,1:0:0:0:
351,360,30388,5,2,0:0:0:0:
351,360,30552,2,0,L|345:299,1,56.9999984779358,6|0,1:0|0:0,0:0:0:0:
386,263,30896,1,2,0:0:0:0:
386,263,31069,1,2,1:0:0:0:
455,106,31586,5,8,3:2:0:0:
332,115,31931,6,0,P|301:132|261:120,1,60,6|0,0:0|0:0,0:0:0:0:
226,99,32276,2,0,P|196:94|166:98,1,60,8|2,3:2|1:0,0:0:0:0:
91,191,32793,1,8,3:0:0:0:
91,191,32965,2,0,L|91:263|91:263,1,60,8|8,3:2|3:0,0:0:0:0:
129,297,33310,6,0,P|165:301|205:289,1,60,6|0,0:0|0:0,0:0:0:0:
236,260,33655,2,0,P|265:255|295:260,1,60,8|2,3:2|1:0,0:0:0:0:
378,346,34172,1,8,2:3:0:0:
378,346,34345,1,8,3:2:0:0:
421,234,34689,6,0,B|417:206|417:206|425:170,1,60,6|0,0:0|0:0,0:0:0:0:
460,127,35034,2,0,P|424:131|376:119,1,60,8|2,3:2|1:0,0:0:0:0:
289,80,35552,1,8,3:0:0:0:
289,80,35724,2,0,L|289:152|289:152,1,60,8|8,3:2|3:0,0:0:0:0:
326,187,36069,6,0,B|295:180|295:180|267:184,1,60,6|0,0:0|0:0,0:0:0:0:
217,217,36414,2,0,P|181:221|133:209,1,60,8|2,3:2|0:0,0:0:0:0:
82,123,36931,1,8,2:3:0:0:
82,123,37103,1,8,3:2:0:0:
187,65,37448,6,0,P|179:97|184:124,1,60,6|0,0:0|0:0,0:0:0:0:
226,165,37793,2,0,P|230:201|218:249,1,60,8|2,3:0|1:0,0:0:0:0:
153,319,38310,1,8,3:0:0:0:
153,319,38482,2,0,L|81:319|81:319,1,60,8|8,3:2|3:0,0:0:0:0:
55,272,38827,6,0,P|52:242|57:212,1,60,6|0,0:0|0:0,0:0:0:0:
95,165,39172,2,0,P|98:135|94:105,1,60,8|2,3:0|1:0,0:0:0:0:
207,65,39689,1,8,3:0:0:0:
207,65,39862,1,8,3:2:0:0:
223,183,40207,6,0,B|254:178|254:178|287:187,1,60,6|0,0:0|0:0,0:0:0:0:
324,227,40552,2,0,P|327:256|323:286,1,60,8|2,3:2|1:0,0:0:0:0:
221,351,41070,1,8,3:0:0:0:
221,351,41242,2,0,L|149:351|149:351,1,60,8|8,3:2|3:0,0:0:0:0:
107,323,41586,6,0,B|100:292|100:292|104:264,1,60,6|0,0:0|0:0,0:0:0:0:
74,211,41931,2,0,P|77:181|73:151,1,60,8|2,3:2|0:0,0:0:0:0:
32,38,42448,1,8,3:0:0:0:
32,38,42620,1,8,3:2:0:0:
142,55,42965,5,14,0:0:0:0:
256,192,44345,6,0,P|292:188|332:200,1,60,6|0,0:0|0:0,0:0:0:0:
359,233,44690,2,0,P|389:238|419:234,1,60,8|2,3:2|1:0,0:0:0:0:
473,127,45207,1,8,2:3:0:0:
473,127,45379,1,8,3:2:0:0:
362,79,45724,6,0,B|334:83|334:83|298:75,1,60,6|0,0:0|0:0,0:0:0:0:
251,44,46069,2,0,P|221:41|191:44,1,60,8|2,3:2|1:0,0:0:0:0:
132,148,46586,1,8,3:0:0:0:
132,148,46758,2,0,L|132:220|132:220,1,60,8|8,3:2|3:0,0:0:0:0:
166,257,47103,6,0,B|196:264|196:264|224:260,1,60,6|0,0:0|0:0,0:0:0:0:
272,222,47448,2,0,P|301:219|331:222,1,60,8|2,3:2|0:0,0:0:0:0:
408,314,47965,1,8,3:0:0:0:
408,314,48138,1,8,3:2:0:0:
443,199,48483,6,0,P|439:169|443:139,1,60,6|0,0:0|0:0,0:0:0:0:
497,112,48828,2,0,P|501:82|496:53,1,60,8|2,3:2|1:0,0:0:0:0:
378,33,49345,1,8,3:0:0:0:
378,33,49517,2,0,L|306:33|306:33,1,60,8|8,3:2|3:0,0:0:0:0:
266,63,49862,6,0,P|261:93|264:123,1,60,6|0,0:0|0:0,0:0:0:0:
305,165,50207,2,0,P|309:195|304:225,1,60,8|2,3:2|1:0,0:0:0:0:
195,275,50724,1,8,2:3:0:0:
195,275,50896,1,8,3:2:0:0:
120,181,51241,6,0,B|92:177|92:177|56:185,1,60,6|0,0:0|0:0,0:0:0:0:
21,229,51586,2,0,P|18:259|21:289,1,60,8|2,3:2|1:0,0:0:0:0:
112,366,52103,1,8,3:0:0:0:
112,366,52275,2,0,L|184:366|184:366,1,60,8|8,3:2|3:0,0:0:0:0:
225,339,52620,6,0,B|229:311|229:311|221:275,1,60,6|0,0:0|0:0,0:0:0:0:
190,229,52965,2,0,P|188:199|191:169,1,60,8|2,3:2|0:0,0:0:0:0:
289,102,53482,1,8,3:0:0:0:
289,102,53655,1,2,1:0:0:0:
88,64,54000,6,0,P|81:120|97:184,1,113.999996955872,8|0,3:0|0:0,0:0:0:0:
193,230,54689,1,8,3:2:0:0:
345,60,55379,6,0,L|464:48,1,113.999996955872,8|0,3:0|0:0,0:0:0:0:
408,150,56068,1,8,3:2:0:0:
492,361,56758,6,0,B|448:372|448:372|364:345,1,113.999996955872,8|0,3:0|0:0,0:0:0:0:
278,303,57448,1,8,3:2:0:0:
499,249,58138,6,0,P|506:198|490:133,1,113.999996955872,8|0,3:0|0:0,0:0:0:0:
426,44,58827,1,8,3:2:0:0:
284,213,59517,6,0,L|170:197,1,113.999996955872,8|0,3:0|0:0,0:0:0:0:
92,114,60206,1,8,3:2:0:0:
299,18,60896,6,0,B|308:74|308:74|291:130,1,113.999996955872,8|0,3:0|0:0,0:0:0:0:
190,74,61586,1,8,3:2:0:0:
133,295,62276,6,0,P|183:286|254:302,1,113.999996955872,8|0,3:0|0:0,0:0:0:0:
322,380,62965,1,8,3:2:0:0:
447,189,63655,6,0,L|460:75,1,113.999996955872,8|0,3:0|0:0,0:0:0:0:
347,87,64344,1,8,3:2:0:0:
372,313,65034,5,14,0:0:0:0:
3,44,66414,6,0,B|43:31|43:31|129:60,1,113.999996955872,8|0,3:0|0:0,0:0:0:0:
191,134,67104,1,8,3:2:0:0:
393,29,67793,6,0,L|380:146,1,113.999996955872,8|0,3:0|0:0,0:0:0:0:
305,228,68482,1,8,3:2:0:0:
128,100,69172,6,0,P|78:91|13:110,1,113.999996955872,8|0,3:0|0:0,0:0:0:0:
70,208,69861,1,8,3:2:0:0:
269,318,70552,6,0,L|387:333,1,113.999996955872,8|0,3:0|0:0,0:0:0:0:
473,264,71241,1,8,3:2:0:0:
273,152,71931,6,0,L|160:163,1,113.999996955872,8|0,3:0|0:0,0:0:0:0:
56,113,72620,1,8,3:2:0:0:
223,268,73310,6,0,P|214:318|239:378,1,113.999996955872,8|0,3:0|0:0,0:0:0:0:
351,372,74000,1,8,3:2:0:0:
477,182,74689,6,0,B|443:193|413:178|413:178|392:182|359:225,1,113.999996955872,6|8,0:0|2:3,0:0:0:0:
342,315,75379,1,8,3:2:0:0:
455,299,75724,1,14,0:0:0:0:
256,192,76069,12,0,81586,0:0:0:0:
