osu file format v14

[General]
AudioFilename: audio.mp3
AudioLeadIn: 0
PreviewTime: -1
Countdown: 0
SampleSet: None
StackLeniency: 0.7
Mode: 0
LetterboxInBreaks: 0
WidescreenStoryboard: 0

[Editor]
Bookmarks: 54685,69958,87412,104867,124503,139776,157230,171256,193325,215394
DistanceSpacing: 1.7
BeatDivisor: 4
GridSize: 4
TimelineZoom: 1

[Metadata]
Title:ILY
TitleUnicode:ILY
Artist:Panda Eyes
ArtistUnicode:Panda Eyes
Creator:Fanteer
Version:Full ver
Source:
Tags:
BeatmapID:1994851
BeatmapSetID:955228

[Difficulty]
HPDrainRate:6
CircleSize:4
OverallDifficulty:9
ApproachRate:9.4
SliderMultiplier:2.1
SliderTickRate:1

[Events]
//Background and Video events
0,0,"wKkMTbi.jpg",0,0
//Break Periods
2,87612,103767
2,139703,156676
//Storyboard Layer 0 (Background)
//Storyboard Layer 1 (Fail)
//Storyboard Layer 2 (Pass)
//Storyboard Layer 3 (Foreground)
//Storyboard Sound Samples

[TimingPoints]
140,545.454545454546,4,2,0,50,1,0
140,-200,4,2,0,35,0,0
4503,-142.857142857143,4,2,0,35,0,0
8867,-200,4,2,0,35,0,0
13230,-142.857142857143,4,2,0,35,0,0
17594,-111.111111111111,4,2,0,50,0,0
35049,-66.6666666666667,4,2,0,50,0,0
52503,-142.857142857143,4,2,0,50,0,0
53321,-142.857142857143,4,2,0,50,0,0
54685,-66.6666666666667,4,2,0,50,0,0
104867,-76.9230769230769,4,2,0,50,0,0
122321,-142.857142857143,4,2,0,50,0,0
124503,-90.909090909091,4,2,0,50,0,0
157230,535.714285714286,4,2,0,50,1,0
157230,-100,4,2,0,50,0,0
159372,508.474576271186,4,2,0,50,1,0
159372,-90.9090909090909,4,2,0,50,0,0
161405,483.870967741935,4,2,0,50,1,0
161405,-83.3333333333333,4,2,0,50,0,0
163340,454.545454545455,4,2,0,50,1,0
163340,-90.9090909090909,4,2,0,50,0,0
165158,428.571428571429,4,2,0,50,1,0
165158,-76.9230769230769,4,2,0,50,0,0
166872,392.156862745098,4,2,0,50,1,0
166872,-76.9230769230769,4,2,0,50,0,0
168440,359.281437125748,4,2,0,50,1,0
168440,-76.9230769230769,4,2,0,50,0,0
169877,344.827586206897,4,2,0,50,1,0
169877,-76.9230769230769,4,2,0,50,0,0
171256,-83.3333333333333,4,2,0,50,0,1
182290,-100,4,2,0,50,0,1
183670,-76.9230769230769,4,2,0,50,0,1
193325,-83.3333333333333,4,2,0,50,0,1
204359,-100,4,2,0,50,0,1
205739,-76.9230769230769,4,2,0,50,0,1

[HitObjects]
294,64,140,6,0,P|319:72|360:80,1,52.5
412,129,685,1,0,0:0:0:0:
247,223,958,2,0,B|301:174|362:203|362:203|423:236|484:192,1,236.25
468,202,2321,6,0,P|481:231|488:269,1,52.5
426,329,2867,1,0,0:0:0:0:
308,211,3140,2,0,B|327:142|391:137|391:137|431:187|403:248,1,236.25
335,326,4503,6,0,P|301:317|261:310,1,73.4999977569581
181,342,5049,1,0,0:0:0:0:
245,229,5321,2,0,P|193:231|183:343,1,183.749994392395
263,310,6140,1,0,0:0:0:0:
245,229,6412,1,0,0:0:0:0:
314,85,6685,6,0,P|311:124|302:176,1,73.4999977569581
245,229,7230,1,0,0:0:0:0:
158,12,7503,2,0,B|182:62|167:98|167:98|150:144|173:199,1,183.749994392395
245,229,8321,1,0,0:0:0:0:
170,190,8594,1,0,0:0:0:0:
46,343,8867,6,0,P|73:333|103:328,1,52.5
181,359,9412,1,0,0:0:0:0:
33,272,9685,2,0,B|16:195|57:127|141:120|141:120|126:150,1,236.25
131,139,11048,6,0,P|144:114|168:90,1,52.5
212,164,11594,1,0,0:0:0:0:
321,84,11867,2,0,B|273:59|212:51|212:51|160:83|131:139,1,236.25
134,221,13230,6,0,P|138:255|145:294,1,73.4999977569581
219,352,13776,1,0,0:0:0:0:
0,295,14048,2,0,P|83:280|111:360,1,183.749994392395
144,293,14867,1,0,0:0:0:0:
176,208,15139,1,0,0:0:0:0:
306,336,15412,6,0,L|378:326,1,73.4999977569581
323,251,15957,1,0,0:0:0:0:
140,227,16230,2,0,L|325:250,1,183.749994392395
380,190,17048,1,0,0:0:0:0:
322,250,17321,1,0,0:0:0:0:
445,347,17594,5,0,0:0:0:0:
458,342,17730,1,0,0:0:0:0:
434,332,17867,1,0,0:0:0:0:
319,275,18140,5,0,0:0:0:0:
322,250,18276,1,0,0:0:0:0:
289,279,18412,1,0,0:0:0:0:
428,157,18685,5,0,0:0:0:0:
454,191,18821,1,0,0:0:0:0:
432,181,18957,1,0,0:0:0:0:
475,177,19094,1,0,0:0:0:0:
316,139,19230,5,0,0:0:0:0:
349,125,19366,1,0,0:0:0:0:
283,86,19502,1,0,0:0:0:0:
286,121,19639,1,0,0:0:0:0:
139,147,19776,6,0,P|92:136|56:105,1,94.499997116089
123,24,20321,5,0,0:0:0:0:
135,59,20458,1,0,0:0:0:0:
95,34,20594,1,0,0:0:0:0:
62,235,20867,5,0,0:0:0:0:
90,236,21003,1,0,0:0:0:0:
44,212,21139,1,0,0:0:0:0:
17,217,21276,1,0,0:0:0:0:
83,319,21412,5,0,0:0:0:0:
79,336,21549,1,0,0:0:0:0:
158,278,21685,1,0,0:0:0:0:
171,265,21821,1,0,0:0:0:0:
335,363,21958,6,0,P|283:348|234:343,1,94.499997116089
425,301,22503,5,0,0:0:0:0:
442,343,22640,1,0,0:0:0:0:
420,329,22776,1,0,0:0:0:0:
324,233,23049,5,0,0:0:0:0:
339,222,23185,1,0,0:0:0:0:
446,212,23321,1,0,0:0:0:0:
428,216,23458,1,0,0:0:0:0:
333,145,23594,5,0,0:0:0:0:
425,301,23867,1,0,0:0:0:0:
508,150,24140,6,0,P|503:103|490:42,1,94.499997116089
391,70,24685,5,0,0:0:0:0:
359,32,24821,1,0,0:0:0:0:
406,62,24958,1,0,0:0:0:0:
281,145,25230,5,0,0:0:0:0:
234,78,25366,1,0,0:0:0:0:
192,69,25502,1,0,0:0:0:0:
266,105,25639,1,0,0:0:0:0:
152,81,25775,5,0,0:0:0:0:
281,145,26049,1,0,0:0:0:0:
67,214,26321,6,0,P|76:168|94:195,1,94.499997116089
114,312,26867,5,0,0:0:0:0:
111,350,27003,1,0,0:0:0:0:
118,274,27140,1,0,0:0:0:0:
274,314,27412,5,0,0:0:0:0:
327,353,27549,1,0,0:0:0:0:
279,307,27685,1,0,0:0:0:0:
219,335,27821,1,0,0:0:0:0:
433,244,27958,5,0,0:0:0:0:
479,293,28094,1,0,0:0:0:0:
416,310,28230,1,0,0:0:0:0:
369,263,28366,1,0,0:0:0:0:
469,145,28503,6,0,P|488:167|498:233,1,94.499997116089
382,24,29049,5,0,0:0:0:0:
444,53,29185,1,0,0:0:0:0:
388,92,29321,1,0,0:0:0:0:
187,108,29594,5,0,0:0:0:0:
263,85,29730,1,0,0:0:0:0:
182,76,29867,1,0,0:0:0:0:
258,101,30003,1,0,0:0:0:0:
18,16,30140,5,0,0:0:0:0:
0,90,30276,1,0,0:0:0:0:
92,145,30412,1,0,0:0:0:0:
74,71,30548,1,0,0:0:0:0:
27,262,30685,6,0,P|63:272|49:236,1,94.499997116089
175,377,31230,5,0,0:0:0:0:
252,355,31367,1,0,0:0:0:0:
112,331,31503,1,0,0:0:0:0:
370,260,31776,5,0,0:0:0:0:
450,319,31912,1,0,0:0:0:0:
440,249,32049,1,0,0:0:0:0:
379,330,32185,1,0,0:0:0:0:
395,193,32321,5,0,0:0:0:0:
450,319,32594,1,0,0:0:0:0:
277,277,32867,2,0,L|382:257,1,94.499997116089
506,236,33412,5,0,0:0:0:0:
378,161,33549,1,0,0:0:0:0:
455,36,33685,1,0,0:0:0:0:
274,57,33958,5,0,0:0:0:0:
347,11,34094,1,0,0:0:0:0:
391,84,34230,1,0,0:0:0:0:
347,11,34367,1,0,0:0:0:0:
182,129,34503,5,0,0:0:0:0:
182,129,35049,6,0,P|156:206|142:284,1,157.500006008148
389,351,35594,2,0,P|428:342|490:332,1,78.7500030040742
333,241,35867,2,0,P|294:249|255:256,1,78.7500030040742
364,33,36140,1,0,0:0:0:0:
483,199,36412,1,0,0:0:0:0:
288,358,36685,1,0,0:0:0:0:
317,155,36957,1,0,0:0:0:0:
51,46,37230,6,0,P|75:118|88:213,1,157.500006008148
39,352,37776,2,0,P|68:323|118:294,1,78.7500030040742
294,359,38049,2,0,P|255:356|210:341,1,78.7500030040742
87,198,38321,1,0,0:0:0:0:
242,9,38594,1,0,0:0:0:0:
217,344,38867,1,0,0:0:0:0:
368,153,39140,1,0,0:0:0:0:
87,198,39412,6,0,P|143:239|241:261,1,157.500006008148
481,309,39958,2,0,P|442:321|408:353,1,78.7500030040742
286,184,40230,2,0,P|306:217|323:268,1,78.7500030040742
474,34,40503,1,0,0:0:0:0:
414,233,40776,1,0,0:0:0:0:
200,154,41049,2,0,P|245:101|345:114,1,157.500006008148
327,102,41594,6,0,P|232:67|176:40,1,157.500006008148
11,189,42140,2,0,P|48:172|104:162,1,78.7500030040742
157,306,42412,2,0,P|121:289|83:280,1,78.7500030040742
397,234,42685,1,0,0:0:0:0:
186,198,42958,1,0,0:0:0:0:
398,35,43230,2,0,P|439:94|468:186,1,157.500006008148
466,174,43776,6,0,B|451:220|470:256|470:256|490:292|484:336,1,157.500006008148
190,371,44321,2,0,P|228:350|274:336,1,78.7500030040742
402,304,44594,2,0,P|364:291|330:271,1,78.7500030040742
151,29,44867,1,0,0:0:0:0:
232,237,45140,1,0,0:0:0:0:
496,98,45412,1,0,0:0:0:0:
266,102,45685,1,0,0:0:0:0:
348,317,45958,6,0,P|360:244|395:162,1,157.500006008148
495,363,46503,2,0,P|486:321|470:280,1,78.7500030040742
275,197,46776,2,0,P|238:210|199:218,1,78.7500030040742
348,317,47049,1,0,0:0:0:0:
199,99,47321,1,0,0:0:0:0:
16,249,47594,1,0,0:0:0:0:
275,197,47867,1,0,0:0:0:0:
64,28,48140,6,0,L|92:246,1,157.500006008148
215,349,48685,2,0,P|200:309|172:266,1,78.7500030040742
3,338,48958,2,0,P|18:298|46:255,1,78.7500030040742
254,151,49230,1,0,0:0:0:0:
64,28,49503,1,0,0:0:0:0:
313,72,49776,2,0,B|351:51|393:60|393:60|435:70|472:46,1,157.500006008148
465,50,50321,6,0,P|503:113|493:202,1,157.500006008148
296,354,50867,2,0,P|274:313|261:271,1,78.7500030040742
403,197,51140,2,0,P|389:234|370:268,1,78.7500030040742
134,321,51412,1,0,0:0:0:0:
310,196,51685,1,0,0:0:0:0:
78,59,51958,2,0,L|106:226,1,157.500006008148
355,94,52503,6,0,P|315:53|248:46,1,110.249996635437
197,96,53049,1,0,0:0:0:0:
197,96,53185,1,0,0:0:0:0:
273,124,53321,6,0,P|347:63|467:98,1,220.499993270874
460,90,54685,5,0,0:0:0:0:
432,270,54821,1,0,0:0:0:0:
488,168,54958,1,0,0:0:0:0:
506,344,55094,1,0,0:0:0:0:
321,209,55230,2,0,P|362:194|411:184,1,78.7500030040742
333,356,55503,2,0,P|292:341|243:331,1,78.7500030040742
96,170,55776,1,0,0:0:0:0:
310,93,56049,1,0,0:0:0:0:
168,328,56321,1,0,0:0:0:0:
163,121,56594,1,0,0:0:0:0:
474,50,56867,5,0,0:0:0:0:
266,23,57003,1,0,0:0:0:0:
449,50,57140,1,0,0:0:0:0:
249,158,57276,1,0,0:0:0:0:
495,223,57412,2,0,P|482:182|455:141,1,78.7500030040742
288,271,57685,2,0,P|268:304|256:342,1,78.7500030040742
484,314,57958,1,0,0:0:0:0:
319,178,58230,1,0,0:0:0:0:
162,340,58503,2,0,P|100:319|4:299,1,157.500006008148
59,69,59049,5,0,0:0:0:0:
179,247,59185,1,0,0:0:0:0:
227,25,59321,1,0,0:0:0:0:
42,155,59458,2,0,P|33:191|28:246,1,78.7500030040742
277,137,59730,1,0,0:0:0:0:
135,50,59867,2,0,P|96:60|50:70,1,78.7500030040742
338,14,60140,1,0,0:0:0:0:
384,262,60412,1,0,0:0:0:0:
488,45,60685,2,0,P|462:123|454:215,1,157.500006008148
481,358,61230,6,0,P|419:302|329:310,1,157.500006008148
126,367,61776,2,0,P|82:359|26:344,1,78.7500030040742
198,256,62049,2,0,P|236:246|275:239,1,78.7500030040742
15,94,62321,1,0,0:0:0:0:
110,275,62594,1,0,0:0:0:0:
271,46,62867,1,0,0:0:0:0:
198,256,63140,1,0,0:0:0:0:
78,28,63412,5,0,0:0:0:0:
286,128,63549,1,0,0:0:0:0:
45,175,63685,1,0,0:0:0:0:
271,46,63821,1,0,0:0:0:0:
457,127,63958,2,0,P|481:159|502:204,1,78.7500030040742
286,297,64230,2,0,P|303:261|327:230,1,78.7500030040742
499,370,64503,1,0,0:0:0:0:
201,346,64776,1,0,0:0:0:0:
373,125,65049,1,0,0:0:0:0:
378,309,65321,1,0,0:0:0:0:
156,38,65594,5,0,0:0:0:0:
219,227,65730,1,0,0:0:0:0:
30,266,65867,1,0,0:0:0:0:
220,114,66003,1,0,0:0:0:0:
223,356,66140,2,0,P|185:340|134:332,1,78.7500030040742
29,158,66413,2,0,P|65:173|103:181,1,78.7500030040742
349,69,66685,1,0,0:0:0:0:
234,271,66958,1,0,0:0:0:0:
101,88,67230,2,0,P|164:37|274:40,1,157.500006008148
426,197,67776,5,0,0:0:0:0:
270,113,67912,1,0,0:0:0:0:
495,145,68049,1,0,0:0:0:0:
320,264,68185,2,0,P|282:254|233:246,1,78.7500030040742
413,113,68458,1,0,0:0:0:0:
502,277,68594,2,0,P|499:317|492:367,1,78.7500030040742
243,247,68867,5,0,0:0:0:0:
243,247,69412,5,0,0:0:0:0:
285,334,69549,1,0,0:0:0:0:
73,372,69685,5,0,0:0:0:0:
115,285,69822,1,0,0:0:0:0:
272,81,69958,5,0,0:0:0:0:
243,247,70094,1,0,0:0:0:0:
287,0,70230,1,0,0:0:0:0:
258,166,70366,1,0,0:0:0:0:
90,44,70503,5,0,0:0:0:0:
272,81,70640,1,0,0:0:0:0:
17,250,70776,5,0,0:0:0:0:
175,200,70912,1,0,0:0:0:0:
0,256,71049,1,0,0:0:0:0:
192,194,71185,1,0,0:0:0:0:
290,362,71321,5,0,0:0:0:0:
132,312,71457,1,0,0:0:0:0:
307,368,71594,1,0,0:0:0:0:
115,306,71730,1,0,0:0:0:0:
315,276,71867,2,0,P|349:286|385:318,1,78.7500030040742
437,147,72140,5,0,0:0:0:0:
460,164,72276,1,0,0:0:0:0:
369,106,72412,1,0,0:0:0:0:
449,258,72549,1,0,0:0:0:0:
428,47,72685,5,0,0:0:0:0:
346,27,72821,1,0,0:0:0:0:
460,164,72958,1,0,0:0:0:0:
264,214,73094,1,0,0:0:0:0:
148,73,73230,5,0,0:0:0:0:
346,102,73367,1,0,0:0:0:0:
123,70,73503,1,0,0:0:0:0:
369,106,73640,1,0,0:0:0:0:
166,201,73776,5,0,0:0:0:0:
200,12,73912,1,0,0:0:0:0:
67,142,74049,2,0,P|73:180|82:219,1,78.7500030040742
254,354,74321,5,0,0:0:0:0:
111,328,74458,1,0,0:0:0:0:
254,354,74594,2,0,L|347:338,1,78.7500030040742
490,192,74867,5,0,0:0:0:0:
299,132,75003,1,0,0:0:0:0:
512,118,75140,1,0,0:0:0:0:
261,209,75276,1,0,0:0:0:0:
359,66,75412,5,0,0:0:0:0:
321,266,75549,1,0,0:0:0:0:
365,43,75685,1,0,0:0:0:0:
316,287,75822,1,0,0:0:0:0:
455,62,75958,5,0,0:0:0:0:
406,306,76095,1,0,0:0:0:0:
222,150,76230,2,0,P|258:139|310:130,1,78.7500030040742
48,112,76503,5,0,0:0:0:0:
142,254,76640,1,0,0:0:0:0:
48,112,76776,2,0,P|55:71|77:26,1,78.7500030040742
298,131,77049,5,0,0:0:0:0:
223,367,77185,1,0,0:0:0:0:
426,188,77321,1,0,0:0:0:0:
142,254,77458,1,0,0:0:0:0:
432,109,77594,5,0,0:0:0:0:
384,361,77730,1,0,0:0:0:0:
441,111,77867,1,0,0:0:0:0:
393,363,78003,1,0,0:0:0:0:
29,110,78140,5,0,0:0:0:0:
73,364,78276,1,0,0:0:0:0:
322,289,78412,2,0,P|286:278|232:270,1,78.7500030040742
29,110,78685,5,0,0:0:0:0:
44,29,78821,1,0,0:0:0:0:
0,276,78957,1,0,0:0:0:0:
15,195,79093,1,0,0:0:0:0:
187,47,79230,5,0,0:0:0:0:
78,249,79367,1,0,0:0:0:0:
276,30,79503,5,0,0:0:0:0:
311,226,79639,1,0,0:0:0:0:
272,13,79776,1,0,0:0:0:0:
315,242,79912,1,0,0:0:0:0:
457,49,80049,5,0,0:0:0:0:
422,245,80185,1,0,0:0:0:0:
461,32,80322,1,0,0:0:0:0:
418,261,80458,1,0,0:0:0:0:
239,186,80594,2,0,P|268:160|305:148,1,78.7500030040742
479,325,80867,5,0,0:0:0:0:
469,353,81003,1,0,0:0:0:0:
381,359,81139,1,0,0:0:0:0:
505,246,81276,1,0,0:0:0:0:
277,301,81412,5,0,0:0:0:0:
359,277,81548,1,0,0:0:0:0:
233,374,81685,1,0,0:0:0:0:
415,205,81821,1,0,0:0:0:0:
264,102,81957,5,0,0:0:0:0:
359,277,82094,1,0,0:0:0:0:
251,80,82230,1,0,0:0:0:0:
370,298,82367,1,0,0:0:0:0:
180,161,82503,5,0,0:0:0:0:
415,205,82639,1,0,0:0:0:0:
267,322,82776,2,0,P|228:315|189:306,1,78.7500030040742
89,118,83048,5,0,0:0:0:0:
63,261,83185,1,0,0:0:0:0:
89,118,83321,2,0,L|73:25,1,78.7500030040742
189,306,83594,5,0,0:0:0:0:
260,94,83730,1,0,0:0:0:0:
63,261,83867,1,0,0:0:0:0:
178,70,84003,1,0,0:0:0:0:
365,191,84139,5,0,0:0:0:0:
165,229,84276,1,0,0:0:0:0:
388,185,84412,1,0,0:0:0:0:
144,234,84549,1,0,0:0:0:0:
349,83,84685,5,0,0:0:0:0:
279,316,84822,1,0,0:0:0:0:
487,193,84957,2,0,P|479:154|461:119,1,78.7500030040742
221,240,85230,5,0,0:0:0:0:
379,302,85367,1,0,0:0:0:0:
221,240,85503,2,0,P|203:202|195:152,1,78.7500030040742
484,36,85776,5,0,0:0:0:0:
255,8,85912,1,0,0:0:0:0:
487,193,86048,1,0,0:0:0:0:
278,325,86185,1,0,0:0:0:0:
149,63,86321,5,0,0:0:0:0:
436,352,86457,1,0,0:0:0:0:
90,351,86594,1,0,0:0:0:0:
377,64,86730,1,0,0:0:0:0:
43,192,86867,5,0,0:0:0:0:
468,193,87003,1,0,0:0:0:0:
178,297,87139,2,0,P|139:290|101:279,1,78.7500030040742
300,146,87412,5,0,0:0:0:0:
414,333,104321,5,0,0:0:0:0:
453,173,104594,1,0,0:0:0:0:
313,259,104867,6,0,P|345:312|416:332,1,136.499993751526
236,300,105412,2,0,P|202:310|162:317,1,68.2499968757631
402,249,105685,2,0,P|435:255|468:265,1,68.2499968757631
266,164,105958,2,0,L|279:22,1,136.499993751526
455,129,106503,2,0,L|467:264,1,136.499993751526
266,164,107049,6,0,P|196:168|124:232,1,136.499993751526
145,353,107594,2,0,P|159:317|176:279,1,68.2499968757631
42,224,107867,2,0,P|55:255|67:287,1,68.2499968757631
266,164,108140,1,0,0:0:0:0:
294,276,108412,1,0,0:0:0:0:
154,102,108685,1,0,0:0:0:0:
126,214,108957,1,0,0:0:0:0:
279,65,109230,6,0,P|336:79|443:94,1,136.499993751526
508,233,109776,2,0,P|472:211|429:194,1,68.2499968757631
365,347,110049,2,0,P|395:332|424:314,1,68.2499968757631
508,233,110321,2,0,P|444:198|383:181,1,136.499993751526
265,349,110867,1,0,0:0:0:0:
383,181,111140,1,0,0:0:0:0:
184,279,111412,6,0,B|136:284|109:266|109:266|78:248|38:257,1,136.499993751526
147,126,111958,2,0,P|157:159|164:210,1,68.2499968757631
29,132,112230,2,0,P|34:98|44:65,1,68.2499968757631
250,51,112503,1,0,0:0:0:0:
147,126,112776,1,0,0:0:0:0:
318,240,113049,2,0,P|378:219|468:206,1,136.499993751526
58,298,113594,6,0,B|60:311|54:337|54:337|61:306|95:248,1,136.499993751526
218,175,114139,2,0,P|185:182|150:197,1,68.2499968757631
10,151,114412,2,0,P|43:158|78:173,1,68.2499968757631
215,259,114685,2,0,L|353:238,1,136.499993751526
214,80,115230,2,0,P|165:131|152:194,1,136.499993751526
351,372,115776,6,0,B|345:329|345:329|357:282|357:282|349:238,1,136.499993751526
441,167,116321,2,0,P|455:199|475:226,1,68.2499968757631
343,145,116594,2,0,P|356:113|376:86,1,68.2499968757631
506,20,116867,1,0,0:0:0:0:
441,167,117139,1,0,0:0:0:0:
371,312,117412,1,0,0:0:0:0:
343,145,117684,1,0,0:0:0:0:
485,365,117957,6,0,P|443:320|361:313,1,136.499993751526
236,333,118503,2,0,P|272:355|315:372,1,68.2499968757631
464,238,118776,2,0,P|449:207|431:178,1,68.2499968757631
261,170,119048,2,0,P|306:225|379:226,1,136.499993751526
499,108,119594,1,0,0:0:0:0:
342,155,119867,1,0,0:0:0:0:
192,49,120139,6,0,B|240:54|267:36|267:36|298:18|338:27,1,136.499993751526
178,136,120685,2,0,P|144:141|111:151,1,68.2499968757631
28,19,120957,2,0,P|61:24|94:34,1,68.2499968757631
168,225,121230,1,0,0:0:0:0:
12,110,121503,1,0,0:0:0:0:
192,49,121776,2,0,P|256:66|342:83,1,136.499993751526
485,193,122321,6,0,P|447:199|388:211,1,73.4999977569581
348,258,122867,1,0,0:0:0:0:
336,176,123140,2,0,B|280:144|233:179|233:179|185:215|128:192,1,220.499993270874
128,192,124503,6,0,L|154:324,1,115.50000352478
88,373,125049,1,0,0:0:0:0:
150,305,125321,1,0,0:0:0:0:
60,130,125594,1,0,0:0:0:0:
128,192,125866,1,0,0:0:0:0:
150,305,126140,1,0,0:0:0:0:
43,215,126413,1,0,0:0:0:0:
227,362,126685,6,0,L|352:335,1,115.50000352478
398,247,127230,2,0,L|510:271,2,115.50000352478
316,189,128049,1,0,0:0:0:0:
339,337,128321,1,0,0:0:0:0:
398,247,128594,1,0,0:0:0:0:
265,138,128867,6,0,B|225:137|203:148|203:148|178:160|127:160,1,115.50000352478
166,70,129412,1,0,0:0:0:0:
152,159,129685,1,0,0:0:0:0:
249,229,129958,1,0,0:0:0:0:
265,138,130230,1,0,0:0:0:0:
132,256,130503,2,0,P|113:304|101:376,1,115.50000352478
39,170,131049,6,0,P|49:221|71:185,1,115.50000352478
23,27,131595,1,0,0:0:0:0:
78,93,131867,1,0,0:0:0:0:
244,51,132140,1,0,0:0:0:0:
147,24,132412,1,0,0:0:0:0:
282,137,132686,1,0,0:0:0:0:
244,51,132959,1,0,0:0:0:0:
82,182,133231,6,0,L|207:155,1,115.50000352478
161,288,133776,2,0,L|273:312,2,115.50000352478
77,317,134595,1,0,0:0:0:0:
82,182,134867,1,0,0:0:0:0:
21,248,135140,1,0,0:0:0:0:
141,373,135413,6,0,B|166:373|191:361|191:361|213:350|253:351,1,115.50000352478
411,377,135958,1,0,0:0:0:0:
339,323,136231,1,0,0:0:0:0:
492,236,136503,1,0,0:0:0:0:
420,290,136776,1,0,0:0:0:0:
300,151,137049,2,0,P|309:91|325:37,1,115.50000352478
324,250,137594,2,0,L|208:260,1,115.50000352478
41,192,138140,1,0,0:0:0:0:
140,181,138412,1,0,0:0:0:0:
38,343,138685,1,0,0:0:0:0:
38,343,139094,5,0,0:0:0:0:
205,334,139230,1,0,0:0:0:0:
220,333,139503,1,0,0:0:0:0:
457,253,157230,6,0,L|338:237,1,105
184,287,157765,1,0,0:0:0:0:
253,204,158033,1,0,0:0:0:0:
253,204,159372,6,0,L|235:83,1,115.50000352478
132,27,159880,1,0,0:0:0:0:
148,132,160134,1,0,0:0:0:0:
148,132,161151,1,0,0:0:0:0:
298,30,161405,6,0,L|425:49,1,125.999996154785
501,220,161888,1,0,0:0:0:0:
400,163,162130,1,0,0:0:0:0:
400,163,163098,1,0,0:0:0:0:
290,305,163340,6,0,L|166:286,1,115.50000352478
9,351,163794,1,0,0:0:0:0:
120,374,164021,1,0,0:0:0:0:
120,374,164930,1,0,0:0:0:0:
289,304,165158,6,0,L|271:166,1,136.499993751526
416,125,165586,1,0,0:0:0:0:
382,239,165800,1,0,0:0:0:0:
382,239,166872,6,0,L|525:222,1,136.499993751526
414,365,167264,1,0,0:0:0:0:
264,314,167460,1,0,0:0:0:0:
264,314,168244,1,0,0:0:0:0:
361,104,168440,6,0,L|384:252,1,136.499993751526
191,182,168799,1,0,0:0:0:0:
280,20,168978,1,0,0:0:0:0:
280,20,169697,1,0,0:0:0:0:
152,156,169877,6,0,L|-6:126,1,136.499993751526
118,317,170221,1,0,0:0:0:0:
332,239,170394,1,0,0:0:0:0:
204,49,170911,5,0,0:0:0:0:
204,49,171256,6,0,P|271:55|302:114,1,125.999996154785
207,319,171601,2,0,L|197:254,1,62.9999980773926
175,127,171773,1,0,0:0:0:0:
172,114,172118,1,0,0:0:0:0:
351,265,172290,2,0,L|288:274,1,62.9999980773926
52,316,172463,2,0,L|114:306,1,62.9999980773926
339,183,172635,6,0,P|407:203|432:281,1,125.999996154785
308,366,172980,2,0,L|245:357,1,62.9999980773926
462,344,173152,1,0,0:0:0:0:
479,338,173497,1,0,0:0:0:0:
348,120,173670,2,0,P|342:152|338:190,1,62.9999980773926
510,258,173842,1,0,0:0:0:0:
251,136,174014,6,0,P|176:149|59:166,1,188.999994232178
234,43,174359,1,0,0:0:0:0:
283,282,174532,6,0,P|279:315|255:351,1,62.9999980773926
374,160,174704,6,0,L|443:154,1,62.9999980773926
205,288,174877,6,0,P|185:314|146:333,1,62.9999980773926
337,83,175049,6,0,L|399:77,1,62.9999980773926
131,256,175221,6,0,P|100:269|57:266,1,62.9999980773926
374,160,175394,6,0,P|459:184|475:275,1,188.999994232178
255,366,175739,1,0,0:0:0:0:
313,304,175825,1,0,0:0:0:0:
397,316,175911,6,0,P|414:345|425:382,1,62.9999980773926
194,184,176083,6,0,L|201:118,1,62.9999980773926
424,237,176256,6,0,P|453:253|481:280,1,62.9999980773926
177,331,176428,6,0,L|184:265,1,62.9999980773926
402,157,176601,6,0,P|435:156|473:165,1,62.9999980773926
117,219,176773,6,0,P|54:188|-24:182,1,125.999996154785
73,75,177118,2,0,P|103:68|147:56,1,62.9999980773926
34,283,177290,1,0,0:0:0:0:
26,300,177635,1,0,0:0:0:0:
230,346,177807,2,0,L|221:283,1,62.9999980773926
195,124,177980,2,0,L|205:186,1,62.9999980773926
331,368,178152,6,0,P|382:334|396:274,1,125.999996154785
267,195,178497,2,0,L|204:186,1,62.9999980773926
405,114,178669,1,0,0:0:0:0:
427,122,179014,1,0,0:0:0:0:
479,273,179187,2,0,P|484:303|488:335,1,62.9999980773926
365,186,179359,1,0,0:0:0:0:
217,341,179531,6,0,L|25:311,1,188.999994232178
162,225,179876,1,0,0:0:0:0:
276,283,180049,6,0,P|294:314|300:356,1,62.9999980773926
85,216,180221,6,0,L|21:209,1,62.9999980773926
381,227,180394,6,0,P|412:244|441:276,1,62.9999980773926
162,90,180566,6,0,L|104:61,1,62.9999980773926
445,136,180739,6,0,P|480:135|523:146,1,62.9999980773926
232,44,180911,6,0,P|156:79|177:182,1,188.999994232178
360,315,181256,1,0,0:0:0:0:
431,263,181342,1,0,0:0:0:0:
351,225,181428,6,0,P|321:233|287:261,1,62.9999980773926
512,372,181601,6,0,L|499:298,1,62.9999980773926
217,164,181773,6,0,P|195:185|175:224,1,62.9999980773926
478,187,181945,6,0,L|465:113,1,62.9999980773926
78,190,182118,6,0,P|69:219|69:264,1,62.9999980773926
261,363,182290,6,0,L|428:330,1,157.5
501,309,182635,1,0,0:0:0:0:
178,213,182808,1,0,0:0:0:0:
156,218,183152,1,0,0:0:0:0:
134,223,183497,1,0,0:0:0:0:
304,143,183670,6,0,L|463:168,1,136.499993751526
482,45,184015,2,0,P|448:62|419:70,1,68.2499968757631
227,19,184187,1,0,0:0:0:0:
205,23,184532,1,0,0:0:0:0:
166,235,184705,2,0,L|182:313,1,68.2499968757631
316,92,184877,1,0,0:0:0:0:
215,374,185049,6,0,P|148:316|28:345,1,204.749990627289
284,300,185394,1,0,0:0:0:0:
41,166,185566,6,0,L|51:255,1,68.2499968757631
368,183,185739,6,0,P|399:198|428:217,1,68.2499968757631
133,96,185911,6,0,L|158:181,1,68.2499968757631
283,300,186083,6,0,P|316:288|349:281,1,68.2499968757631
221,17,186256,6,0,L|260:97,1,68.2499968757631
343,378,186428,6,0,P|447:377|436:301,1,204.749990627289
230,248,186773,1,0,0:0:0:0:
261,335,186859,1,0,0:0:0:0:
230,248,186945,6,0,P|234:214|246:173,1,68.2499968757631
468,40,187118,6,0,P|435:48|403:62,1,68.2499968757631
136,283,187290,6,0,P|131:249|132:206,1,68.2499968757631
315,18,187463,6,0,P|285:34|258:56,1,68.2499968757631
62,347,187635,6,0,P|48:315|38:274,1,68.2499968757631
314,232,187808,2,0,L|448:255,1,136.499993751526
468,377,188153,2,0,P|439:358|407:345,1,68.2499968757631
486,169,188325,1,0,0:0:0:0:
505,151,188670,1,0,0:0:0:0:
294,37,188842,2,0,L|308:119,1,68.2499968757631
335,268,189014,2,0,L|323:200,1,68.2499968757631
128,63,189187,6,0,P|195:59|217:120,1,136.499993751526
100,246,189532,2,0,L|23:231,1,68.2499968757631
255,355,189704,1,0,0:0:0:0:
276,349,190049,1,0,0:0:0:0:
116,334,190221,2,0,L|41:344,1,68.2499968757631
226,254,190394,1,0,0:0:0:0:
389,360,190566,6,0,B|402:286|402:286|384:232|384:232|398:146,1,204.749990627289
473,46,190911,1,0,0:0:0:0:
231,71,191083,6,0,P|194:63|160:49,1,68.2499968757631
395,160,191256,6,0,P|426:147|460:140,1,68.2499968757631
136,167,191428,6,0,P|99:178|63:183,1,68.2499968757631
333,293,191601,6,0,P|366:298|399:309,1,68.2499968757631
109,297,191773,6,0,P|83:325|54:347,1,68.2499968757631
202,39,191946,6,0,P|126:74|147:177,1,188.999994232178
291,324,192290,1,0,0:0:0:0:
382,314,192376,1,0,0:0:0:0:
473,302,192463,6,0,P|482:267|486:232,1,68.2499968757631
202,334,192635,6,0,L|112:316,1,68.2499968757631
393,200,192808,6,0,P|418:174|439:145,1,68.2499968757631
135,166,192980,6,0,L|45:148,1,68.2499968757631
368,68,193152,6,0,P|402:58|435:44,1,68.2499968757631
146,22,193325,6,0,L|22:47,1,125.999996154785
11,238,193670,1,0,0:0:0:0:
135,166,193842,2,0,P|201:172|245:225,1,125.999996154785
140,357,194187,1,0,0:0:0:0:
159,247,194532,1,0,0:0:0:0:
339,183,194704,6,0,P|407:203|432:281,1,125.999996154785
495,162,195049,1,0,0:0:0:0:
343,275,195221,2,0,P|301:264|219:247,1,125.999996154785
445,348,195566,1,0,0:0:0:0:
432,248,195911,1,0,0:0:0:0:
198,347,196083,6,0,L|12:309,1,188.999994232178
220,247,196428,1,0,0:0:0:0:
52,124,196601,6,0,P|33:155|24:195,1,62.9999980773926
198,347,196773,6,0,L|269:335,1,62.9999980773926
192,84,196945,6,0,P|160:101|132:131,1,62.9999980773926
341,322,197118,6,0,L|412:310,1,62.9999980773926
338,104,197290,6,0,P|301:103|262:115,1,62.9999980773926
483,295,197463,6,0,P|495:236|401:160,1,188.999994232178
219,262,197808,1,0,0:0:0:0:
260,336,197894,1,0,0:0:0:0:
175,338,197980,6,0,P|141:328|103:323,1,62.9999980773926
343,259,198152,6,0,P|374:254|414:247,1,62.9999980773926
142,211,198325,6,0,P|107:219|72:234,1,62.9999980773926
264,134,198497,6,0,P|293:146|331:159,1,62.9999980773926
44,111,198670,6,0,P|18:135|-4:165,1,62.9999980773926
194,37,198842,6,0,P|256:27|336:17,1,125.999996154785
456,91,199187,1,0,0:0:0:0:
405,248,199359,2,0,L|264:229,1,125.999996154785
456,91,199704,1,0,0:0:0:0:
405,248,200049,1,0,0:0:0:0:
164,171,200221,6,0,L|287:147,1,125.999996154785
253,282,200566,1,0,0:0:0:0:
72,186,200739,2,0,P|75:149|140:83,1,125.999996154785
287,147,201083,1,0,0:0:0:0:
164,171,201428,1,0,0:0:0:0:
321,30,201600,6,0,L|507:59,1,188.999994232178
384,143,201945,1,0,0:0:0:0:
462,299,202118,6,0,L|473:225,1,62.9999980773926
86,180,202290,6,0,P|117:177|148:181,1,62.9999980773926
349,334,202463,6,0,L|346:259,1,62.9999980773926
199,71,202635,6,0,P|227:83|252:102,1,62.9999980773926
237,374,202808,6,0,L|222:300,1,62.9999980773926
342,38,202980,6,0,P|421:35|490:131,1,188.999994232178
435,349,203325,1,0,0:0:0:0:
395,274,203411,1,0,0:0:0:0:
450,210,203497,6,0,P|483:213|524:230,1,62.9999980773926
186,308,203670,6,0,L|176:375,1,62.9999980773926
327,140,203842,6,0,P|357:126|401:120,1,62.9999980773926
336,326,204014,6,0,L|360:389,1,62.9999980773926
190,120,204187,6,0,P|209:92|244:65,1,62.9999980773926
463,331,204359,6,0,P|473:254|488:170,1,157.5
491,79,204704,1,0,0:0:0:0:
312,23,204877,1,0,0:0:0:0:
310,43,205221,1,0,0:0:0:0:
310,65,205566,1,0,0:0:0:0:
195,237,205739,6,0,L|337:205,1,136.499993751526
281,328,206084,1,0,0:0:0:0:
111,198,206256,2,0,P|154:154|231:152,1,136.499993751526
177,329,206601,1,0,0:0:0:0:
318,211,206946,1,0,0:0:0:0:
185,61,207118,6,0,L|49:76,1,136.499993751526
217,150,207463,1,0,0:0:0:0:
345,40,207635,6,0,P|330:73|320:115,1,68.2499968757631
445,315,207808,6,0,L|524:302,1,68.2499968757631
217,150,207980,6,0,P|220:186|232:227,1,68.2499968757631
445,235,208152,6,0,L|524:222,1,68.2499968757631
194,317,208325,6,0,P|215:346|246:376,1,68.2499968757631
490,146,208497,6,0,P|436:87|312:113,1,204.749990627289
121,260,208842,1,0,0:0:0:0:
208,229,208928,1,0,0:0:0:0:
121,260,209014,6,0,P|87:256|40:241,1,68.2499968757631
362,357,209187,6,0,L|345:290,1,68.2499968757631
185,134,209359,6,0,P|153:147|105:158,1,68.2499968757631
393,207,209532,2,0,L|376:140,1,68.2499968757631
152,1,209704,6,0,P|131:28|95:61,1,68.2499968757631
376,140,209877,6,0,P|444:112|508:104,1,136.499993751526
311,46,210221,1,0,0:0:0:0:
473,196,210393,2,0,P|489:238|451:203,1,136.499993751526
376,140,210738,1,0,0:0:0:0:
506,104,211083,1,0,0:0:0:0:
343,241,211255,6,0,L|194:213,1,136.499993751526
376,140,211600,1,0,0:0:0:0:
427,329,211772,2,0,L|290:359,1,136.499993751526
485,197,212117,1,0,0:0:0:0:
343,241,212462,1,0,0:0:0:0:
336,41,212635,6,0,P|338:128|421:99,1,204.749990627289
417,18,212980,1,0,0:0:0:0:
222,85,213152,6,0,P|207:119|196:156,1,68.2499968757631
369,272,213325,6,0,L|450:262,1,68.2499968757631
94,134,213497,6,0,P|98:170|106:208,1,68.2499968757631
338,361,213670,6,0,L|419:351,1,68.2499968757631
9,245,213842,6,0,P|30:274|57:303,1,68.2499968757631
291,147,214015,6,0,P|267:94|125:59,1,204.749990627289
227,216,214359,1,0,0:0:0:0:
299,157,214445,1,0,0:0:0:0:
391,171,214532,6,0,P|406:203|418:247,1,68.2499968757631
105,157,214704,6,0,L|29:149,1,68.2499968757631
316,279,214877,6,0,P|312:314|301:358,1,68.2499968757631
147,56,215049,6,0,L|79:63,1,68.2499968757631
204,328,215221,6,0,P|183:356|151:389,1,68.2499968757631
