osu file format v14

[General]
AudioFilename: audio.mp3
AudioLeadIn: 0
PreviewTime: 69794
Countdown: 0
SampleSet: Normal
StackLeniency: 0.7
Mode: 1
LetterboxInBreaks: 0
WidescreenStoryboard: 1

[Editor]
DistanceSpacing: 1
BeatDivisor: 4
GridSize: 32
TimelineZoom: 1.1

[Metadata]
Title:ILY
TitleUnicode:ILY
Artist:Panda Eyes
ArtistUnicode:Panda Eyes
Creator:Cynplytholowazy
Version:Muzukashii
Source:osu!
Tags:Featured Artist FA KIKO The Harmonic War EP Electronic DnB drum'n'bass Instrumental Ciyus Miapah Fort
BeatmapID:2233455
BeatmapSetID:1066709

[Difficulty]
HPDrainRate:7
CircleSize:10
OverallDifficulty:4
ApproachRate:10
SliderMultiplier:1.4
SliderTickRate:1

[Events]
//Background and Video events
0,0,"43753836_p0.jpg",0,-30
//Break Periods
2,142607,155498
//Storyboard Layer 0 (Background)
//Storyboard Layer 1 (Fail)
//Storyboard Layer 2 (Pass)
//Storyboard Layer 3 (Foreground)
//Storyboard Layer 4 (Overlay)
//Storyboard Sound Samples

[TimingPoints]
606,545.454545454546,4,1,0,60,1,0
606,-133.333333333333,4,1,0,60,0,0
18044,545.454545454546,4,1,0,70,1,0
18044,-117.647058823529,4,1,0,70,0,0
34953,-90.9090909090909,4,1,0,70,0,0
35498,-100,4,1,0,90,0,0
53498,-111.111111111111,4,1,0,90,0,0
53634,-114.285714285714,4,1,0,90,0,0
53771,-117.647058823529,4,1,0,90,0,0
54589,-90.9090909090909,4,1,0,90,0,0
55134,-100,4,1,0,90,0,0
70407,-83.3333333333333,4,1,0,100,0,1
87862,-83.3333333333333,4,1,0,100,0,0
88134,-86.9565217391304,4,1,0,60,0,0
88407,-90.9090909090909,4,1,0,60,0,0
88680,-95.2380952380952,4,1,0,60,0,0
104771,-90.9090909090909,4,1,0,60,0,0
105316,-100,4,1,0,90,0,0
122771,-100,4,1,0,90,0,0
123316,-111.111111111111,4,1,0,90,0,0
123589,-117.647058823529,4,1,0,90,0,0
124407,-90.9090909090909,4,1,0,90,0,0
124953,-100,4,1,0,90,0,0
131498,-100,4,1,0,90,0,0
139953,-133.333333333333,4,1,0,30,0,0
157680,-100,4,1,0,90,0,0
158220,-98.1432282644646,4,1,0,90,0,0
158490,-97.2405088401347,4,1,0,90,0,0
158761,530.973451327434,4,1,0,90,1,8
158761,-98.0902624511743,4,1,0,90,0,0
159822,521.739130434783,4,1,0,90,1,0
159822,-97.5711598612919,4,1,0,90,0,0
160337,-95.8847381496855,4,1,0,90,0,0
160594,-95.0632441483433,4,1,0,90,0,0
160862,504.201680672269,4,1,0,90,1,8
160862,-96.2782750887796,4,1,0,90,0,0
161618,-93.8855926893325,4,1,0,90,0,0
161870,487.80487804878,4,1,0,90,1,0
161870,-96.244160825683,4,1,0,90,0,0
162357,-94.6882435769616,4,1,0,90,0,0
162601,-93.9289590082569,4,1,0,90,0,0
162845,476.190476190476,4,1,0,90,1,8
162845,-95.4545606404984,4,1,0,90,0,0
163559,-93.2297116165287,4,1,0,90,0,0
163797,461.538461538462,4,1,0,90,1,0
163797,-95.4478728806434,4,1,0,90,0,0
164258,-93.9985497903739,4,1,0,90,0,0
164489,-93.2903064087822,4,1,0,90,0,0
164720,450.281425891182,4,1,0,90,1,8
164720,-94.9073972677283,4,1,0,90,0,0
165395,-92.8248171805648,4,1,0,90,0,0
165620,434.782608695652,4,1,0,90,1,0
165620,-95.4356628673799,4,1,0,90,0,0
166054,-94.0695027203878,4,1,0,90,0,0
166272,-93.4010209178288,4,1,0,90,0,0
166489,413.793103448276,4,1,0,90,1,8
166489,-97.4462031602396,4,1,0,90,0,0
167316,402.684563758389,4,1,0,90,1,0
167316,-97.3856476483478,4,1,0,90,0,0
167718,-96.0670739536651,4,1,0,90,0,0
167920,-95.4210529851526,4,1,0,90,0,0
168121,387.096774193548,4,1,0,90,1,8
168121,-98.6005239593676,4,1,0,90,0,0
168701,-96.6635213604088,4,1,0,90,0,0
168895,363.636363636364,4,1,0,90,1,0
168895,-102.230487071765,4,1,0,90,0,0
169258,-100.917429340965,4,1,0,90,0,0
169440,-100.273502358725,4,1,0,90,0,0
169622,356.083086053412,4,1,0,90,1,8
169622,-101.751200356193,4,1,0,90,0,0
170156,-99.8518696032954,4,1,0,90,0,0
170334,346.820809248555,4,1,0,90,1,0
170334,-101.884552081646,4,1,0,90,0,0
170680,-100.639884089846,4,1,0,90,0,0
170854,-100.028917030049,4,1,0,90,0,0
171027,344.827586206897,4,1,0,90,1,8
171027,-99.9999724138008,4,1,0,90,0,0
171371,-90.9090681105784,4,1,0,90,0,0
171716,344.827586206897,4,1,0,90,1,0
171716,-100,4,1,0,100,0,1
182750,-100,4,1,0,80,0,0
183095,-108.108108108108,4,1,0,80,0,0
183267,-112.676056338028,4,1,0,80,0,0
183612,-123.076923076923,4,1,0,80,0,0
183957,-135.593220338983,4,1,0,80,0,0
184129,-100,4,1,0,100,0,1
193784,-100,4,1,0,80,0,0
204818,-100,4,1,0,80,0,0
205163,-108.108108108108,4,1,0,100,0,0
205335,-112.676056338028,4,1,0,100,0,0
205680,-123.076923076923,4,1,0,100,0,0
206025,-135.593220338983,4,1,0,100,0,0
206198,-100,4,1,0,80,0,0
215853,-66.6666666666667,4,1,0,30,0,0
216197,-133.333333333333,4,1,0,28,0,0
216542,-133.333333333333,4,1,0,27,0,0
216887,-133.333333333333,4,1,0,25,0,0
217232,-133.333333333333,4,1,0,24,0,0
217577,-133.333333333333,4,1,0,22,0,0
217921,-133.333333333333,4,1,0,21,0,0
218266,-133.333333333333,4,1,0,19,0,0
218611,-133.333333333333,4,1,0,18,0,0
218956,-133.333333333333,4,1,0,16,0,0
219301,-133.333333333333,4,1,0,14,0,0
219646,-133.333333333333,4,1,0,13,0,0
219990,-133.333333333333,4,1,0,11,0,0
220335,-133.333333333333,4,1,0,10,0,0
220680,-133.333333333333,4,1,0,8,0,0
221025,-133.333333333333,4,1,0,7,0,0
221370,-133.333333333333,4,1,0,5,0,0

[Colours]
Combo1 : 145,145,255
Combo2 : 0,0,215
Combo3 : 18,124,255
Combo4 : 0,221,221

[HitObjects]
256,192,606,5,2,0:0:0:0:
256,192,1151,1,0,0:0:0:0:
256,192,1424,1,2,0:0:0:0:
256,192,2787,1,0,0:0:0:0:
256,192,3333,1,2,0:0:0:0:
256,192,3606,1,0,0:0:0:0:
256,192,4969,1,2,0:0:0:0:
256,192,5515,1,0,0:0:0:0:
256,192,5787,1,2,0:0:0:0:
256,192,6606,1,0,0:0:0:0:
256,192,6878,1,0,0:0:0:0:
256,192,7151,1,2,0:0:0:0:
256,192,7696,1,0,0:0:0:0:
256,192,7969,1,2,0:0:0:0:
256,192,8787,1,0,0:0:0:0:
256,192,9060,1,0,0:0:0:0:
256,192,9333,1,2,0:0:0:0:
256,192,9878,1,0,0:0:0:0:
256,192,10151,1,2,0:0:0:0:
256,192,11515,1,0,0:0:0:0:
256,192,12060,1,2,0:0:0:0:
256,192,12333,1,0,0:0:0:0:
256,192,13696,1,2,0:0:0:0:
256,192,14242,1,0,0:0:0:0:
256,192,14515,1,2,0:0:0:0:
256,192,15333,1,0,0:0:0:0:
256,192,15606,1,2,0:0:0:0:
256,192,15878,1,2,0:0:0:0:
256,192,16424,1,0,0:0:0:0:
256,192,16696,1,2,0:0:0:0:
256,192,17515,1,0,0:0:0:0:
256,192,17787,1,2,0:0:0:0:
256,192,18044,1,6,0:0:0:0:
256,192,18316,1,0,0:0:0:0:
256,192,18589,1,2,0:0:0:0:
256,192,18725,1,2,0:0:0:0:
256,192,18862,1,0,0:0:0:0:
256,192,19134,1,2,0:0:0:0:
256,192,19407,1,0,0:0:0:0:
256,192,19680,1,2,0:0:0:0:
256,192,20225,1,2,0:0:0:0:
256,192,20498,1,0,0:0:0:0:
256,192,20771,1,2,0:0:0:0:
256,192,20907,1,2,0:0:0:0:
256,192,21044,1,0,0:0:0:0:
256,192,21316,1,2,0:0:0:0:
256,192,21589,1,0,0:0:0:0:
256,192,21862,1,2,0:0:0:0:
256,192,22407,1,2,0:0:0:0:
256,192,22680,1,0,0:0:0:0:
256,192,22953,1,2,0:0:0:0:
256,192,23089,1,2,0:0:0:0:
256,192,23225,1,0,0:0:0:0:
256,192,23498,1,0,0:0:0:0:
256,192,23771,1,0,0:0:0:0:
256,192,24044,1,2,0:0:0:0:
256,192,24589,1,2,0:0:0:0:
256,192,24862,1,0,0:0:0:0:
256,192,25134,1,2,0:0:0:0:
256,192,25271,1,2,0:0:0:0:
256,192,25407,1,0,0:0:0:0:
256,192,25680,1,0,0:0:0:0:
256,192,25953,1,0,0:0:0:0:
256,192,26225,1,2,0:0:0:0:
256,192,26771,1,2,0:0:0:0:
256,192,27044,1,0,0:0:0:0:
256,192,27316,1,2,0:0:0:0:
256,192,27453,1,2,0:0:0:0:
256,192,27589,1,0,0:0:0:0:
256,192,27862,1,2,0:0:0:0:
256,192,28134,1,0,0:0:0:0:
256,192,28407,1,2,0:0:0:0:
256,192,28953,1,2,0:0:0:0:
256,192,29225,1,0,0:0:0:0:
256,192,29498,1,2,0:0:0:0:
256,192,29634,1,2,0:0:0:0:
256,192,29771,1,0,0:0:0:0:
256,192,30044,1,2,0:0:0:0:
256,192,30316,1,0,0:0:0:0:
256,192,30589,1,2,0:0:0:0:
256,192,31134,1,2,0:0:0:0:
256,192,31407,1,0,0:0:0:0:
256,192,31680,1,2,0:0:0:0:
256,192,31816,1,2,0:0:0:0:
256,192,31953,1,0,0:0:0:0:
256,192,32225,1,0,0:0:0:0:
256,192,32498,1,0,0:0:0:0:
256,192,32771,1,2,0:0:0:0:
256,192,33316,1,2,0:0:0:0:
256,192,33589,1,0,0:0:0:0:
256,192,33862,1,2,0:0:0:0:
256,192,33998,1,2,0:0:0:0:
256,192,34134,1,0,0:0:0:0:
256,192,34407,1,0,0:0:0:0:
256,192,34680,1,0,0:0:0:0:
256,192,34953,1,6,0:0:0:0:
256,192,35498,1,4,0:0:0:0:
256,192,36044,1,2,0:0:0:0:
256,192,36316,1,0,0:0:0:0:
256,192,36589,1,2,0:0:0:0:
256,192,36862,1,2,0:0:0:0:
256,192,37134,1,0,0:0:0:0:
256,192,37407,1,2,0:0:0:0:
256,192,37680,1,0,0:0:0:0:
256,192,38225,1,2,0:0:0:0:
256,192,38362,1,2,0:0:0:0:
256,192,38498,1,2,0:0:0:0:
256,192,38771,1,2,0:0:0:0:
256,192,39044,1,0,0:0:0:0:
256,192,39316,1,0,0:0:0:0:
256,192,39589,1,0,0:0:0:0:
256,192,39862,1,2,0:0:0:0:
256,192,40407,1,2,0:0:0:0:
256,192,40544,1,2,0:0:0:0:
256,192,40680,1,2,0:0:0:0:
256,192,40953,1,2,0:0:0:0:
256,192,41225,1,0,0:0:0:0:
256,192,41498,1,2,0:0:0:0:
256,192,41771,1,0,0:0:0:0:
256,192,42044,1,2,0:0:0:0:
256,192,42589,1,2,0:0:0:0:
256,192,42725,1,2,0:0:0:0:
256,192,42862,1,2,0:0:0:0:
256,192,43134,1,2,0:0:0:0:
256,192,43407,1,0,0:0:0:0:
256,192,43680,1,0,0:0:0:0:
256,192,43953,1,2,0:0:0:0:
256,192,44225,1,0,0:0:0:0:
256,192,44771,1,2,0:0:0:0:
256,192,45044,1,0,0:0:0:0:
256,192,45316,1,2,0:0:0:0:
256,192,45589,1,2,0:0:0:0:
256,192,45862,1,0,0:0:0:0:
256,192,46134,1,2,0:0:0:0:
256,192,46407,1,0,0:0:0:0:
256,192,46953,1,2,0:0:0:0:
256,192,47089,1,2,0:0:0:0:
256,192,47225,1,2,0:0:0:0:
256,192,47498,1,2,0:0:0:0:
256,192,47771,1,0,0:0:0:0:
256,192,48044,1,0,0:0:0:0:
256,192,48316,1,0,0:0:0:0:
256,192,48589,1,2,0:0:0:0:
256,192,49134,1,2,0:0:0:0:
256,192,49271,1,2,0:0:0:0:
256,192,49407,1,2,0:0:0:0:
256,192,49680,1,2,0:0:0:0:
256,192,49953,1,0,0:0:0:0:
256,192,50225,1,2,0:0:0:0:
256,192,50498,1,0,0:0:0:0:
256,192,50771,1,2,0:0:0:0:
256,192,51316,1,2,0:0:0:0:
256,192,51453,1,2,0:0:0:0:
256,192,51589,1,2,0:0:0:0:
256,192,51862,1,2,0:0:0:0:
256,192,52134,1,0,0:0:0:0:
256,192,52407,1,2,0:0:0:0:
256,192,52680,1,2,0:0:0:0:
256,192,52953,1,4,0:0:0:0:
256,192,53498,1,2,0:0:0:0:
256,192,53634,1,2,0:0:0:0:
256,192,53771,1,2,0:0:0:0:
256,192,54589,1,6,0:0:0:0:
256,192,55134,1,4,0:0:0:0:
256,192,55407,1,2,0:0:0:0:
256,192,55544,1,2,0:0:0:0:
256,192,55680,1,0,0:0:0:0:
256,192,55953,1,0,0:0:0:0:
256,192,56225,1,2,0:0:0:0:
256,192,56498,1,2,0:0:0:0:
256,192,56771,1,0,0:0:0:0:
256,192,57316,1,0,0:0:0:0:
256,192,57589,1,2,0:0:0:0:
256,192,57725,1,2,0:0:0:0:
256,192,57862,1,0,0:0:0:0:
256,192,58134,1,0,0:0:0:0:
256,192,58407,1,2,0:0:0:0:
256,192,58680,1,0,0:0:0:0:
256,192,58953,1,2,0:0:0:0:
256,192,59498,1,0,0:0:0:0:
256,192,59771,1,2,0:0:0:0:
256,192,59907,1,2,0:0:0:0:
256,192,60044,1,0,0:0:0:0:
256,192,60316,1,0,0:0:0:0:
256,192,60589,1,2,0:0:0:0:
256,192,60862,1,2,0:0:0:0:
256,192,61134,1,0,0:0:0:0:
256,192,61407,1,0,0:0:0:0:
256,192,61680,1,2,0:0:0:0:
256,192,62225,1,2,0:0:0:0:
256,192,62498,1,0,0:0:0:0:
256,192,62771,1,2,0:0:0:0:
256,192,63044,1,2,0:0:0:0:
256,192,63316,1,0,0:0:0:0:
256,192,63862,1,0,0:0:0:0:
256,192,64134,1,2,0:0:0:0:
256,192,64271,1,2,0:0:0:0:
256,192,64407,1,0,0:0:0:0:
256,192,64680,1,0,0:0:0:0:
256,192,64953,1,2,0:0:0:0:
256,192,65225,1,2,0:0:0:0:
256,192,65498,1,0,0:0:0:0:
256,192,66044,1,0,0:0:0:0:
256,192,66316,1,2,0:0:0:0:
256,192,66453,1,2,0:0:0:0:
256,192,66589,1,0,0:0:0:0:
256,192,66862,1,0,0:0:0:0:
256,192,67134,1,2,0:0:0:0:
256,192,67407,1,0,0:0:0:0:
256,192,67680,1,2,0:0:0:0:
256,192,68225,1,0,0:0:0:0:
256,192,68498,1,2,0:0:0:0:
256,192,68634,1,2,0:0:0:0:
256,192,68771,1,0,0:0:0:0:
256,192,69044,1,0,0:0:0:0:
256,192,69316,1,6,0:0:0:0:
256,192,70407,1,4,0:0:0:0:
256,192,70680,1,2,0:0:0:0:
256,192,70816,1,2,0:0:0:0:
256,192,70953,1,0,0:0:0:0:
256,192,71225,1,2,0:0:0:0:
256,192,71498,1,0,0:0:0:0:
256,192,71634,1,0,0:0:0:0:
256,192,71771,1,0,0:0:0:0:
256,192,72044,1,2,0:0:0:0:
256,192,72589,1,0,0:0:0:0:
256,192,72725,1,0,0:0:0:0:
256,192,72862,1,0,0:0:0:0:
256,192,73134,1,2,0:0:0:0:
256,192,73407,1,0,0:0:0:0:
256,192,73680,1,2,0:0:0:0:
256,192,73816,1,2,0:0:0:0:
256,192,73953,1,2,0:0:0:0:
256,192,74225,1,2,0:0:0:0:
256,192,74771,1,2,0:0:0:0:
256,192,74907,1,2,0:0:0:0:
256,192,75044,1,2,0:0:0:0:
256,192,75316,1,2,0:0:0:0:
256,192,75589,1,0,0:0:0:0:
256,192,75725,1,0,0:0:0:0:
256,192,75862,1,0,0:0:0:0:
256,192,76134,1,2,0:0:0:0:
256,192,76271,1,2,0:0:0:0:
256,192,76407,1,2,0:0:0:0:
256,192,76953,1,2,0:0:0:0:
256,192,77089,1,2,0:0:0:0:
256,192,77225,1,2,0:0:0:0:
256,192,77498,1,2,0:0:0:0:
256,192,77771,1,2,0:0:0:0:
256,192,77907,1,2,0:0:0:0:
256,192,78044,1,2,0:0:0:0:
256,192,78180,1,2,0:0:0:0:
256,192,78316,1,2,0:0:0:0:
256,192,78589,1,2,0:0:0:0:
256,192,79134,1,0,0:0:0:0:
256,192,79407,1,2,0:0:0:0:
256,192,79544,1,2,0:0:0:0:
256,192,79680,1,0,0:0:0:0:
256,192,79953,1,2,0:0:0:0:
256,192,80225,1,0,0:0:0:0:
256,192,80362,1,0,0:0:0:0:
256,192,80498,1,0,0:0:0:0:
256,192,80771,1,2,0:0:0:0:
256,192,81316,1,0,0:0:0:0:
256,192,81453,1,0,0:0:0:0:
256,192,81589,1,0,0:0:0:0:
256,192,81862,1,2,0:0:0:0:
256,192,82134,1,0,0:0:0:0:
256,192,82407,1,2,0:0:0:0:
256,192,82544,1,2,0:0:0:0:
256,192,82680,1,2,0:0:0:0:
256,192,82953,1,2,0:0:0:0:
256,192,83498,1,2,0:0:0:0:
256,192,83634,1,2,0:0:0:0:
256,192,83771,1,2,0:0:0:0:
256,192,84044,1,2,0:0:0:0:
256,192,84316,1,0,0:0:0:0:
256,192,84453,1,0,0:0:0:0:
256,192,84589,1,0,0:0:0:0:
256,192,84862,1,2,0:0:0:0:
256,192,84998,1,2,0:0:0:0:
256,192,85134,1,2,0:0:0:0:
256,192,85680,1,2,0:0:0:0:
256,192,85816,1,2,0:0:0:0:
256,192,85953,1,2,0:0:0:0:
256,192,86225,1,2,0:0:0:0:
256,192,86498,1,2,0:0:0:0:
256,192,86634,1,2,0:0:0:0:
256,192,86771,1,2,0:0:0:0:
256,192,86907,1,2,0:0:0:0:
256,192,87044,1,2,0:0:0:0:
256,192,87316,1,2,0:0:0:0:
256,192,87862,1,6,0:0:0:0:
256,192,88407,1,0,0:0:0:0:
256,192,88680,1,2,0:0:0:0:
256,192,90044,1,2,0:0:0:0:
256,192,90589,1,2,0:0:0:0:
256,192,90862,1,0,0:0:0:0:
256,192,91953,1,0,0:0:0:0:
256,192,92225,1,2,0:0:0:0:
256,192,92771,1,2,0:0:0:0:
256,192,93044,1,0,0:0:0:0:
256,192,94134,1,0,0:0:0:0:
256,192,94407,1,2,0:0:0:0:
256,192,94953,1,2,0:0:0:0:
256,192,95225,1,0,0:0:0:0:
256,192,96316,1,0,0:0:0:0:
256,192,96589,1,2,0:0:0:0:
256,192,97134,1,0,0:0:0:0:
256,192,97407,1,2,0:0:0:0:
256,192,98771,1,2,0:0:0:0:
256,192,99316,1,2,0:0:0:0:
256,192,99589,1,0,0:0:0:0:
256,192,100680,1,0,0:0:0:0:
256,192,100953,1,2,0:0:0:0:
256,192,101498,1,2,0:0:0:0:
256,192,101771,1,0,0:0:0:0:
256,192,102862,1,0,0:0:0:0:
256,192,103134,1,2,0:0:0:0:
256,192,103680,1,2,0:0:0:0:
256,192,103953,1,0,0:0:0:0:
256,192,104771,1,6,0:0:0:0:
256,192,105316,1,4,0:0:0:0:
256,192,105862,1,0,0:0:0:0:
256,192,106134,1,2,0:0:0:0:
256,192,106407,1,0,0:0:0:0:
256,192,106680,1,2,0:0:0:0:
256,192,106953,1,0,0:0:0:0:
256,192,107498,1,2,0:0:0:0:
256,192,108044,1,2,0:0:0:0:
256,192,108316,1,0,0:0:0:0:
256,192,108589,1,0,0:0:0:0:
256,192,108862,1,2,0:0:0:0:
256,192,109134,1,0,0:0:0:0:
256,192,109680,1,2,0:0:0:0:
256,192,110225,1,2,0:0:0:0:
256,192,110498,1,0,0:0:0:0:
256,192,110771,1,0,0:0:0:0:
256,192,111044,1,2,0:0:0:0:
256,192,111316,1,0,0:0:0:0:
256,192,111589,1,0,0:0:0:0:
256,192,111862,1,2,0:0:0:0:
256,192,112407,1,2,0:0:0:0:
256,192,112680,1,0,0:0:0:0:
256,192,112953,1,0,0:0:0:0:
256,192,113225,1,2,0:0:0:0:
256,192,113498,1,0,0:0:0:0:
256,192,113771,1,2,0:0:0:0:
256,192,114044,1,0,0:0:0:0:
256,192,114589,1,0,0:0:0:0:
256,192,114862,1,2,0:0:0:0:
256,192,115134,1,0,0:0:0:0:
256,192,115407,1,2,0:0:0:0:
256,192,115680,1,0,0:0:0:0:
256,192,116225,1,2,0:0:0:0:
256,192,116771,1,2,0:0:0:0:
256,192,117044,1,0,0:0:0:0:
256,192,117316,1,0,0:0:0:0:
256,192,117589,1,2,0:0:0:0:
256,192,117862,1,0,0:0:0:0:
256,192,118407,1,2,0:0:0:0:
256,192,118953,1,2,0:0:0:0:
256,192,119225,1,0,0:0:0:0:
256,192,119498,1,0,0:0:0:0:
256,192,119771,1,2,0:0:0:0:
256,192,120044,1,0,0:0:0:0:
256,192,120316,1,0,0:0:0:0:
256,192,120589,1,2,0:0:0:0:
256,192,121134,1,2,0:0:0:0:
256,192,121407,1,0,0:0:0:0:
256,192,121680,1,0,0:0:0:0:
256,192,121953,1,2,0:0:0:0:
256,192,122225,1,2,0:0:0:0:
256,192,122498,1,0,0:0:0:0:
256,192,122771,1,2,0:0:0:0:
256,192,123316,1,0,0:0:0:0:
256,192,123589,1,2,0:0:0:0:
256,192,124407,1,4,0:0:0:0:
256,192,124953,1,6,0:0:0:0:
256,192,125498,1,2,0:0:0:0:
256,192,125771,1,0,0:0:0:0:
256,192,126044,1,2,0:0:0:0:
256,192,126316,1,2,0:0:0:0:
256,192,126589,1,0,0:0:0:0:
256,192,127134,1,2,0:0:0:0:
256,192,127680,1,2,0:0:0:0:
256,192,127953,1,0,0:0:0:0:
256,192,128225,1,2,0:0:0:0:
256,192,128498,1,2,0:0:0:0:
256,192,128771,1,0,0:0:0:0:
256,192,129316,1,2,0:0:0:0:
256,192,129862,1,2,0:0:0:0:
256,192,130134,1,2,0:0:0:0:
256,192,130407,1,2,0:0:0:0:
256,192,130680,1,0,0:0:0:0:
256,192,130953,1,2,0:0:0:0:
256,192,131498,1,0,0:0:0:0:
256,192,132044,1,0,0:0:0:0:
256,192,132316,1,2,0:0:0:0:
256,192,132589,1,0,0:0:0:0:
256,192,132862,1,2,0:0:0:0:
256,192,133134,1,0,0:0:0:0:
256,192,133680,1,2,0:0:0:0:
256,192,134225,1,2,0:0:0:0:
256,192,134498,1,0,0:0:0:0:
256,192,134771,1,2,0:0:0:0:
256,192,135044,1,2,0:0:0:0:
256,192,135316,1,0,0:0:0:0:
256,192,135862,1,2,0:0:0:0:
256,192,136407,1,2,0:0:0:0:
256,192,136680,1,2,0:0:0:0:
256,192,136953,1,2,0:0:0:0:
256,192,137225,1,0,0:0:0:0:
256,192,137498,1,2,0:0:0:0:
256,192,138044,1,2,0:0:0:0:
256,192,138589,1,2,0:0:0:0:
256,192,138862,1,2,0:0:0:0:
256,192,139134,1,2,0:0:0:0:
256,192,139407,1,0,0:0:0:0:
256,192,139544,1,0,0:0:0:0:
256,192,139680,1,2,0:0:0:0:
256,192,140225,12,0,142407,0:0:0:0:
256,192,157680,5,2,0:0:0:0:
256,192,158225,1,0,0:0:0:0:
256,192,158498,1,2,0:0:0:0:
256,192,159822,1,2,0:0:0:0:
256,192,160343,1,2,0:0:0:0:
256,192,160604,1,0,0:0:0:0:
256,192,161618,1,0,0:0:0:0:
256,192,161870,1,2,0:0:0:0:
256,192,162357,1,2,0:0:0:0:
256,192,162601,1,0,0:0:0:0:
256,192,163559,1,0,0:0:0:0:
256,192,163797,1,2,0:0:0:0:
256,192,164258,1,2,0:0:0:0:
256,192,164489,1,0,0:0:0:0:
256,192,165395,1,0,0:0:0:0:
256,192,165620,1,2,0:0:0:0:
256,192,166054,1,0,0:0:0:0:
256,192,166272,1,2,0:0:0:0:
256,192,167316,1,2,0:0:0:0:
256,192,167718,1,2,0:0:0:0:
256,192,167920,1,0,0:0:0:0:
256,192,168701,1,0,0:0:0:0:
256,192,168895,1,2,0:0:0:0:
256,192,169258,1,2,0:0:0:0:
256,192,169440,1,0,0:0:0:0:
256,192,170156,1,0,0:0:0:0:
256,192,170334,1,2,0:0:0:0:
256,192,170680,1,2,0:0:0:0:
256,192,170854,1,0,0:0:0:0:
256,192,171371,1,4,0:0:0:0:
256,192,171716,1,6,0:0:0:0:
256,192,172060,1,0,0:0:0:0:
256,192,172233,1,2,0:0:0:0:
256,192,172750,1,2,0:0:0:0:
256,192,173095,1,0,0:0:0:0:
256,192,173440,1,2,0:0:0:0:
256,192,173612,1,0,0:0:0:0:
256,192,174129,1,0,0:0:0:0:
256,192,174474,1,2,0:0:0:0:
256,192,174819,1,0,0:0:0:0:
256,192,174991,1,2,0:0:0:0:
256,192,175164,1,2,0:0:0:0:
256,192,175336,1,2,0:0:0:0:
256,192,175509,1,2,0:0:0:0:
256,192,175853,1,2,0:0:0:0:
256,192,176198,1,0,0:0:0:0:
256,192,176371,1,2,0:0:0:0:
256,192,176543,1,2,0:0:0:0:
256,192,176716,1,2,0:0:0:0:
256,192,176888,1,2,0:0:0:0:
256,192,177233,1,2,0:0:0:0:
256,192,177578,1,0,0:0:0:0:
256,192,177750,1,2,0:0:0:0:
256,192,178267,1,2,0:0:0:0:
256,192,178612,1,0,0:0:0:0:
256,192,178957,1,2,0:0:0:0:
256,192,179129,1,0,0:0:0:0:
256,192,179647,1,0,0:0:0:0:
256,192,179991,1,2,0:0:0:0:
256,192,180336,1,0,0:0:0:0:
256,192,180509,1,2,0:0:0:0:
256,192,180681,1,2,0:0:0:0:
256,192,180853,1,2,0:0:0:0:
256,192,181026,1,2,0:0:0:0:
256,192,181371,1,2,0:0:0:0:
256,192,181716,1,0,0:0:0:0:
256,192,181888,1,2,0:0:0:0:
256,192,182060,1,2,0:0:0:0:
256,192,182233,1,2,0:0:0:0:
256,192,182405,1,2,0:0:0:0:
256,192,182750,1,4,0:0:0:0:
256,192,183095,1,0,0:0:0:0:
256,192,183267,1,2,0:0:0:0:
256,192,183612,1,2,0:0:0:0:
256,192,184129,1,4,0:0:0:0:
256,192,184474,1,0,0:0:0:0:
256,192,184647,1,2,0:0:0:0:
256,192,184991,1,2,0:0:0:0:
256,192,185336,1,0,0:0:0:0:
256,192,185509,1,2,0:0:0:0:
256,192,185853,1,0,0:0:0:0:
256,192,186026,1,2,0:0:0:0:
256,192,186198,1,2,0:0:0:0:
256,192,186371,1,2,0:0:0:0:
256,192,186543,1,2,0:0:0:0:
256,192,186888,1,2,0:0:0:0:
256,192,187233,1,2,0:0:0:0:
256,192,187319,1,2,0:0:0:0:
256,192,187405,1,2,0:0:0:0:
256,192,187578,1,2,0:0:0:0:
256,192,187750,1,2,0:0:0:0:
256,192,187922,1,0,0:0:0:0:
256,192,188095,1,0,0:0:0:0:
256,192,188267,1,0,0:0:0:0:
256,192,188784,1,2,0:0:0:0:
256,192,189129,1,2,0:0:0:0:
256,192,189474,1,2,0:0:0:0:
256,192,189647,1,0,0:0:0:0:
256,192,189991,1,0,0:0:0:0:
256,192,190164,1,2,0:0:0:0:
256,192,190509,1,2,0:0:0:0:
256,192,190853,1,0,0:0:0:0:
256,192,191026,1,2,0:0:0:0:
256,192,191371,1,0,0:0:0:0:
256,192,191543,1,2,0:0:0:0:
256,192,191716,1,0,0:0:0:0:
256,192,191888,1,2,0:0:0:0:
256,192,192060,1,2,0:0:0:0:
256,192,192405,1,2,0:0:0:0:
256,192,192750,1,2,0:0:0:0:
256,192,192836,1,2,0:0:0:0:
256,192,192922,1,2,0:0:0:0:
256,192,193095,1,2,0:0:0:0:
256,192,193267,1,2,0:0:0:0:
256,192,193440,1,0,0:0:0:0:
256,192,193612,1,0,0:0:0:0:
256,192,193784,1,4,0:0:0:0:
256,192,194129,1,0,0:0:0:0:
256,192,194302,1,2,0:0:0:0:
256,192,194647,1,0,0:0:0:0:
256,192,195164,1,0,0:0:0:0:
256,192,195509,1,2,0:0:0:0:
256,192,195681,1,0,0:0:0:0:
256,192,196026,1,0,0:0:0:0:
256,192,196543,1,2,0:0:0:0:
256,192,196888,1,0,0:0:0:0:
256,192,197060,1,2,0:0:0:0:
256,192,197233,1,2,0:0:0:0:
256,192,197405,1,2,0:0:0:0:
256,192,197578,1,2,0:0:0:0:
256,192,197922,1,2,0:0:0:0:
256,192,198267,1,2,0:0:0:0:
256,192,198353,1,2,0:0:0:0:
256,192,198440,1,2,0:0:0:0:
256,192,198612,1,2,0:0:0:0:
256,192,198784,1,2,0:0:0:0:
256,192,198957,1,2,0:0:0:0:
256,192,199129,1,2,0:0:0:0:
256,192,199302,1,2,0:0:0:0:
256,192,199647,1,0,0:0:0:0:
256,192,199819,1,2,0:0:0:0:
256,192,200164,1,0,0:0:0:0:
256,192,200681,1,0,0:0:0:0:
256,192,201026,1,2,0:0:0:0:
256,192,201198,1,0,0:0:0:0:
256,192,201543,1,0,0:0:0:0:
256,192,202060,1,2,0:0:0:0:
256,192,202405,1,0,0:0:0:0:
256,192,202578,1,2,0:0:0:0:
256,192,202750,1,2,0:0:0:0:
256,192,202922,1,2,0:0:0:0:
256,192,203095,1,2,0:0:0:0:
256,192,203440,1,2,0:0:0:0:
256,192,203784,1,2,0:0:0:0:
256,192,203871,1,2,0:0:0:0:
256,192,203957,1,2,0:0:0:0:
256,192,204129,1,2,0:0:0:0:
256,192,204302,1,2,0:0:0:0:
256,192,204474,1,2,0:0:0:0:
256,192,204647,1,2,0:0:0:0:
256,192,204819,1,4,0:0:0:0:
256,192,205164,1,0,0:0:0:0:
256,192,205336,1,2,0:0:0:0:
256,192,205681,1,2,0:0:0:0:
256,192,206198,1,4,0:0:0:0:
256,192,206543,1,0,0:0:0:0:
256,192,206716,1,2,0:0:0:0:
256,192,207060,1,2,0:0:0:0:
256,192,207405,1,0,0:0:0:0:
256,192,207578,1,2,0:0:0:0:
256,192,207922,1,0,0:0:0:0:
256,192,208095,1,2,0:0:0:0:
256,192,208267,1,2,0:0:0:0:
256,192,208440,1,2,0:0:0:0:
256,192,208612,1,2,0:0:0:0:
256,192,208957,1,2,0:0:0:0:
256,192,209302,1,2,0:0:0:0:
256,192,209388,1,2,0:0:0:0:
256,192,209474,1,2,0:0:0:0:
256,192,209647,1,2,0:0:0:0:
256,192,209819,1,2,0:0:0:0:
256,192,209991,1,0,0:0:0:0:
256,192,210164,1,0,0:0:0:0:
256,192,210336,1,0,0:0:0:0:
256,192,210853,1,2,0:0:0:0:
256,192,211198,1,2,0:0:0:0:
256,192,211543,1,2,0:0:0:0:
256,192,211716,1,0,0:0:0:0:
256,192,212060,1,0,0:0:0:0:
256,192,212233,1,2,0:0:0:0:
256,192,212578,1,2,0:0:0:0:
256,192,212922,1,0,0:0:0:0:
256,192,213095,1,2,0:0:0:0:
256,192,213440,1,0,0:0:0:0:
256,192,213612,1,2,0:0:0:0:
256,192,213784,1,0,0:0:0:0:
256,192,213957,1,2,0:0:0:0:
256,192,214129,1,2,0:0:0:0:
256,192,214474,1,2,0:0:0:0:
256,192,214819,1,2,0:0:0:0:
256,192,214905,1,2,0:0:0:0:
256,192,214991,1,2,0:0:0:0:
256,192,215164,1,2,0:0:0:0:
256,192,215336,1,2,0:0:0:0:
256,192,215509,1,0,0:0:0:0:
256,192,215681,1,0,0:0:0:0:
256,192,215853,12,0,226198,0:0:0:0:
