osu file format v14

[General]
AudioFilename: audio.mp3
AudioLeadIn: 0
PreviewTime: 187769
Countdown: 0
SampleSet: Normal
StackLeniency: 0.7
Mode: 0
LetterboxInBreaks: 0
WidescreenStoryboard: 1

[Editor]
Bookmarks: 17594,26321,35049,43776,52503,104867,122321
DistanceSpacing: 2
BeatDivisor: 8
GridSize: 4
TimelineZoom: 1.95

[Metadata]
Title:High
TitleUnicode:High
Artist:Panda Eyes
ArtistUnicode:Panda Eyes
Creator:Hullahopp
Version:Origin
Source:
Tags:
BeatmapID:1226422
BeatmapSetID:579180

[Difficulty]
HPDrainRate:7.1
CircleSize:4
OverallDifficulty:7.6
ApproachRate:9.3
SliderMultiplier:1.4
SliderTickRate:1

[Events]
//Background and Video events
0,0,"bg.jpg",0,0
//Break Periods
2,35236,43210
2,123055,125028
2,126328,129392
2,130691,133755
2,135055,138119
2,139964,147937
//Storyboard Layer 0 (Background)
//Storyboard Layer 1 (Fail)
//Storyboard Layer 2 (Pass)
//Storyboard Layer 3 (Foreground)
//Storyboard Sound Samples

[TimingPoints]
128,545.454545454546,4,1,0,75,1,0
25764,-83.3333333333333,4,2,0,75,0,0
26309,-100,4,2,0,75,0,0
34491,-83.3333333333333,4,2,0,75,0,0
35037,-100,4,2,0,75,0,0
52491,-76.9230769230769,4,2,0,75,0,1
55764,-50,4,2,0,75,0,1
55855,-50,4,2,0,20,0,1
55946,-50,4,2,0,75,0,1
56037,-50,4,2,0,20,0,1
56128,-50,4,2,0,75,0,1
56218,-50,4,2,0,20,0,1
56309,-62.5,4,2,0,75,0,1
56855,-76.9230769230769,4,2,0,75,0,1
60128,-50,4,2,0,75,0,1
60218,-50,4,2,0,20,0,1
60309,-50,4,2,0,75,0,1
60400,-50,4,2,0,20,0,1
60491,-50,4,2,0,75,0,1
60582,-50,4,2,0,20,0,1
60673,-50,4,2,0,75,0,1
60946,-76.9230769230769,4,2,0,75,0,1
64491,-50,4,2,0,75,0,1
64582,-50,4,2,0,20,0,1
64673,-50,4,2,0,75,0,1
64764,-50,4,2,0,20,0,1
64855,-50,4,2,0,75,0,1
64946,-50,4,2,0,20,0,1
65037,-50,4,2,0,75,0,1
65309,-76.9230769230769,4,2,0,75,0,1
68855,-50,4,2,0,75,0,0
68946,-50,4,2,0,20,0,0
69037,-50,4,2,0,75,0,0
69128,-50,4,2,0,20,0,0
69218,-50,4,2,0,75,0,0
69309,-50,4,2,0,20,0,0
69400,-50,4,2,0,75,0,0
69673,-76.9230769230769,4,2,0,75,0,0
69946,-76.9230769230769,4,1,0,75,0,1
73218,-50,4,1,0,75,0,1
73309,-50,4,1,0,20,0,1
73400,-50,4,1,0,75,0,1
73491,-50,4,1,0,20,0,1
73582,-50,4,1,0,75,0,1
73673,-50,4,1,0,20,0,1
73764,-50,4,1,0,75,0,1
74037,-76.9230769230769,4,1,0,75,0,1
77582,-50,4,1,0,75,0,1
77673,-50,4,1,0,20,0,1
77764,-50,4,1,0,75,0,1
77855,-50,4,1,0,20,0,1
77946,-50,4,1,0,75,0,1
78037,-50,4,1,0,20,0,1
78128,-50,4,1,0,75,0,1
78400,-76.9230769230769,4,1,0,75,0,1
81946,-50,4,1,0,75,0,1
82037,-50,4,1,0,20,0,1
82128,-50,4,1,0,75,0,1
82218,-50,4,1,0,20,0,1
82309,-50,4,1,0,75,0,1
82400,-50,4,1,0,20,0,1
82491,-50,4,1,0,75,0,1
82764,-76.9230769230769,4,1,0,75,0,1
85218,-50,4,1,0,75,0,1
85309,-50,4,1,0,20,0,1
85400,-50,4,1,0,75,0,1
85491,-50,4,1,0,20,0,1
85582,-50,4,1,0,75,0,1
85673,-50,4,1,0,20,0,1
85764,-50,4,1,0,75,0,1
85855,-50,4,1,0,20,0,1
85946,-50,4,1,0,75,0,1
86037,-50,4,1,0,20,0,1
86128,-50,4,1,0,75,0,1
86218,-50,4,1,0,20,0,1
86309,-50,4,1,0,75,0,1
86400,-50,4,1,0,20,0,1
86491,-50,4,1,0,75,0,1
86582,-50,4,1,0,20,0,1
86673,-50,4,1,0,75,0,1
86764,-50,4,1,0,20,0,1
86855,-50,4,1,0,75,0,1
87128,-50,4,1,0,20,0,1
87400,-100,4,1,0,75,0,0
91764,-66.6666666666667,4,1,0,75,0,0
94764,-66.6666666666667,4,1,0,20,0,0
95037,-100,4,1,0,75,0,0
100491,-66.6666666666667,4,1,0,75,0,0
103491,-66.6666666666667,4,1,0,20,0,0
103764,-100,4,1,0,75,0,0
109218,-66.6666666666667,4,1,0,75,0,0
112218,-66.6666666666667,4,1,0,20,0,0
112491,-100,4,1,0,75,0,0
139764,-100,4,1,0,75,0,0
156386,412.938747419133,4,1,0,75,1,0
165160,-100,4,1,0,20,0,0
165264,-100,4,1,0,75,0,0
165367,-100,4,1,0,20,0,0
165470,-100,4,1,0,75,0,0
178374,-100,4,1,0,20,0,0
178478,-100,4,1,0,75,0,0
178581,-100,4,1,0,20,0,0
178684,-100,4,1,0,75,0,0
184982,-100,4,1,0,20,0,0
185085,-100,4,1,0,75,0,0
185188,-100,4,1,0,20,0,0
185291,-100,4,1,0,75,0,0
189421,-62.5,4,1,0,75,0,1
191898,-50,4,1,0,75,0,1
191967,-50,4,1,0,20,0,1
192036,-50,4,1,0,75,0,1
192105,-50,4,1,0,20,0,1
192174,-50,4,1,0,75,0,1
192242,-50,4,1,0,20,0,1
192311,-50,4,1,0,75,0,1
192518,-62.5,4,1,0,75,0,1
195202,-50,4,1,0,75,0,1
195271,-50,4,1,0,20,0,1
195339,-50,4,1,0,75,0,1
195408,-50,4,1,0,20,0,1
195477,-50,4,1,0,75,0,1
195546,-50,4,1,0,20,0,1
195615,-50,4,1,0,75,0,1
195821,-62.5,4,1,0,75,0,1
198505,-50,4,1,0,75,0,1
198574,-50,4,1,0,20,0,1
198643,-50,4,1,0,75,0,1
198712,-50,4,1,0,20,0,1
198781,-50,4,1,0,75,0,1
198849,-50,4,1,0,20,0,1
198918,-50,4,1,0,75,0,1
199125,-62.5,4,1,0,75,0,1
200983,-50,4,1,0,75,0,1
201052,-50,4,1,0,20,0,1
201121,-50,4,1,0,75,0,1
201189,-50,4,1,0,20,0,1
201258,-50,4,1,0,75,0,1
201327,-50,4,1,0,20,0,1
201396,-50,4,1,0,75,0,1
201465,-50,4,1,0,20,0,1
201533,-50,4,1,0,75,0,1
201602,-50,4,1,0,20,0,1
201671,-50,4,1,0,75,0,1
201740,-50,4,1,0,20,0,1
201809,-50,4,1,0,75,0,1
201878,-50,4,1,0,20,0,1
201946,-50,4,1,0,75,0,1
202015,-50,4,1,0,20,0,1
202084,-50,4,1,0,75,0,1
202153,-50,4,1,0,20,0,1
202222,-100,4,1,0,75,0,0
202635,-51.5463917525773,4,1,0,75,0,0

[Colours]
Combo1 : 174,0,174
Combo2 : 128,128,255
Combo3 : 206,31,0
Combo4 : 0,118,174

[HitObjects]
136,216,17582,6,0,L|76:252,1,70
356,216,18128,2,0,L|416:180,1,70
168,68,18673,1,0,0:0:0:0:
168,68,18946,1,0,0:0:0:0:
344,224,19218,2,0,P|352:260|348:292,1,70
64,212,19764,5,0,0:0:0:0:
64,212,20037,1,0,0:0:0:0:
232,88,20309,2,0,L|312:84,1,70
312,312,20855,1,0,0:0:0:0:
312,312,21128,1,0,0:0:0:0:
136,216,21400,2,0,P|128:180|136:144,1,70
256,84,21809,1,0,0:0:0:0:
204,180,21946,6,0,L|216:248,1,70
309,39,22491,2,0,L|321:107,1,70
464,320,23037,1,0,0:0:0:0:
464,320,23309,1,0,0:0:0:0:
224,280,23582,2,0,L|152:276,1,70
352,148,24128,5,0,0:0:0:0:
352,148,24400,1,0,0:0:0:0:
68,60,24673,2,0,P|56:96|60:128,1,70
312,248,25218,2,0,L|248:276,1,70
376,68,25764,2,0,P|420:132|380:208,1,167.999994873047
140,104,26582,5,0,0:0:0:0:
296,36,26855,1,0,0:0:0:0:
189,216,27128,2,0,P|137:168|140:104,1,140
288,192,27946,2,0,P|292:228|280:260,1,70
208,48,28491,5,0,0:0:0:0:
208,48,28764,1,0,0:0:0:0:
384,156,29037,2,0,L|456:160,1,70
272,300,29582,1,0,0:0:0:0:
56,192,29855,2,0,L|64:120,1,70
248,92,30400,1,0,0:0:0:0:
248,92,30537,1,0,0:0:0:0:
248,92,30673,6,0,P|280:104|316:104,1,70
488,260,31218,2,0,P|456:248|420:248,1,70
184,344,31764,1,0,0:0:0:0:
184,344,32037,1,0,0:0:0:0:
244,176,32309,2,0,P|252:144|248:108,1,70
12,164,32855,5,0,0:0:0:0:
12,164,33128,1,0,0:0:0:0:
168,280,33400,2,0,L|240:288,1,70
392,168,33946,2,0,P|400:128|392:96,1,70
104,168,34491,2,0,B|156:172|156:172|216:196|216:196|272:188,1,167.999994873047
256,192,43764,12,0,47582,0:0:0:0:
124,160,48128,5,0,0:0:0:0:
120,164,48400,1,0,0:0:0:0:
324,208,48673,1,0,0:0:0:0:
328,216,48946,1,0,0:0:0:0:
256,76,49218,5,0,0:0:0:0:
260,72,49491,1,0,0:0:0:0:
168,264,49764,1,0,0:0:0:0:
164,272,50037,1,0,0:0:0:0:
360,276,50309,5,0,0:0:0:0:
448,240,50446,1,0,0:0:0:0:
368,280,50582,1,0,0:0:0:0:
456,244,50718,1,0,0:0:0:0:
312,144,50855,1,0,0:0:0:0:
360,276,50991,1,0,0:0:0:0:
304,140,51128,1,0,0:0:0:0:
352,272,51264,1,0,0:0:0:0:
156,248,51400,2,0,L|152:220,3,17.5
228,104,51673,2,0,L|232:80,3,17.5
392,160,51946,5,0,0:0:0:0:
392,160,52491,6,0,L|396:256,1,90.9999958343508
256,228,53037,2,0,P|216:208|172:212,1,90.9999958343508
144,316,53582,1,0,0:0:0:0:
52,160,53764,1,0,0:0:0:0:
328,208,53946,1,0,0:0:0:0:
188,192,54128,2,0,B|192:172|188:148|188:148|232:120,1,90.9999958343508
416,204,54673,5,0,0:0:0:0:
384,368,54855,1,0,0:0:0:0:
192,264,55037,1,0,0:0:0:0:
340,96,55218,1,0,0:0:0:0:
340,264,55400,1,0,0:0:0:0:
192,96,55582,1,0,0:0:0:0:
96,288,55764,2,0,L|88:336,1,46.6666666666667
192,264,55946,2,0,L|192:312,1,46.6666666666667
280,212,56128,2,0,L|288:260,1,46.6666666666667
344,128,56309,2,0,B|428:132|428:132|400:120,1,112
116,56,56855,6,0,P|100:104|112:152,1,90.9999958343508
328,120,57400,2,0,B|252:112|252:112|268:120,1,90.9999958343508
416,272,57946,1,0,0:0:0:0:
192,316,58128,1,0,0:0:0:0:
312,332,58309,1,0,0:0:0:0:
116,224,58491,2,0,B|108:192|116:164|116:164|152:152,1,90.9999958343508
384,112,59037,5,0,0:0:0:0:
272,280,59218,1,0,0:0:0:0:
420,224,59400,1,0,0:0:0:0:
160,72,59582,1,0,0:0:0:0:
192,264,59764,1,0,0:0:0:0:
80,160,59946,1,0,0:0:0:0:
368,116,60128,2,0,L|420:128,1,46.6666666666667
192,264,60309,2,0,L|140:276,1,46.6666666666667
172,84,60491,2,0,L|140:48,1,46.6666666666667
272,280,60673,2,0,B|344:356|344:356|328:320,1,140
160,168,61218,6,0,P|100:180|76:200,1,90.9999958343508
344,356,61764,2,0,B|344:320|364:280|364:280|348:292,1,90.9999958343508
208,128,62309,1,0,0:0:0:0:
324,84,62491,1,0,0:0:0:0:
288,248,62673,1,0,0:0:0:0:
84,116,62855,2,0,B|108:112|128:96|128:96|148:100|148:100|172:108,1,90.9999958343508
368,256,63400,5,0,0:0:0:0:
172,312,63582,1,0,0:0:0:0:
368,256,63764,1,0,0:0:0:0:
76,164,63946,1,0,0:0:0:0:
280,284,64128,1,0,0:0:0:0:
76,164,64309,1,0,0:0:0:0:
352,84,64491,2,0,L|304:92,1,46.6666666666667
128,236,64673,2,0,L|174:228,1,46.6666666666667
384,236,64855,2,0,L|337:228,1,46.6666666666667
104,84,65037,2,0,B|216:104|216:104|192:92,1,140
80,236,65582,6,0,P|64:280|76:320,1,90.9999958343508
260,196,66128,2,0,L|356:188,1,90.9999958343508
384,68,66673,1,0,0:0:0:0:
432,272,66855,1,0,0:0:0:0:
248,88,67037,1,0,0:0:0:0:
452,144,67218,2,0,B|424:160|424:160|364:168,1,90.9999958343508
124,316,67764,5,0,0:0:0:0:
232,88,67946,1,0,0:0:0:0:
356,316,68128,1,0,0:0:0:0:
140,188,68309,1,0,0:0:0:0:
332,176,68491,1,0,0:0:0:0:
240,264,68673,1,0,0:0:0:0:
236,132,68855,2,0,L|228:84,1,46.6666666666667
332,88,69037,2,0,L|332:40,1,46.6666666666667
428,56,69218,2,0,L|436:8,1,46.6666666666667
492,128,69400,2,0,B|504:164|488:188|488:188|452:176|412:188,1,140
120,268,69946,6,0,P|148:284|208:280,1,90.9999958343508
208,48,70491,2,0,B|192:128|192:128|200:116,1,90.9999958343508
420,84,71037,1,0,0:0:0:0:
392,292,71218,1,0,0:0:0:0:
300,216,71400,1,0,0:0:0:0:
500,240,71582,2,0,B|504:264|496:288|496:288|480:304|472:324,1,90.9999958343508
140,300,72128,5,0,0:0:0:0:
300,216,72309,1,0,0:0:0:0:
80,244,72491,1,0,0:0:0:0:
184,76,72673,1,0,0:0:0:0:
140,300,72855,1,0,0:0:0:0:
108,108,73037,1,0,0:0:0:0:
328,104,73218,2,0,L|332:56,1,46.6666666666667
224,216,73400,2,0,L|220:264,1,46.6666666666667
340,88,73582,2,0,L|344:40,1,46.6666666666667
208,228,73764,2,0,B|200:336|200:336|188:304,1,140
72,264,74173,1,0,0:0:0:0:
224,216,74309,6,0,P|256:232|312:224,1,90.9999958343508
188,84,74855,2,0,B|152:92|152:92|108:92|108:92|124:96,1,90.9999958343508
212,308,75400,1,0,0:0:0:0:
376,176,75582,1,0,0:0:0:0:
376,308,75764,1,0,0:0:0:0:
212,176,75946,2,0,P|252:156|300:164,1,90.9999958343508
128,304,76491,5,0,0:0:0:0:
168,88,76673,1,0,0:0:0:0:
76,184,76855,1,0,0:0:0:0:
280,160,77037,1,0,0:0:0:0:
168,88,77218,1,0,0:0:0:0:
252,284,77400,1,0,0:0:0:0:
280,160,77582,2,0,P|304:152|328:152,1,46.6666666666667
281,318,77764,2,0,P|262:301|250:280,1,46.6666666666667
420,244,77946,2,0,P|414:268|402:289,1,46.6666666666667
280,160,78128,2,0,B|256:52|256:52|252:84,1,140
192,336,78673,6,0,L|284:348,1,90.9999958343508
280,160,79218,2,0,P|248:188|236:236,1,90.9999958343508
416,176,79764,1,0,0:0:0:0:
260,52,79946,1,0,0:0:0:0:
468,76,80128,1,0,0:0:0:0:
188,144,80309,2,0,B|176:208|176:208|180:236,1,90.9999958343508
368,304,80855,5,0,0:0:0:0:
356,92,81037,1,0,0:0:0:0:
300,244,81218,1,0,0:0:0:0:
168,124,81400,1,0,0:0:0:0:
356,92,81582,1,0,0:0:0:0:
232,184,81764,1,0,0:0:0:0:
80,40,81946,2,0,L|84:88,1,46.6666666666667
176,296,82128,2,0,L|180:248,1,46.6666666666667
264,40,82309,2,0,L|268:88,1,46.6666666666667
340,296,82491,2,0,B|348:188|348:188|356:224,1,140
476,292,82900,1,0,0:0:0:0:
392,128,83037,6,0,P|348:112|300:128,1,90.9999958343508
176,340,83582,2,0,L|168:248,1,90.9999958343508
64,56,84128,1,0,0:0:0:0:
292,184,84309,1,0,0:0:0:0:
144,184,84491,1,0,0:0:0:0:
368,56,84673,2,0,B|444:52|444:52|424:60,1,90.9999958343508
128,320,85218,6,0,L|124:272,1,46.6666666666667
204,136,85400,2,0,L|252:132,1,46.6666666666667
348,244,85582,2,0,L|352:292,1,46.6666666666667
116,168,85764,2,0,L|112:120,1,46.6666666666667
192,4,85946,2,0,L|240:0,1,46.6666666666667
336,112,86128,2,0,L|340:160,1,46.6666666666667
128,320,86309,2,0,L|124:272,1,46.6666666666667
348,100,86491,2,0,L|352:148,1,46.6666666666667
116,332,86673,2,0,L|112:284,1,46.6666666666667
360,88,86855,2,0,B|368:196|368:196|376:164,1,140
440,284,87400,6,0,B|392:288|392:288|348:308|348:308|300:296,1,140
140,144,88128,1,0,0:0:0:0:
380,80,88309,1,0,0:0:0:0:
260,220,88491,2,0,B|252:256|252:256|264:288|264:288|248:284|248:284|216:296|184:284,1,140
212,44,89218,1,0,0:0:0:0:
84,184,89400,1,0,0:0:0:0:
256,164,89582,6,0,B|312:160|312:160|356:140|356:140|348:160|348:180,1,140
396,320,90309,1,0,0:0:0:0:
212,264,90491,1,0,0:0:0:0:
296,16,90673,2,0,B|296:40|304:60|304:60|296:72|292:88|292:88|248:92|248:92|224:88,1,140
404,176,91764,6,0,B|396:208|412:240|412:240|380:280,1,105.000004005432
176,208,92309,2,0,P|124:188|76:200,1,105.000004005432
240,320,92855,2,0,L|236:348,4,26.2500010013581
368,240,93264,1,0,0:0:0:0:
264,120,93400,2,0,L|160:112,1,105.000004005432
136,324,93946,6,0,P|148:304|152:272,1,52.5000020027161
264,120,94218,2,0,P|252:140|248:172,1,52.5000020027161
440,176,94491,2,0,B|396:156|352:164|352:164|368:176,1,105.000004005432
288,344,95037,2,0,B|296:324|296:324|292:296|292:296|296:272,1,70
184,40,95582,2,0,B|176:60|176:60|180:88|180:88|176:112,1,70
84,292,96128,6,0,B|152:312|152:268|224:292,1,140
408,348,96855,1,0,0:0:0:0:
440,144,97037,1,0,0:0:0:0:
256,32,97218,2,0,B|240:76|240:76|256:124|256:124|240:164,1,140
120,268,97946,1,0,0:0:0:0:
344,324,98128,1,0,0:0:0:0:
468,156,98309,6,0,B|428:144|428:144|399:148|372:140|372:140|332:152,1,140
216,320,99037,1,0,0:0:0:0:
100,140,99218,1,0,0:0:0:0:
280,84,99400,2,0,B|308:88|324:72|324:72|320:88|320:88|312:124|332:124|324:168,1,140
180,288,100491,6,0,B|132:280|96:300|96:300|112:276,1,105.000004005432
324,156,101037,2,0,B|364:176|416:164|416:164|396:156,1,105.000004005432
108,92,101582,2,0,L|100:64,4,26.2500010013581
256,112,101991,1,0,0:0:0:0:
140,192,102128,2,0,P|120:244|132:292,1,105.000004005432
384,280,102673,6,0,L|332:272,1,52.5000020027161
256,112,102946,2,0,L|308:120,1,52.5000020027161
184,240,103218,2,0,L|76:224,1,105.000004005432
280,44,103764,2,0,B|272:72|272:72|280:112,1,70
440,320,104309,2,0,B|448:292|448:292|440:252,1,70
240,288,104855,6,0,B|208:296|184:288|184:288|156:292|136:312|136:312|144:300|148:284,1,140
132,124,105582,1,0,0:0:0:0:
216,376,105764,1,0,0:0:0:0:
32,196,105946,2,0,B|80:208|80:208|116:200|116:200|168:212,1,140
352,320,106673,1,0,0:0:0:0:
464,116,106855,1,0,0:0:0:0:
300,48,107037,6,0,B|280:72|292:120|292:120|272:108|272:108|228:128,1,140
80,332,108128,2,0,L|72:296,1,35
152,188,108400,2,0,L|152:152,1,35
276,108,108673,2,0,B|284:76|284:76|312:48,1,70
432,80,109082,1,0,0:0:0:0:
340,160,109218,6,0,L|312:264,1,105.000004005432
496,356,109764,2,0,P|456:320|400:320,1,105.000004005432
144,308,110309,2,0,L|112:312,4,26.2500010013581
48,196,110718,1,0,0:0:0:0:
156,108,110855,2,0,L|260:104,1,105.000004005432
388,372,111400,6,0,L|396:320,1,52.5000020027161
252,180,111673,2,0,L|244:232,1,52.5000020027161
64,160,111946,2,0,P|116:144|164:160,1,105.000004005432
140,328,112491,2,0,B|196:312|196:312|212:316,1,70
444,164,113037,2,0,B|388:180|388:180|372:176,1,70
240,56,113582,6,0,P|184:48|124:104,1,140
136,280,114309,1,0,0:0:0:0:
352,336,114491,1,0,0:0:0:0:
304,124,114673,1,0,0:0:0:0:
228,360,114855,1,0,0:0:0:0:
392,224,115037,1,0,0:0:0:0:
176,160,115218,1,0,0:0:0:0:
352,336,115400,1,0,0:0:0:0:
304,124,115582,1,0,0:0:0:0:
136,280,115764,6,0,B|192:288|248:272|248:272|232:272|220:268,1,140
221,268,116582,1,0,0:0:0:0:
376,104,116855,2,0,B|320:96|264:112|264:112|280:112|292:116,1,140
291,116,117673,1,0,0:0:0:0:
291,116,117809,1,0,0:0:0:0:
291,116,117946,6,0,P|312:148|312:180,1,70
92,192,118491,2,0,L|168:184,1,70
448,332,119037,2,0,L|456:292,1,35
332,252,119309,2,0,L|332:212,1,35
212,192,119582,2,0,L|204:156,1,35
64,144,119855,2,0,L|48:112,1,35
8,296,120128,6,0,L|84:312,1,70
288,316,120673,2,0,L|356:301,1,70
360,84,121218,6,0,L|320:88,1,35
136,168,121491,2,0,L|176:172,1,35
376,56,121764,2,0,B|264:68|264:68|288:52,1,140
256,192,122855,1,0,0:0:0:0:
84,188,125582,5,0,0:0:0:0:
288,108,125855,1,0,0:0:0:0:
192,244,126128,1,0,0:0:0:0:
300,288,129946,5,0,0:0:0:0:
208,72,130218,1,0,0:0:0:0:
172,256,130491,1,0,0:0:0:0:
112,236,134309,5,0,0:0:0:0:
404,248,134582,1,0,0:0:0:0:
216,152,134855,1,0,0:0:0:0:
400,176,138673,5,0,0:0:0:0:
180,104,138946,1,0,0:0:0:0:
368,60,139218,1,0,0:0:0:0:
192,268,139764,5,0,0:0:0:0:
256,192,148491,12,0,156394,0:0:0:0:
400,260,156798,5,0,0:0:0:0:
296,300,156936,1,0,0:0:0:0:
200,240,157074,1,0,0:0:0:0:
92,268,157211,2,0,B|72:164|72:164|92:132,1,140
192,88,157762,1,0,0:0:0:0:
296,132,157900,1,0,0:0:0:0:
400,88,158037,6,0,B|418:187|418:187|409:225,1,140
320,296,158588,1,0,0:0:0:0:
256,204,158725,1,0,0:0:0:0:
276,96,158863,2,0,B|156:84|156:84|172:96,1,140
96,180,159414,1,0,0:0:0:0:
124,288,159551,1,0,0:0:0:0:
236,268,159689,6,0,B|352:264|352:264|328:256,1,140
264,164,160240,1,0,0:0:0:0:
192,56,160377,1,0,0:0:0:0:
164,180,160515,1,0,0:0:0:0:
292,72,160653,1,0,0:0:0:0:
104,104,160790,1,0,0:0:0:0:
226,243,160928,1,0,0:0:0:0:
384,128,161065,1,0,0:0:0:0:
40,188,161203,1,0,0:0:0:0:
264,336,161341,5,0,0:0:0:0:
312,332,161444,1,0,0:0:0:0:
352,308,161547,1,0,0:0:0:0:
336,264,161650,1,0,0:0:0:0:
336,216,161754,1,0,0:0:0:0:
360,176,161857,1,0,0:0:0:0:
328,140,161960,1,0,0:0:0:0:
284,124,162063,1,0,0:0:0:0:
240,132,162167,2,0,L|216:140,8,17.5
84,192,162993,6,0,P|152:228|212:220,1,140
392,100,163818,1,0,0:0:0:0:
168,120,163956,1,0,0:0:0:0:
332,192,164094,1,0,0:0:0:0:
120,332,164231,1,0,0:0:0:0:
168,120,164369,1,0,0:0:0:0:
236,200,164507,1,0,0:0:0:0:
268,24,164644,6,0,B|280:72|280:72|276:96|276:96,1,70
224,225,165057,2,0,L|218:191,1,35
128,56,165264,2,0,L|134:90,1,35
88,208,165470,2,0,P|80:256|88:280,1,70
292,228,165883,2,0,P|244:220|220:228,1,70
368,304,166296,6,0,P|404:240|388:176,1,140
112,92,167122,1,0,0:0:0:0:
280,144,167328,1,0,0:0:0:0:
112,216,167535,1,0,0:0:0:0:
280,268,167741,1,0,0:0:0:0:
112,336,167948,6,0,P|84:316|72:280,1,70
280,268,168361,2,0,L|352:264,1,70
388,68,168774,1,0,0:0:0:0:
128,168,168980,1,0,0:0:0:0:
320,172,169187,2,0,L|252:160,1,70
136,256,169600,6,0,B|120:284|136:328|136:328|168:316|168:316|208:320,1,140
388,256,170425,5,0,0:0:0:0:
336,68,170563,1,0,0:0:0:0:
280,208,170701,1,0,0:0:0:0:
164,116,170838,1,0,0:0:0:0:
112,228,170976,1,0,0:0:0:0:
280,208,171114,1,0,0:0:0:0:
232,32,171251,6,0,L|160:24,1,70
112,228,171664,2,0,B|120:264|104:264|112:300,1,70
400,192,172077,1,0,0:0:0:0:
416,180,172490,1,0,0:0:0:0:
432,164,172903,6,0,L|360:164,1,70
388,340,173316,2,0,P|408:312|412:276,1,70
264,112,173729,1,0,0:0:0:0:
112,236,173935,1,0,0:0:0:0:
260,304,174142,1,0,0:0:0:0:
272,96,174348,1,0,0:0:0:0:
112,236,174555,5,0,0:0:0:0:
260,304,174761,1,0,0:0:0:0:
152,108,174968,1,0,0:0:0:0:
332,224,175174,1,0,0:0:0:0:
292,80,175381,1,0,0:0:0:0:
212,200,175587,1,0,0:0:0:0:
332,224,175794,1,0,0:0:0:0:
284,152,176000,1,0,0:0:0:0:
152,108,176207,6,0,B|96:108|44:96|44:96|60:100|72:108,1,140
116,292,177032,1,0,0:0:0:0:
272,324,177170,1,0,0:0:0:0:
116,184,177308,1,0,0:0:0:0:
336,132,177445,1,0,0:0:0:0:
180,100,177583,1,0,0:0:0:0:
344,240,177721,1,0,0:0:0:0:
400,84,177858,6,0,P|372:60|340:52,1,70
60,180,178271,2,0,L|64:216,1,35
180,100,178478,2,0,L|184:136,1,35
300,24,178684,2,0,L|308:96,1,70
500,204,179097,2,0,P|468:188|432:188,1,70
216,300,179510,6,0,B|160:292|100:312|100:312|108:308|120:300,1,140
112,132,180129,1,0,0:0:0:0:
396,212,180336,1,0,0:0:0:0:
284,88,180542,1,0,0:0:0:0:
444,48,180749,1,0,0:0:0:0:
396,212,180955,1,0,0:0:0:0:
208,240,181162,5,0,0:0:0:0:
284,88,181368,1,0,0:0:0:0:
396,212,181575,1,0,0:0:0:0:
328,368,181781,1,0,0:0:0:0:
208,240,181988,2,0,L|136:248,1,70
156,36,182401,2,0,P|172:68|172:104,1,70
48,332,182814,6,0,B|116:308|116:352|184:332,1,140
408,232,183639,1,0,0:0:0:0:
152,168,183777,1,0,0:0:0:0:
356,104,183915,1,0,0:0:0:0:
296,328,184052,1,0,0:0:0:0:
236,68,184190,1,0,0:0:0:0:
408,232,184328,1,0,0:0:0:0:
168,304,184465,6,0,L|96:292,1,70
236,68,184878,2,0,L|292:64,1,35
372,160,185085,2,0,L|428:156,1,35
284,292,185291,2,0,L|372:284,1,70
168,200,185704,2,0,P|144:228|136:260,1,70
372,160,186117,6,0,B|336:52|336:52|332:80,1,140
152,120,186736,1,0,0:0:0:0:
320,316,186943,2,0,L|392:304,1,70
221,108,187356,2,0,L|149:120,1,70
104,316,187769,5,0,0:0:0:0:
244,208,187975,1,0,0:0:0:0:
208,328,188182,1,0,0:0:0:0:
164,188,188388,1,0,0:0:0:0:
336,212,188595,1,0,0:0:0:0:
380,336,188801,1,0,0:0:0:0:
244,208,189008,1,0,0:0:0:0:
244,208,189111,1,0,0:0:0:0:
244,208,189214,1,0,0:0:0:0:
244,208,189317,1,0,0:0:0:0:
244,208,189421,6,0,P|240:144|268:104,1,112
416,296,189834,2,0,L|304:304,1,112
84,264,190246,1,0,0:0:0:0:
232,64,190384,1,0,0:0:0:0:
216,260,190522,1,0,0:0:0:0:
48,140,190659,2,0,B|100:124|100:124|160:132,1,112
372,288,191072,5,0,0:0:0:0:
296,60,191210,1,0,0:0:0:0:
428,184,191348,1,0,0:0:0:0:
168,184,191485,1,0,0:0:0:0:
296,60,191623,1,0,0:0:0:0:
228,288,191761,1,0,0:0:0:0:
428,184,191898,2,0,L|436:232,1,46.6666666666667
304,144,192036,2,0,L|304:192,1,46.6666666666667
188,76,192174,2,0,L|180:128,1,46.6666666666667
28,248,192311,2,0,B|148:264|148:264|120:268,1,140
368,196,192724,6,0,P|388:132|372:92,1,112
104,68,193137,2,0,B|76:152|76:152|92:132,1,112
360,248,193550,1,0,0:0:0:0:
208,96,193688,1,0,0:0:0:0:
172,332,193825,1,0,0:0:0:0:
280,176,193963,2,0,B|224:196|224:196|168:192,1,112
400,76,194376,5,0,0:0:0:0:
376,332,194514,1,0,0:0:0:0:
280,176,194651,1,0,0:0:0:0:
428,252,194789,1,0,0:0:0:0:
176,264,194926,1,0,0:0:0:0:
280,176,195064,1,0,0:0:0:0:
72,88,195202,2,0,L|120:96,1,46.6666666666667
280,176,195339,2,0,L|232:168,1,46.6666666666667
28,228,195477,2,0,L|76:220,1,46.6666666666667
364,56,195615,2,0,B|248:80|248:80|272:64,1,140
412,204,196028,6,0,P|428:252|408:308,1,112
136,256,196441,2,0,P|184:224|240:232,1,112
32,144,196853,5,0,0:0:0:0:
204,312,196991,1,0,0:0:0:0:
356,144,197129,1,0,0:0:0:0:
192,96,197266,2,0,B|184:188|184:188|196:168,1,112
304,344,197679,5,0,0:0:0:0:
56,304,197817,1,0,0:0:0:0:
248,240,197955,1,0,0:0:0:0:
104,68,198092,1,0,0:0:0:0:
112,232,198230,1,0,0:0:0:0:
208,28,198368,1,0,0:0:0:0:
416,132,198505,2,0,P|428:152|432:176,1,46.6666666666667
248,136,198643,2,0,P|259:115|278:100,1,46.6666666666667
332,272,198781,2,0,P|308:272|285:263,1,46.6666666666667
416,132,198918,2,0,B|448:244|448:244|448:216,1,140
280,52,199331,6,0,L|168:64,1,112
180,272,199744,2,0,P|208:224|196:172,1,112
48,312,200157,1,0,0:0:0:0:
304,316,200295,1,0,0:0:0:0:
180,272,200432,1,0,0:0:0:0:
384,176,200570,2,0,B|288:168|288:168|304:164,1,112
88,80,200983,6,0,L|136:84,1,46.6666666666667
360,272,201121,2,0,L|312:276,1,46.6666666666667
80,252,201258,2,0,L|128:256,1,46.6666666666667
388,92,201396,2,0,L|341:88,1,46.6666666666667
20,320,201533,2,0,L|68:324,1,46.6666666666667
428,180,201671,2,0,L|380:184,1,46.6666666666667
136,72,201809,2,0,L|128:124,1,46.6666666666667
312,248,201946,2,0,L|268:264,1,46.6666666666667
324,36,202084,2,0,L|360:65,1,46.6666666666667
254,171,202635,5,0,0:0:0:0:
352,320,203048,6,0,B|372:284|364:248|328:228|292:232|264:252|244:300|196:272|164:248|140:212|128:168|140:116|168:76|208:64|252:64|292:68|320:88|340:124|340:140,1,542.5
