osu file format v14

[General]
AudioFilename: audio.mp3
AudioLeadIn: 0
PreviewTime: 187769
Countdown: 0
SampleSet: None
StackLeniency: 0.7
Mode: 0
LetterboxInBreaks: 0
WidescreenStoryboard: 1

[Editor]
Bookmarks: 17594,26321,35049,43776,52503,104867,122321,162993,176207
DistanceSpacing: 1.8
BeatDivisor: 4
GridSize: 4
TimelineZoom: 1.95

[Metadata]
Title:High
TitleUnicode:High
Artist:Panda Eyes
ArtistUnicode:Panda Eyes
Creator:Hullahopp
Version:Insane (Live)
Source:
Tags:
BeatmapID:1295097
BeatmapSetID:579180

[Difficulty]
HPDrainRate:6.1
CircleSize:3.9
OverallDifficulty:6.1
ApproachRate:8.2
SliderMultiplier:1.18
SliderTickRate:1

[Events]
//Background and Video events
0,0,"bg.jpg",0,0
//Break Periods
2,35236,43044
//Storyboard Layer 0 (Background)
//Storyboard Layer 1 (Fail)
//Storyboard Layer 2 (Pass)
//Storyboard Layer 3 (Foreground)
//Storyboard Sound Samples

[TimingPoints]
128,545.454545454546,4,1,0,75,1,0
52491,-76.9230769230769,4,1,0,75,0,1
68855,-76.9230769230769,4,1,0,75,0,0
69946,-76.9230769230769,4,1,0,75,0,1
87400,-100,4,1,0,75,0,0
156386,412.938747419133,4,1,0,75,1,0
162993,-86.9565217391304,4,1,0,75,0,0
189421,-76.9230769230769,4,1,0,75,0,1
202222,-100,4,1,0,75,0,0

[Colours]
Combo1 : 174,0,174
Combo2 : 128,128,255
Combo3 : 206,31,0
Combo4 : 0,118,174

[HitObjects]
384,328,17582,6,0,P|396:296|396:272,1,59
260,252,18128,2,0,P|281:272|308:283,1,59
408,136,18673,1,0,0:0:0:0:
324,200,18946,1,0,0:0:0:0:
236,92,19218,2,0,L|172:96,1,59
220,268,19764,5,0,0:0:0:0:
152,188,20037,1,0,0:0:0:0:
40,268,20309,2,0,L|44:328,1,59
208,280,20855,1,0,0:0:0:0:
312,252,21128,1,0,0:0:0:0:
208,128,21400,2,0,L|204:192,1,59
84,180,21809,1,0,0:0:0:0:
204,120,21946,6,0,L|268:116,1,59
412,44,22491,2,0,L|353:47,1,59
432,220,23037,1,0,0:0:0:0:
452,116,23309,1,0,0:0:0:0:
316,192,23582,2,0,L|316:260,1,59
440,344,24128,5,0,0:0:0:0:
336,324,24400,1,0,0:0:0:0:
224,380,24673,2,0,L|160:376,1,59
256,232,25218,2,0,P|268:200|264:168,1,59
100,136,25764,2,0,P|136:184|192:192,1,118
160,48,26582,5,0,0:0:0:0:
96,132,26855,2,0,B|92:172|92:172|72:208|72:208|68:244,1,118
236,340,27673,1,0,0:0:0:0:
312,264,27946,2,0,P|256:232|203:238,1,118
304,376,28764,5,0,0:0:0:0:
380,300,29037,2,0,B|393:272|384:240|384:240|390:213|390:213|384:180,1,118
308,112,29855,1,0,0:0:0:0:
144,200,30128,1,0,0:0:0:0:
204,56,30400,1,0,0:0:0:0:
204,56,30537,1,0,0:0:0:0:
204,56,30673,6,0,L|212:116,1,59
148,308,31218,1,0,0:0:0:0:
144,200,31491,1,0,0:0:0:0:
288,272,31764,2,0,L|352:268,1,59
472,368,32309,1,0,0:0:0:0:
432,268,32582,1,0,0:0:0:0:
512,156,32855,6,0,L|508:96,1,59
308,52,33400,1,0,0:0:0:0:
204,24,33673,1,0,0:0:0:0:
272,140,33946,2,0,P|280:168|280:200,1,59
168,284,34491,2,0,P|160:224|196:184,1,118
256,192,43764,12,0,47582,0:0:0:0:
332,268,48128,5,0,0:0:0:0:
336,240,48400,1,0,0:0:0:0:
340,212,48673,1,0,0:0:0:0:
344,184,48946,1,0,0:0:0:0:
180,116,49218,1,0,0:0:0:0:
176,144,49490,1,0,0:0:0:0:
172,172,49763,1,0,0:0:0:0:
168,200,50036,1,0,0:0:0:0:
300,144,50309,5,0,0:0:0:0:
284,120,50446,1,0,0:0:0:0:
256,112,50582,1,0,0:0:0:0:
228,120,50718,1,0,0:0:0:0:
212,240,50855,1,0,0:0:0:0:
228,264,50992,1,0,0:0:0:0:
256,272,51128,1,0,0:0:0:0:
284,264,51264,1,0,0:0:0:0:
360,192,51400,6,0,L|364:164,8,14.75
