osu file format v14

[General]
AudioFilename: audio.mp3
AudioLeadIn: 0
PreviewTime: 187769
Countdown: 0
SampleSet: Normal
StackLeniency: 0.7
Mode: 0
LetterboxInBreaks: 0
WidescreenStoryboard: 1

[Editor]
Bookmarks: 17594,26321,35049,43776,52503,104867,122321,162993,176207
DistanceSpacing: 1.8
BeatDivisor: 6
GridSize: 4
TimelineZoom: 1.95

[Metadata]
Title:High
TitleUnicode:High
Artist:Panda Eyes
ArtistUnicode:Panda Eyes
Creator:Hullahopp
Version:Hard (Crush)
Source:
Tags:
BeatmapID:1226421
BeatmapSetID:579180

[Difficulty]
HPDrainRate:5.7
CircleSize:3.6
OverallDifficulty:4.8
ApproachRate:7.3
SliderMultiplier:1.05
SliderTickRate:1

[Events]
//Background and Video events
0,0,"bg.jpg",0,0
//Break Periods
2,35236,42910
2,123055,124728
2,126327,129092
2,130691,133455
2,135054,137819
2,139964,147637
//Storyboard Layer 0 (Background)
//Storyboard Layer 1 (Fail)
//Storyboard Layer 2 (Pass)
//Storyboard Layer 3 (Foreground)
//Storyboard Sound Samples

[TimingPoints]
128,545.454545454546,4,1,0,75,1,0
25218,-90.9090909090909,4,1,0,75,0,0
25764,-83.3333333333333,4,1,0,75,0,0
26309,-100,4,1,0,75,0,0
48128,-100,4,1,0,75,0,0
52491,-76.9230769230769,4,1,0,75,0,1
68855,-76.9230769230769,4,1,0,75,0,0
69946,-76.9230769230769,4,1,0,75,0,1
87400,-100,4,1,0,75,0,0
156386,412.938747419133,4,1,0,75,1,0
162993,-86.9565217391304,4,1,0,75,0,0
189421,-76.9230769230769,4,1,0,75,0,1
202222,-100,4,1,0,75,0,0

[Colours]
Combo1 : 174,0,174
Combo2 : 128,128,255
Combo3 : 206,31,0
Combo4 : 0,118,174

[HitObjects]
136,228,17582,6,0,P|176:260|236:256,1,105
204,180,18400,1,0,0:0:0:0:
276,136,18673,2,0,L|332:132,2,52.5
208,88,19491,1,0,0:0:0:0:
132,124,19764,6,0,L|136:176,1,52.5
80,240,20309,2,0,L|84:292,1,52.5
156,340,20855,2,0,L|208:336,1,52.5
280,292,21400,1,0,0:0:0:0:
344,240,21673,2,0,L|372:244,2,26.25
276,192,22218,5,0,0:0:0:0:
324,124,22491,2,0,P|328:96|320:64,1,52.5
248,36,23037,2,0,L|196:40,1,52.5
140,100,23582,2,0,L|88:104,1,52.5
52,180,24128,6,0,B|48:212|48:212|48:240,1,52.5
96,300,24673,1,0,0:0:0:0:
172,264,24946,1,0,0:0:0:0:
240,312,25218,2,0,P|264:324|300:324,1,57.7500017623902
380,268,25764,2,0,B|364:208|400:208|384:144,1,125.999996154785
308,108,26582,5,0,0:0:0:0:
240,60,26855,2,0,L|184:64,1,52.5
132,128,27400,2,0,L|128:180,1,52.5
160,260,27946,2,0,P|200:292|256:288,1,105
316,236,28764,5,0,0:0:0:0:
340,156,29037,2,0,B|348:104|348:104|328:52,1,105
244,56,29855,2,0,L|184:60,1,52.5
164,140,30400,2,0,L|172:176,2,26.25
84,112,30946,5,0,0:0:0:0:
32,180,31218,2,0,P|24:212|24:236,1,52.5
72,300,31764,1,0,0:0:0:0:
156,320,32037,1,0,0:0:0:0:
220,264,32309,2,0,L|276:264,1,52.5
352,296,32855,6,0,P|360:268|356:240,1,52.5
316,172,33400,2,0,P|308:144|312:116,1,52.5
336,40,33946,2,0,L|276:36,1,52.5
236,104,34491,2,0,B|148:96|148:96|164:112,1,105
256,192,43764,12,0,47037,0:0:0:0:
96,292,48128,6,0,L|88:240,1,52.5
168,220,48673,2,0,L|168:168,1,52.5
248,148,49218,2,0,L|256:96,1,52.5
336,76,49764,2,0,L|352:24,1,52.5
424,68,50309,5,0,0:0:0:0:
448,104,50446,1,0,0:0:0:0:
456,144,50582,1,0,0:0:0:0:
452,184,50718,1,0,0:0:0:0:
428,220,50855,2,0,L|388:232,3,26.25
364,216,51400,2,0,L|256:208,1,105
464,288,52491,6,0,B|392:272|392:304|328:288,1,136.499993751526
84,280,53582,2,0,P|72:256|68:236,2,45.4999979171754
164,296,54128,1,0,0:0:0:0:
232,60,54673,5,0,0:0:0:0:
292,116,54855,1,0,0:0:0:0:
372,92,55037,1,0,0:0:0:0:
448,116,55218,2,0,L|456:168,2,45.4999979171754
372,80,55764,2,0,L|380:28,2,45.4999979171754
296,112,56309,2,0,P|284:148|288:192,1,68.2499968757631
360,276,56855,6,0,L|292:284,1,68.2499968757631
180,336,57400,2,0,P|168:304|172:268,1,68.2499968757631
172,148,57946,2,0,L|168:96,2,45.4999979171754
252,172,58491,2,0,L|320:164,1,68.2499968757631
400,256,59037,5,0,0:0:0:0:
336,308,59218,1,0,0:0:0:0:
260,276,59400,1,0,0:0:0:0:
192,324,59582,2,0,L|144:332,2,45.4999979171754
256,272,60128,2,0,P|264:248|264:212,1,45.4999979171754
216,164,60491,1,0,0:0:0:0:
268,100,60673,2,0,L|336:96,1,68.2499968757631
428,176,61218,6,0,P|420:216|340:256,1,136.499993751526
140,112,62309,2,0,P|136:88|136:64,2,45.4999979171754
212,148,62855,1,0,0:0:0:0:
428,268,63400,5,0,0:0:0:0:
368,324,63582,1,0,0:0:0:0:
292,296,63764,1,0,0:0:0:0:
220,332,63946,2,0,L|216:384,2,45.4999979171754
292,292,64491,2,0,L|296:240,2,45.4999979171754
216,328,65037,2,0,L|144:324,1,68.2499968757631
92,212,65582,6,0,L|88:144,1,68.2499968757631
184,68,66128,2,0,P|216:80|256:76,1,68.2499968757631
352,144,66673,2,0,L|404:144,2,45.4999979171754
280,184,67218,1,0,0:0:0:0:
76,324,67764,5,0,0:0:0:0:
40,248,67946,1,0,0:0:0:0:
72,172,68128,1,0,0:0:0:0:
56,92,68309,2,0,L|8:84,2,45.4999979171754
72,172,68855,2,0,L|128:180,1,45.4999979171754
188,220,69218,1,0,0:0:0:0:
256,172,69400,2,0,P|288:168|320:148,1,68.2499968757631
436,112,69946,6,0,B|441:225|441:225|448:200,1,136.499993751526
208,256,71037,2,0,L|156:264,2,45.4999979171754
248,184,71582,1,0,0:0:0:0:
36,60,72128,5,0,0:0:0:0:
112,92,72309,1,0,0:0:0:0:
188,64,72491,1,0,0:0:0:0:
260,100,72673,2,0,L|264:152,2,45.4999979171754
188,60,73218,2,0,L|192:8,2,45.4999979171754
264,96,73764,2,0,L|332:100,1,68.2499968757631
420,188,74309,6,0,P|408:224|412:260,1,68.2499968757631
300,308,74855,2,0,L|232:312,1,68.2499968757631
120,264,75400,2,0,P|104:236|100:220,2,45.4999979171754
184,212,75946,1,0,0:0:0:0:
384,68,76491,5,0,0:0:0:0:
352,144,76673,1,0,0:0:0:0:
388,220,76855,1,0,0:0:0:0:
468,244,77037,2,0,L|508:220,2,45.4999979171754
388,220,77582,2,0,L|348:243,1,45.4999979171754
268,248,77946,1,0,0:0:0:0:
204,300,78128,2,0,P|188:268|188:236,1,68.2499968757631
252,132,78673,6,0,P|184:152|120:136,1,136.499993751526
352,56,79764,2,0,L|356:8,2,45.4999979171754
408,116,80309,1,0,0:0:0:0:
292,332,80855,5,0,0:0:0:0:
212,340,81037,1,0,0:0:0:0:
144,292,81218,1,0,0:0:0:0:
64,316,81400,2,0,L|20:328,2,45.4999979171754
144,292,81946,2,0,L|188:280,2,45.4999979171754
88,232,82491,2,0,P|80:196|88:160,1,68.2499968757631
176,84,83037,6,0,L|248:88,1,68.2499968757631
356,136,83582,2,0,P|368:168|364:204,1,68.2499968757631
280,292,84128,2,0,L|280:344,2,45.4999979171754
204,256,84673,1,0,0:0:0:0:
68,52,85218,5,0,0:0:0:0:
144,84,85400,1,0,0:0:0:0:
224,68,85582,1,0,0:0:0:0:
204,148,85764,1,0,0:0:0:0:
240,220,85946,1,0,0:0:0:0:
320,228,86128,1,0,0:0:0:0:
272,292,86309,2,0,L|268:340,2,45.4999979171754
324,228,86855,2,0,B|336:112|336:112|348:132,1,136.499993751526
400,312,87946,6,0,L|464:320,2,35
320,336,88491,2,0,L|216:324,1,105
168,256,89218,1,0,0:0:0:0:
172,172,89400,1,0,0:0:0:0:
244,128,89582,5,0,0:0:0:0:
492,92,90128,2,0,L|488:40,2,35
432,152,90673,2,0,L|440:256,1,105
188,268,91764,6,0,L|124:268,1,52.5
164,144,92309,2,0,P|172:120|172:92,1,52.5
292,48,92855,2,0,L|344:52,1,52.5
408,40,93264,1,0,0:0:0:0:
416,104,93400,2,0,L|412:156,1,52.5
364,272,93946,6,0,L|328:280,1,26.25
280,252,94218,2,0,L|248:268,1,26.25
204,228,94491,2,0,L|112:280,1,105
176,36,95582,2,0,L|276:68,1,105
412,280,96673,6,0,L|416:320,2,35
336,240,97218,2,0,L|232:248,1,105
152,224,97946,1,0,0:0:0:0:
120,144,98128,1,0,0:0:0:0:
68,212,98309,5,0,0:0:0:0:
284,84,98855,2,0,L|320:76,2,35
248,160,99400,2,0,B|240:204|240:204|300:248,1,105
456,48,100491,6,0,L|352:64,1,105
104,112,101582,2,0,P|92:144|96:176,1,52.5
140,204,101991,1,0,0:0:0:0:
192,240,102128,2,0,P|204:272|200:304,1,52.5
320,240,102673,6,0,L|340:224,1,26.25
348,160,102946,2,0,L|364:128,1,26.25
340,76,103218,2,0,P|312:44|248:40,1,105
72,212,104309,2,0,L|100:320,1,105
352,324,105400,5,0,0:0:0:0:
420,272,105582,1,0,0:0:0:0:
412,188,105764,1,0,0:0:0:0:
340,148,105946,2,0,B|256:144|256:144|276:136,1,105
324,68,106673,1,0,0:0:0:0:
240,52,106855,1,0,0:0:0:0:
176,108,107037,6,0,L|160:168,1,52.5
44,204,107582,2,0,B|24:276|24:276|36:308,1,105
160,320,108400,1,0,0:0:0:0:
284,312,108673,1,0,0:0:0:0:
408,300,108946,2,0,L|448:296,1,35
480,316,109218,6,0,P|468:292|464:212,1,105
512,40,110309,2,0,L|452:64,1,52.5
400,52,110718,1,0,0:0:0:0:
336,48,110855,2,0,L|276:72,1,52.5
164,92,111400,6,0,L|136:116,1,35
140,156,111673,2,0,L|124:188,1,35
144,224,111946,2,0,P|160:268|212:288,1,105
392,116,113037,2,0,L|360:16,1,105
120,96,114128,5,0,0:0:0:0:
80,168,114309,1,0,0:0:0:0:
124,240,114491,1,0,0:0:0:0:
208,252,114673,2,0,L|212:296,2,35
252,180,115218,1,0,0:0:0:0:
328,144,115400,1,0,0:0:0:0:
408,164,115582,1,0,0:0:0:0:
380,244,115764,6,0,B|368:332|368:332|352:316,1,105
264,236,116582,1,0,0:0:0:0:
152,296,116855,2,0,L|48:292,1,105
124,192,117673,2,0,L|132:152,1,26.25
96,112,117946,6,0,P|140:128|196:108,2,105
184,20,119309,1,0,0:0:0:0:
308,40,119582,1,0,0:0:0:0:
352,156,119855,1,0,0:0:0:0:
424,52,120128,6,0,B|512:48|512:48|496:68,1,105
432,304,121218,1,0,0:0:0:0:
308,324,121491,1,0,0:0:0:0:
216,236,121764,2,0,L|208:132,1,105
207,131,122855,5,0,0:0:0:0:
128,172,125582,6,0,L|124:120,2,52.5
396,304,129946,5,0,0:0:0:0:
272,304,130218,1,0,0:0:0:0:
352,204,130491,1,0,0:0:0:0:
128,212,134309,6,0,L|124:264,2,52.5
396,80,138673,5,0,0:0:0:0:
272,80,138945,1,0,0:0:0:0:
352,180,139218,1,0,0:0:0:0:
352,180,139764,5,0,0:0:0:0:
256,192,148491,12,0,156386,0:0:0:0:
356,288,156798,5,0,0:0:0:0:
368,248,156936,1,0,0:0:0:0:
368,204,157074,1,0,0:0:0:0:
360,164,157211,1,0,0:0:0:0:
240,120,157624,1,0,0:0:0:0:
200,108,157762,1,0,0:0:0:0:
160,96,157900,1,0,0:0:0:0:
120,80,158037,6,0,L|104:184,1,105
96,224,158588,1,0,0:0:0:0:
132,208,158725,1,0,0:0:0:0:
172,212,158863,1,0,0:0:0:0:
268,292,159276,1,0,0:0:0:0:
304,312,159414,1,0,0:0:0:0:
344,312,159551,1,0,0:0:0:0:
380,292,159689,6,0,L|368:188,1,105
256,192,160240,12,0,162580,0:0:0:0:
388,112,162993,6,0,B|356:132|356:132|312:132|312:132|276:152,1,120.750002303124
164,240,163818,1,0,0:0:0:0:
140,284,163956,1,0,0:0:0:0:
140,332,164094,1,0,0:0:0:0:
172,368,164231,1,0,0:0:0:0:
220,376,164369,1,0,0:0:0:0:
264,360,164507,1,0,0:0:0:0:
292,320,164644,6,0,B|324:232|324:232|336:256,1,120.750002303124
380,316,165264,1,0,0:0:0:0:
420,256,165470,2,0,L|368:148,1,120.750002303124
232,92,166296,6,0,B|192:80|192:80|164:88|164:88|172:68|168:36,2,120.750002303124
288,140,167328,1,0,0:0:0:0:
316,208,167535,1,0,0:0:0:0:
284,272,167741,1,0,0:0:0:0:
216,300,167948,6,0,B|176:312|176:312|148:304|148:304|156:324|152:356,2,120.750002303124
284,272,168980,1,0,0:0:0:0:
316,208,169187,2,0,L|376:192,1,60.3750011515618
440,160,169600,6,0,P|476:116|468:56,1,120.750002303124
324,40,170425,1,0,0:0:0:0:
276,40,170563,1,0,0:0:0:0:
228,40,170701,1,0,0:0:0:0:
260,76,170838,1,0,0:0:0:0:
268,124,170976,1,0,0:0:0:0:
248,168,171114,1,0,0:0:0:0:
204,192,171251,6,0,P|148:200|96:164,2,120.750002303124
204,192,172490,1,0,0:0:0:0:
204,192,172903,6,0,B|176:284|176:284|204:268,2,120.750002303124
256,140,173935,1,0,0:0:0:0:
328,132,174142,1,0,0:0:0:0:
380,180,174348,1,0,0:0:0:0:
380,252,174555,6,0,L|376:320,3,60.3750011515618
304,308,175381,2,0,L|300:376,3,60.3750011515618
228,360,176207,6,0,L|236:240,1,120.750002303124
140,132,177032,1,0,0:0:0:0:
92,144,177170,1,0,0:0:0:0:
68,188,177308,1,0,0:0:0:0:
72,236,177445,1,0,0:0:0:0:
108,268,177583,1,0,0:0:0:0:
156,268,177721,1,0,0:0:0:0:
192,236,177858,6,0,B|216:140|216:140|224:160,1,120.750002303124
280,208,178478,1,0,0:0:0:0:
308,276,178684,2,0,P|349:232|344:173,1,120.750002303124
236,80,179510,6,0,B|128:72|128:72|140:88,1,120.750002303124
160,152,180129,1,0,0:0:0:0:
188,220,180336,2,0,L|192:280,3,60.3750011515618
200,352,181162,5,0,0:0:0:0:
272,336,181368,1,0,0:0:0:0:
344,320,181575,1,0,0:0:0:0:
416,304,181781,1,0,0:0:0:0:
367,249,181988,2,0,B|359:229|359:229|355:185,2,60.3750011515618
456,132,182814,6,0,P|444:72|396:40,1,120.750002303124
260,84,183639,1,0,0:0:0:0:
216,104,183777,1,0,0:0:0:0:
168,92,183915,1,0,0:0:0:0:
128,64,184052,1,0,0:0:0:0:
80,52,184190,1,0,0:0:0:0:
36,72,184328,1,0,0:0:0:0:
16,116,184465,6,0,B|28:156|28:156|16:192|16:192|24:236,1,120.750002303124
44,304,185085,1,0,0:0:0:0:
104,344,185291,1,0,0:0:0:0:
168,308,185498,1,0,0:0:0:0:
228,348,185704,1,0,0:0:0:0:
364,300,186117,6,0,B|392:244|364:240|392:184,1,120.750002303124
448,136,186736,1,0,0:0:0:0:
384,104,186943,2,0,L|320:96,3,60.3750011515618
256,124,187769,5,0,0:0:0:0:
196,164,187975,1,0,0:0:0:0:
124,152,188182,1,0,0:0:0:0:
72,104,188388,1,0,0:0:0:0:
72,140,188595,1,0,0:0:0:0:
72,176,188801,1,0,0:0:0:0:
72,212,189008,1,0,0:0:0:0:
72,248,189214,1,0,0:0:0:0:
72,284,189421,6,0,B|140:308|140:260|208:284,1,136.499993751526
340,280,190246,2,0,P|346:304|344:332,2,45.4999979171754
268,240,190659,1,0,0:0:0:0:
52,120,191072,5,0,0:0:0:0:
132,96,191210,1,0,0:0:0:0:
212,112,191348,1,0,0:0:0:0:
276,64,191485,2,0,L|264:20,2,45.4999979171754
216,120,191898,2,0,L|228:164,2,45.4999979171754
148,72,192311,2,0,P|136:32|140:4,1,68.2499968757631
264,20,192724,6,0,L|348:28,1,68.2499968757631
444,72,193137,2,0,P|464:116|464:136,1,68.2499968757631
408,244,193550,2,0,L|404:300,2,45.4999979171754
348,188,193963,2,0,L|280:192,1,68.2499968757631
192,276,194376,5,0,0:0:0:0:
112,300,194514,1,0,0:0:0:0:
84,376,194651,1,0,0:0:0:0:
164,360,194789,2,0,L|216:360,2,45.4999979171754
116,296,195202,2,0,P|104:280|96:252,1,45.4999979171754
120,176,195477,1,0,0:0:0:0:
172,112,195615,2,0,L|240:108,1,68.2499968757631
348,164,196028,6,0,P|416:144|440:88,1,136.499993751526
196,68,196853,2,0,P|192:52|192:16,2,45.4999979171754
248,132,197266,1,0,0:0:0:0:
448,272,197679,5,0,0:0:0:0:
388,328,197817,1,0,0:0:0:0:
308,304,197955,1,0,0:0:0:0:
368,248,198092,2,0,L|372:196,2,45.4999979171754
308,304,198505,2,0,L|304:349,2,45.4999979171754
240,256,198918,2,0,L|172:252,1,68.2499968757631
68,184,199331,6,0,P|64:152|72:116,1,68.2499968757631
188,72,199744,2,0,P|219:84|244:107,1,68.2499968757631
260,228,200157,2,0,L|288:272,2,45.4999979171754
184,200,200570,1,0,0:0:0:0:
240,348,200983,5,0,0:0:0:0:
320,368,201121,1,0,0:0:0:0:
372,304,201258,1,0,0:0:0:0:
452,316,201396,1,0,0:0:0:0:
512,260,201533,1,0,0:0:0:0:
484,184,201671,1,0,0:0:0:0:
404,160,201809,2,0,L|360:144,2,45.4999979171754
404,160,202635,5,0,0:0:0:0:
