osu file format v14

[General]
AudioFilename: audio.mp3
AudioLeadIn: 0
PreviewTime: 49975
Countdown: 0
SampleSet: Normal
StackLeniency: 0.7
Mode: 1
LetterboxInBreaks: 0
WidescreenStoryboard: 1

[Editor]
Bookmarks: 25270,50358
DistanceSpacing: 3.3
BeatDivisor: 6
GridSize: 32
TimelineZoom: 0.6999999

[Metadata]
Title:Fruits
TitleUnicode:Fruits
Artist:Panda Eyes
ArtistUnicode:Panda Eyes
Creator:Cychloryn
Version:Kantan
Source:osu!
Tags:featured artist fa mappers guild yoshi stingy capu future bass mg sv instrumental electronic
BeatmapID:2243933
BeatmapSetID:1066593

[Difficulty]
HPDrainRate:8
CircleSize:2
OverallDifficulty:3
ApproachRate:10
SliderMultiplier:1.4
SliderTickRate:1

[Events]
//Background and Video events
0,0,"fruits.jpg",0,0
//Break Periods
//Storyboard Layer 0 (Background)
//Storyboard Layer 1 (Fail)
//Storyboard Layer 2 (Pass)
//Storyboard Layer 3 (Foreground)
//Storyboard Layer 4 (Overlay)
//Storyboard Sound Samples

[TimingPoints]
172,392.156862745098,4,1,0,55,1,0
172,-111.111111111111,4,1,0,55,0,0
44093,-111.111111111111,4,1,0,65,0,0
47230,-107.52688172043,4,1,0,80,0,0
50358,392.156862745098,4,1,0,100,1,0
50358,-100,4,1,0,100,0,1
62122,-100,4,1,0,100,0,0
62907,-100,4,1,0,100,0,1
75063,-100,4,1,0,75,0,0
94279,-100,4,1,0,80,0,0
100456,-105.263157894737,4,1,0,55,0,0
102122,-111.111111111111,4,1,0,55,0,0
125652,-105.263157894737,4,1,0,55,0,0
138201,-105.263157894737,4,1,0,60,0,0
142122,-105.263157894737,4,1,0,65,0,0
147612,-105.263157894737,4,1,0,70,0,0
150750,-100,4,1,0,80,0,0
163299,-95.2380952380952,4,1,0,90,0,1
175848,-100,4,1,0,85,0,0
188397,-95.2380952380952,4,1,0,100,0,1
200946,392.156862745098,4,1,0,100,1,9
200984,392.156862745098,4,1,0,50,1,0
200984,-95.2380952380952,4,1,0,50,0,0
202552,-103.092783505155,4,1,0,50,0,0
204121,-111.111111111111,4,1,0,50,0,0

[HitObjects]
256,192,25270,5,12,0:0:0:0:
256,192,26054,1,8,0:0:0:0:
256,192,27622,1,8,0:0:0:0:
256,192,28407,1,0,0:0:0:0:
256,192,29191,1,8,0:0:0:0:
256,192,29975,1,0,0:0:0:0:
256,192,30760,1,8,0:0:0:0:
256,192,32328,1,8,0:0:0:0:
256,192,33897,1,8,0:0:0:0:
256,192,34681,1,0,0:0:0:0:
256,192,35466,1,8,0:0:0:0:
256,192,36250,1,0,0:0:0:0:
256,192,37034,1,8,0:0:0:0:
256,192,37819,1,0,0:0:0:0:
256,192,38603,1,8,0:0:0:0:
256,192,40172,1,8,0:0:0:0:
256,192,40956,1,0,0:0:0:0:
256,192,41740,1,8,0:0:0:0:
256,192,42524,1,0,0:0:0:0:
256,192,43309,1,8,0:0:0:0:
256,192,44877,1,8,0:0:0:0:
256,192,46446,1,8,0:0:0:0:
256,192,47230,1,8,0:0:0:0:
256,192,47622,1,0,0:0:0:0:
256,192,48015,1,8,0:0:0:0:
256,192,48407,1,8,0:0:0:0:
256,192,48799,1,0,0:0:0:0:
256,192,49583,1,8,0:0:0:0:
256,192,50358,1,4,0:0:0:0:
256,192,51926,1,0,0:0:0:0:
256,192,52318,1,8,0:0:0:0:
256,192,52710,1,8,0:0:0:0:
256,192,53495,1,0,0:0:0:0:
256,192,53887,1,0,0:0:0:0:
256,192,54279,1,8,0:0:0:0:
256,192,54671,1,8,0:0:0:0:
256,192,55063,1,0,0:0:0:0:
256,192,55456,1,0,0:0:0:0:
256,192,56632,1,0,0:0:0:0:
256,192,57416,1,8,0:0:0:0:
256,192,57808,1,0,0:0:0:0:
256,192,58201,1,0,0:0:0:0:
256,192,58985,1,8,0:0:0:0:
256,192,59769,1,0,0:0:0:0:
256,192,60161,1,0,0:0:0:0:
256,192,60554,1,8,0:0:0:0:
256,192,60946,1,0,0:0:0:0:
256,192,61338,1,0,0:0:0:0:
256,192,62122,1,8,0:0:0:0:
256,192,62907,1,4,0:0:0:0:
256,192,64475,1,0,0:0:0:0:
256,192,64867,1,0,0:0:0:0:
256,192,65259,1,8,0:0:0:0:
256,192,66044,1,0,0:0:0:0:
256,192,66436,1,0,0:0:0:0:
256,192,66828,1,8,0:0:0:0:
256,192,67220,1,8,0:0:0:0:
256,192,67612,1,0,0:0:0:0:
256,192,68005,1,0,0:0:0:0:
256,192,69181,1,0,0:0:0:0:
256,192,69573,1,8,0:0:0:0:
256,192,69965,1,8,0:0:0:0:
256,192,70750,1,0,0:0:0:0:
256,192,71534,1,8,0:0:0:0:
256,192,72318,1,0,0:0:0:0:
256,192,72710,1,0,0:0:0:0:
256,192,73103,1,8,0:0:0:0:
256,192,73495,1,0,0:0:0:0:
256,192,73887,1,0,0:0:0:0:
256,192,74671,1,8,0:0:0:0:
256,192,75456,5,4,0:0:0:0:
256,192,77024,1,0,0:0:0:0:
256,192,77416,1,8,0:0:0:0:
256,192,77808,1,8,0:0:0:0:
256,192,78593,1,0,0:0:0:0:
256,192,79377,1,8,0:0:0:0:
256,192,80161,1,0,0:0:0:0:
256,192,80554,1,0,0:0:0:0:
256,192,81730,1,0,0:0:0:0:
256,192,82514,1,8,0:0:0:0:
256,192,82907,1,0,0:0:0:0:
256,192,83299,1,0,0:0:0:0:
256,192,84083,1,8,0:0:0:0:
256,192,84867,1,0,0:0:0:0:
256,192,85652,1,8,0:0:0:0:
256,192,86436,1,0,0:0:0:0:
256,192,86828,1,0,0:0:0:0:
256,192,87220,1,8,0:0:0:0:
256,192,88005,1,4,0:0:0:0:
256,192,89573,1,0,0:0:0:0:
256,192,89965,1,8,0:0:0:0:
256,192,90358,1,8,0:0:0:0:
256,192,91142,1,0,0:0:0:0:
256,192,91926,1,8,0:0:0:0:
256,192,92710,1,0,0:0:0:0:
256,192,93103,1,0,0:0:0:0:
256,192,94279,1,0,0:0:0:0:
256,192,94671,1,0,0:0:0:0:
256,192,95063,1,8,0:0:0:0:
256,192,95456,1,8,0:0:0:0:
256,192,95848,1,0,0:0:0:0:
256,192,96632,1,8,0:0:0:0:
256,192,97024,1,8,0:0:0:0:
256,192,97416,1,0,0:0:0:0:
256,192,98201,1,0,0:0:0:0:
256,192,98985,1,8,0:0:0:0:
256,192,99377,1,0,0:0:0:0:
256,192,99769,1,8,0:0:0:0:
256,192,100554,1,0,0:0:0:0:
256,192,102122,5,8,0:0:0:0:
256,192,103691,1,8,0:0:0:0:
256,192,104867,1,0,0:0:0:0:
256,192,105259,1,0,0:0:0:0:
256,192,106828,1,8,0:0:0:0:
256,192,108397,1,8,0:0:0:0:
256,192,109573,1,0,0:0:0:0:
256,192,109965,1,8,0:0:0:0:
256,192,111142,1,8,0:0:0:0:
256,192,112318,1,8,0:0:0:0:
256,192,113103,1,0,0:0:0:0:
256,192,114671,1,8,0:0:0:0:
256,192,116240,1,8,0:0:0:0:
256,192,117416,1,0,0:0:0:0:
256,192,117808,1,0,0:0:0:0:
256,192,119377,1,8,0:0:0:0:
256,192,120946,1,8,0:0:0:0:
256,192,122122,1,0,0:0:0:0:
256,192,122514,1,8,0:0:0:0:
256,192,123691,1,8,0:0:0:0:
256,192,124867,1,8,0:0:0:0:
224,192,125652,1,0,0:0:0:0:
256,192,126436,1,8,0:0:0:0:
256,192,128005,1,8,0:0:0:0:
256,192,129573,1,8,0:0:0:0:
256,192,131142,1,0,0:0:0:0:
256,192,132710,1,8,0:0:0:0:
256,192,134279,1,8,0:0:0:0:
256,192,135848,1,8,0:0:0:0:
256,192,137416,1,8,0:0:0:0:
256,192,138201,1,0,0:0:0:0:
256,192,138985,1,8,0:0:0:0:
256,192,139769,1,0,0:0:0:0:
256,192,140161,1,8,0:0:0:0:
256,192,140554,1,0,0:0:0:0:
256,192,141338,1,0,0:0:0:0:
256,192,142122,1,0,0:0:0:0:
256,192,142514,1,0,0:0:0:0:
256,192,142907,1,8,0:0:0:0:
256,192,143691,1,8,0:0:0:0:
256,192,145259,1,8,0:0:0:0:
256,192,145652,1,0,0:0:0:0:
256,192,146044,1,8,0:0:0:0:
256,192,146828,1,8,0:0:0:0:
256,192,147220,1,8,0:0:0:0:
256,192,147612,1,0,0:0:0:0:
256,192,148789,1,8,0:0:0:0:
256,192,149573,1,0,0:0:0:0:
256,192,149965,1,8,0:0:0:0:
256,192,150750,5,4,0:0:0:0:
256,192,151534,1,0,0:0:0:0:
256,192,152318,1,8,0:0:0:0:
256,192,152710,1,8,0:0:0:0:
256,192,153103,1,0,0:0:0:0:
256,192,153887,1,0,0:0:0:0:
256,192,155063,1,0,0:0:0:0:
256,192,155456,1,8,0:0:0:0:
256,192,155848,1,8,0:0:0:0:
256,192,156240,1,0,0:0:0:0:
256,192,157024,1,0,0:0:0:0:
256,192,157808,1,8,0:0:0:0:
256,192,158593,1,0,0:0:0:0:
256,192,159377,1,8,0:0:0:0:
256,192,159769,1,8,0:0:0:0:
256,192,160161,1,0,0:0:0:0:
256,192,161338,1,8,0:0:0:0:
256,192,162122,1,0,0:0:0:0:
256,192,162514,1,8,0:0:0:0:
256,192,163299,1,4,0:0:0:0:
256,192,164083,1,8,0:0:0:0:
256,192,164475,1,8,0:0:0:0:
256,192,164867,1,0,0:0:0:0:
256,192,165652,1,8,0:0:0:0:
256,192,166044,1,0,0:0:0:0:
256,192,166436,1,0,0:0:0:0:
256,192,167612,1,0,0:0:0:0:
256,192,168005,1,8,0:0:0:0:
256,192,168397,1,8,0:0:0:0:
256,192,168789,1,0,0:0:0:0:
256,192,169573,1,0,0:0:0:0:
256,192,170358,1,8,0:0:0:0:
256,192,170750,1,0,0:0:0:0:
256,192,171142,1,8,0:0:0:0:
256,192,171926,1,8,0:0:0:0:
256,192,172318,1,8,0:0:0:0:
256,192,172710,1,0,0:0:0:0:
256,192,173887,1,8,0:0:0:0:
256,192,174279,1,0,0:0:0:0:
256,192,174671,1,0,0:0:0:0:
256,192,175063,1,8,0:0:0:0:
256,192,175848,5,4,0:0:0:0:
256,192,176632,1,0,0:0:0:0:
256,192,177416,1,8,0:0:0:0:
256,192,177808,1,8,0:0:0:0:
256,192,178201,1,0,0:0:0:0:
256,192,178985,1,0,0:0:0:0:
256,192,180161,1,0,0:0:0:0:
256,192,180554,1,8,0:0:0:0:
256,192,180946,1,8,0:0:0:0:
256,192,181338,1,0,0:0:0:0:
256,192,182122,1,0,0:0:0:0:
256,192,182906,1,8,0:0:0:0:
256,192,183691,1,0,0:0:0:0:
256,192,184475,1,8,0:0:0:0:
256,192,184867,1,8,0:0:0:0:
256,192,185259,1,0,0:0:0:0:
256,192,186436,1,8,0:0:0:0:
256,192,187220,1,0,0:0:0:0:
256,192,187612,1,8,0:0:0:0:
256,192,188397,1,4,0:0:0:0:
256,192,189181,1,8,0:0:0:0:
256,192,189573,1,8,0:0:0:0:
256,192,189965,1,0,0:0:0:0:
256,192,190750,1,8,0:0:0:0:
256,192,191142,1,0,0:0:0:0:
256,192,191534,1,0,0:0:0:0:
256,192,192710,1,0,0:0:0:0:
256,192,193103,1,8,0:0:0:0:
256,192,193495,1,8,0:0:0:0:
256,192,193887,1,0,0:0:0:0:
256,192,194671,1,0,0:0:0:0:
256,192,195456,1,8,0:0:0:0:
256,192,195848,1,0,0:0:0:0:
256,192,196240,1,8,0:0:0:0:
256,192,197024,1,8,0:0:0:0:
256,192,197416,1,8,0:0:0:0:
256,192,197808,1,0,0:0:0:0:
256,192,198985,1,8,0:0:0:0:
256,192,199377,1,0,0:0:0:0:
256,192,199769,1,0,0:0:0:0:
256,192,200161,1,8,0:0:0:0:
256,192,200554,1,8,0:0:0:0:
256,192,200984,1,0,0:0:0:0:
256,192,202552,5,8,0:0:0:0:
256,192,204121,1,8,0:0:0:0:
256,192,205689,1,0,0:0:0:0:
256,192,207258,1,0,0:0:0:0:
256,192,208827,1,0,0:0:0:0:
256,192,210395,1,8,0:0:0:0:
256,192,211572,1,8,0:0:0:0:
256,192,212748,1,8,0:0:0:0:
256,192,213533,1,0,0:0:0:0:
256,192,215101,1,8,0:0:0:0:
256,192,216670,1,8,0:0:0:0:
256,192,218238,1,0,0:0:0:0:
256,192,219807,1,0,0:0:0:0:
256,192,221376,1,0,0:0:0:0:
256,192,222944,1,8,0:0:0:0:
256,192,224121,1,8,0:0:0:0:
256,192,225297,1,8,0:0:0:0:
