osu file format v14

[General]
AudioFilename: audio.mp3
AudioLeadIn: 0
PreviewTime: 49975
Countdown: 0
SampleSet: Normal
StackLeniency: 0.7
Mode: 1
LetterboxInBreaks: 0
WidescreenStoryboard: 0

[Editor]
Bookmarks: 25270,50358,75456,100554,125652,150750,175848,200962
DistanceSpacing: 3.3
BeatDivisor: 6
GridSize: 32
TimelineZoom: 4.599998

[Metadata]
Title:Fruits
TitleUnicode:Fruits
Artist:Panda Eyes
ArtistUnicode:Panda Eyes
Creator:Cychloryn
Version:Inner Oni
Source:osu!
Tags:featured artist fa mappers guild yoshi stingy capu future bass mg sv instrumental electronic
BeatmapID:2233260
BeatmapSetID:1066593

[Difficulty]
HPDrainRate:5
CircleSize:2
OverallDifficulty:6
ApproachRate:10
SliderMultiplier:1.4
SliderTickRate:1

[Events]
//Background and Video events
0,0,"fruits.jpg",0,0
//Break Periods
//Storyboard Layer 0 (Background)
//Storyboard Layer 1 (Fail)
//Storyboard Layer 2 (Pass)
//Storyboard Layer 3 (Foreground)
//Storyboard Layer 4 (Overlay)
//Storyboard Sound Samples

[TimingPoints]
172,392.156862745098,4,1,0,50,1,0
172,-166.666666666667,4,1,0,50,0,0
25270,-163.934426229508,4,1,0,55,0,0
26838,-161.290322580645,4,1,0,55,0,0
28407,-158.730158730159,4,1,0,55,0,0
29975,-156.25,4,1,0,55,0,0
31544,-153.846153846154,4,1,0,55,0,0
33113,-151.515151515152,4,1,0,55,0,0
34681,-149.253731343284,4,1,0,55,0,0
36250,-147.058823529412,4,1,0,55,0,0
37426,-144.927536231884,4,1,0,55,0,0
37818,-142.857142857143,4,1,0,55,0,0
37819,-142.857142857143,4,1,0,55,0,0
38015,-141.892476718992,4,1,0,55,0,0
38211,-140.940751326957,4,1,0,55,0,0
38407,-140.001904025895,4,1,0,55,0,0
38603,-139.075288407379,4,1,0,55,0,0
38995,-137.258373790239,4,1,0,55,0,0
39387,-135.488503800453,4,1,0,55,0,0
39583,-134.620484660669,4,1,0,55,0,0
39779,-133.763516803373,4,1,0,55,0,0
40172,-132.082075801903,4,1,0,55,0,0
40564,-130.442212143387,4,1,0,55,0,0
40956,-128.842734558198,4,1,0,55,0,0
41152,-128.057533688736,4,1,0,55,0,0
41348,-127.28184528128,4,1,0,55,0,0
41544,-126.515657577782,4,1,0,55,0,0
41740,-125.758480837551,4,1,0,55,0,0
42132,-124.270995273974,4,1,0,55,0,0
42524,-122.818437503838,4,1,0,55,0,0
42721,-122.104743891405,4,1,0,55,0,0
42917,-121.399296855273,4,1,0,55,0,0
43113,-120.702099975135,4,1,0,55,0,0
43309,-120.012721348463,4,1,0,55,0,0
43701,-118.657321216048,4,1,0,55,0,0
44093,-117.332332097433,4,1,0,65,0,0
44289,-116.680804490811,4,1,0,65,0,0
44485,-116.036472584063,4,1,0,65,0,0
44877,-114.76905596713,4,1,0,65,0,0
45270,-113.528898213396,4,1,0,65,0,0
45662,-112.315381591509,4,1,0,65,0,0
45858,-111.718237667144,4,1,0,65,0,0
46054,-111.127409797881,4,1,0,65,0,0
46250,-110.542798302505,4,1,0,65,0,0
46446,-109.964426508025,4,1,0,65,0,0
46838,-108.825414652036,4,1,0,65,0,0
47034,-108.264711550329,4,1,0,65,0,0
47230,-107.70987268693,4,1,0,80,0,0
47622,-106.616855271884,4,1,0,80,0,0
47819,-106.078623354058,4,1,0,80,0,0
47917,-105.81159610444,4,1,0,80,0,0
48015,-105.545909832129,4,1,0,80,0,0
48211,-105.018409727225,4,1,0,80,0,0
48407,-104.496156108898,4,1,0,80,0,0
48505,-104.237026659662,4,1,0,80,0,0
48603,-103.97907109257,4,1,0,80,0,0
48799,-103.467185382156,4,1,0,85,0,0
48897,-102.040816326531,4,1,0,85,0,0
48995,-101.010101010101,4,1,0,85,0,0
49093,-100,4,1,0,85,0,0
49191,-99.009900990099,4,1,0,85,0,0
49289,-98.0392156862745,4,1,0,85,0,0
49387,-97.0873786407767,4,1,0,85,0,0
49583,-95.2380952380952,4,1,0,85,0,0
49681,-94.3396226415094,4,1,0,85,0,0
49779,-93.4579439252336,4,1,0,85,0,0
49877,-92.5925925925926,4,1,0,85,0,0
49975,-91.743119266055,4,1,0,85,0,0
50172,-83.3333333333333,4,1,0,85,0,0
50358,392.156862745098,4,1,0,100,1,0
50358,-66.6666666666667,4,1,0,100,0,1
50554,-71.4285714285714,4,1,0,100,0,1
50750,-76.9230769230769,4,1,0,100,0,1
50946,-83.3333333333333,4,1,0,100,0,1
51142,-90.9090909090909,4,1,0,100,0,0
51926,-66.6666666666667,4,1,0,100,0,1
52024,-67.7966101694915,4,1,0,100,0,1
52122,-68.9655172413793,4,1,0,100,0,1
52220,-70.1754385964912,4,1,0,100,0,1
52318,-71.4285714285714,4,1,0,100,0,1
52416,-72.7272727272727,4,1,0,100,0,1
52514,-74.0740740740741,4,1,0,100,0,1
52612,-75.4716981132076,4,1,0,100,0,1
52710,-76.9230769230769,4,1,0,100,0,0
53103,-86.9565217391304,4,1,0,100,0,0
53495,-66.6666666666667,4,1,0,100,0,1
53593,-67.9611452540354,4,1,0,100,0,1
53691,-69.3069375551423,4,1,0,100,0,1
53789,-70.7070564228169,4,1,0,100,0,1
53887,-72.1649633329821,4,1,0,100,0,1
53985,-73.6842027700839,4,1,0,100,0,1
54083,-75.2688414845725,4,1,0,100,0,1
54181,-76.9230769230769,4,1,0,100,0,1
54279,-66.6666666666667,4,1,0,100,0,1
54377,-68.4931506849315,4,1,0,100,0,1
54475,-70.4225352112676,4,1,0,100,0,1
54573,-72.463768115942,4,1,0,100,0,1
54671,-74.6268656716418,4,1,0,100,0,1
54769,-76.9230769230769,4,1,0,100,0,1
54867,-71.4285714285714,4,1,0,100,0,1
54965,-72.992700729927,4,1,0,100,0,1
55063,-66.6666666666667,4,1,0,100,0,1
55161,-68.1399430895195,4,1,0,100,0,1
55259,-69.679855902058,4,1,0,100,0,1
55358,-71.2909290134833,4,1,0,100,0,1
55456,-66.6666666666667,4,1,0,100,0,1
55554,-68.1818026859539,4,1,0,100,0,1
55652,-69.7674580854554,4,1,0,100,0,1
55750,-71.4285714285714,4,1,0,100,0,1
55848,-66.6666666666667,4,1,0,100,0,1
55946,-67.9611452540354,4,1,0,100,0,1
56044,-69.3069375551423,4,1,0,100,0,1
56142,-70.7070564228169,4,1,0,100,0,1
56240,-72.1649633329821,4,1,0,100,0,1
56338,-73.6842027700839,4,1,0,100,0,1
56436,-75.2688414845725,4,1,0,100,0,1
56534,-76.9230769230769,4,1,0,100,0,1
56632,-66.6666666666667,4,1,0,100,0,1
56730,-67.9611452540354,4,1,0,100,0,1
56828,-69.3069375551423,4,1,0,100,0,1
56926,-70.7070564228169,4,1,0,100,0,1
57024,-72.1649633329821,4,1,0,100,0,1
57122,-73.6842027700839,4,1,0,100,0,1
57220,-75.2688414845725,4,1,0,100,0,1
57318,-76.9230769230769,4,1,0,100,0,1
57416,-66.6666666666667,4,1,0,100,0,1
57514,-68.4623895017033,4,1,0,100,0,1
57612,-70.3575783202973,4,1,0,100,0,1
57710,-72.3606280034183,4,1,0,100,0,1
57808,-74.4810717528301,4,1,0,100,0,1
57907,-76.7295414105498,4,1,0,100,0,1
58005,-71.4285714285714,4,1,0,100,0,1
58103,-72.992700729927,4,1,0,100,0,1
58201,-66.6666666666667,4,1,0,100,0,1
58299,-67.9611452540354,4,1,0,100,0,1
58397,-69.3069375551423,4,1,0,100,0,1
58495,-70.7070564228169,4,1,0,100,0,1
58593,-72.1649633329821,4,1,0,100,0,1
58691,-73.6842027700839,4,1,0,100,0,1
58789,-75.2688414845725,4,1,0,100,0,1
58887,-76.9230769230769,4,1,0,100,0,1
58985,-66.6666666666667,4,1,0,100,0,1
59083,-67.9611452540354,4,1,0,100,0,1
59181,-69.3069375551423,4,1,0,100,0,1
59279,-70.7070564228169,4,1,0,100,0,1
59377,-72.1649633329821,4,1,0,100,0,1
59475,-73.6842027700839,4,1,0,100,0,1
59573,-75.2688414845725,4,1,0,100,0,1
59671,-76.9230769230769,4,1,0,100,0,1
59769,-66.6666666666667,4,1,0,100,0,1
59867,-67.9456299069485,4,1,0,100,0,1
59965,-69.2746733872336,4,1,0,100,0,1
60063,-70.6566974776972,4,1,0,100,0,1
60161,-72.0949865867277,4,1,0,100,0,1
60259,-73.5930481063037,4,1,0,100,0,1
60358,-75.1547436171076,4,1,0,100,0,1
60456,-76.7840977062287,4,1,0,100,0,1
60554,-66.6666666666667,4,1,0,100,0,1
60652,-68.4931506849315,4,1,0,100,0,1
60750,-70.4225352112676,4,1,0,100,0,1
60848,-72.463768115942,4,1,0,100,0,1
60946,-74.6268656716418,4,1,0,100,0,1
61044,-76.9230769230769,4,1,0,100,0,1
61142,-71.4285714285714,4,1,0,100,0,1
61240,-72.992700729927,4,1,0,100,0,1
61338,-66.6666666666667,4,1,0,100,0,1
61436,-68.1818026859539,4,1,0,100,0,1
61534,-69.7674580854554,4,1,0,100,0,1
61632,-71.4285714285714,4,1,0,100,0,1
61730,-66.6666666666667,4,1,0,100,0,1
61828,-68.1818026859539,4,1,0,100,0,1
61926,-69.7674580854554,4,1,0,100,0,1
62024,-71.4285714285714,4,1,0,100,0,1
62122,-72.992700729927,4,1,0,100,0,0
62514,-76.9230769230769,4,1,0,100,0,0
62612,-80,4,1,0,100,0,0
62710,-83.3333333333333,4,1,0,100,0,0
62907,-66.6666666666667,4,1,0,100,0,1
63103,-71.4285714285714,4,1,0,100,0,1
63299,-76.9230769230769,4,1,0,100,0,1
63495,-83.3333333333333,4,1,0,100,0,1
63691,-90.9090909090909,4,1,0,100,0,0
64279,-76.9230769230769,4,1,0,100,0,0
64475,-66.6666666666667,4,1,0,100,0,1
64573,-67.7966101694915,4,1,0,100,0,1
64671,-68.9655172413793,4,1,0,100,0,1
64769,-70.1754385964912,4,1,0,100,0,1
64867,-71.4285714285714,4,1,0,100,0,1
64965,-72.7272727272727,4,1,0,100,0,1
65063,-74.0740740740741,4,1,0,100,0,1
65161,-75.4716981132076,4,1,0,100,0,1
65259,-76.9230769230769,4,1,0,100,0,0
65652,-86.9565217391304,4,1,0,100,0,0
66044,-66.6666666666667,4,1,0,100,0,1
66142,-67.9611452540354,4,1,0,100,0,1
66240,-69.3069375551423,4,1,0,100,0,1
66338,-70.7070564228169,4,1,0,100,0,1
66436,-72.1649633329821,4,1,0,100,0,1
66534,-73.6842027700839,4,1,0,100,0,1
66632,-75.2688414845725,4,1,0,100,0,1
66730,-76.9230769230769,4,1,0,100,0,1
66828,-66.6666666666667,4,1,0,100,0,1
66926,-68.4931506849315,4,1,0,100,0,1
67024,-70.4225352112676,4,1,0,100,0,1
67122,-72.463768115942,4,1,0,100,0,1
67220,-74.6268656716418,4,1,0,100,0,1
67318,-76.9230769230769,4,1,0,100,0,1
67416,-71.4285714285714,4,1,0,100,0,1
67514,-72.992700729927,4,1,0,100,0,1
67612,-66.6666666666667,4,1,0,100,0,1
67711,-67.9456299069485,4,1,0,100,0,1
67809,-69.2746733872336,4,1,0,100,0,1
67907,-70.6566974776972,4,1,0,100,0,1
68005,-66.6666666666667,4,1,0,100,0,1
68103,-68.0272108843537,4,1,0,100,0,1
68201,-69.4444444444444,4,1,0,100,0,1
68299,-70.4225352112676,4,1,0,100,0,1
68397,-71.9424460431655,4,1,0,100,0,0
68789,-90.9090909090909,4,1,0,100,0,0
69181,-66.6666666666667,4,1,0,100,0,1
69279,-67.9611452540354,4,1,0,100,0,1
69377,-69.3069375551423,4,1,0,100,0,1
69475,-70.7070564228169,4,1,0,100,0,1
69573,-72.1649633329821,4,1,0,100,0,1
69671,-73.6842027700839,4,1,0,100,0,1
69769,-75.2688414845725,4,1,0,100,0,1
69867,-76.9230769230769,4,1,0,100,0,1
69965,-66.6666666666667,4,1,0,100,0,1
70063,-68.4623895017033,4,1,0,100,0,1
70161,-70.3575783202973,4,1,0,100,0,1
70259,-72.3606280034183,4,1,0,100,0,1
70358,-74.4810717528301,4,1,0,100,0,1
70456,-76.7295414105498,4,1,0,100,0,1
70554,-71.4285714285714,4,1,0,100,0,1
70652,-72.992700729927,4,1,0,100,0,1
70750,-66.6666666666667,4,1,0,100,0,1
70848,-67.9611452540354,4,1,0,100,0,1
70946,-69.3069375551423,4,1,0,100,0,1
71044,-70.7070564228169,4,1,0,100,0,1
71142,-72.1649633329821,4,1,0,100,0,1
71240,-73.6842027700839,4,1,0,100,0,1
71338,-75.2688414845725,4,1,0,100,0,1
71436,-76.9230769230769,4,1,0,100,0,1
71534,-66.6666666666667,4,1,0,100,0,1
71632,-67.9611452540354,4,1,0,100,0,1
71730,-69.3069375551423,4,1,0,100,0,1
71828,-70.7070564228169,4,1,0,100,0,1
71926,-72.1649633329821,4,1,0,100,0,1
72024,-73.6842027700839,4,1,0,100,0,1
72122,-75.2688414845725,4,1,0,100,0,1
72220,-76.9230769230769,4,1,0,100,0,1
72318,-66.6666666666667,4,1,0,100,0,1
72416,-67.9456299069485,4,1,0,100,0,1
72514,-69.2746733872336,4,1,0,100,0,1
72612,-70.6566974776972,4,1,0,100,0,1
72710,-72.0949865867277,4,1,0,100,0,1
72808,-73.5930481063037,4,1,0,100,0,1
72907,-75.1547436171076,4,1,0,100,0,1
73005,-76.7840977062287,4,1,0,100,0,1
73103,-66.6666666666667,4,1,0,100,0,1
73201,-68.4931506849315,4,1,0,100,0,1
73299,-70.4225352112676,4,1,0,100,0,1
73397,-72.463768115942,4,1,0,100,0,1
73495,-74.6268656716418,4,1,0,100,0,1
73593,-76.9230769230769,4,1,0,100,0,1
73691,-71.4285714285714,4,1,0,100,0,1
73789,-72.992700729927,4,1,0,100,0,1
73887,-66.6666666666667,4,1,0,100,0,1
73985,-68.1818026859539,4,1,0,100,0,1
74083,-69.7674580854554,4,1,0,100,0,1
74181,-71.4285714285714,4,1,0,100,0,1
74279,-66.6666666666667,4,1,0,100,0,1
74377,-68.1818026859539,4,1,0,100,0,1
74475,-69.7674580854554,4,1,0,100,0,1
74573,-71.4285714285714,4,1,0,100,0,1
74671,-66.6666666666667,4,1,0,100,0,1
74769,-68.1818026859539,4,1,0,100,0,1
74867,-69.7674580854554,4,1,0,100,0,1
74965,-71.4285714285714,4,1,0,100,0,1
75063,-72.992700729927,4,1,0,85,0,0
75456,-76.9230769230769,4,1,0,75,0,0
75848,-90.9090909090909,4,1,0,75,0,0
76240,-111.111111111111,4,1,0,75,0,0
77024,-117.647058823529,4,1,0,75,0,0
77220,-111.111111111111,4,1,0,75,0,0
77416,-105.263157894737,4,1,0,75,0,0
77612,-100,4,1,0,75,0,0
77808,-95.2380952380952,4,1,0,75,0,0
78593,-117.647058823529,4,1,0,75,0,0
78789,-115.107913669065,4,1,0,75,0,0
78985,-112.676056338028,4,1,0,75,0,0
79181,-110.344827586207,4,1,0,75,0,0
79377,-108.108108108108,4,1,0,75,0,0
79573,-105.960264900662,4,1,0,75,0,0
79769,-103.896103896104,4,1,0,75,0,0
79965,-101.910828025478,4,1,0,75,0,0
80161,-100,4,1,0,75,0,0
80554,-117.647058823529,4,1,0,75,0,0
80750,-114.285714285714,4,1,0,75,0,0
80946,-111.111111111111,4,1,0,75,0,0
81142,-108.108108108108,4,1,0,75,0,0
81338,-105.263157894737,4,1,0,75,0,0
81534,-102.564102564103,4,1,0,75,0,0
81730,-100,4,1,0,75,0,0
82122,-117.647058823529,4,1,0,75,0,0
82318,-114.308184008742,4,1,0,75,0,0
82514,-111.153720037125,4,1,0,75,0,0
82710,-108.168565565835,4,1,0,75,0,0
82907,-105.339667758688,4,1,0,75,0,0
83103,-102.654859989036,4,1,0,75,0,0
83299,-100.103507026265,4,1,0,75,0,0
83691,-117.647058823529,4,1,0,75,0,0
83887,-114.285714285714,4,1,0,75,0,0
84083,-111.111111111111,4,1,0,75,0,0
84279,-108.108108108108,4,1,0,75,0,0
84475,-105.263157894737,4,1,0,75,0,0
84671,-102.564102564103,4,1,0,75,0,0
84867,-100,4,1,0,75,0,0
85259,-117.647058823529,4,1,0,75,0,0
85456,-114.308184008742,4,1,0,75,0,0
85652,-111.153720037125,4,1,0,75,0,0
85848,-108.168565565835,4,1,0,75,0,0
86044,-105.339667758688,4,1,0,75,0,0
86240,-102.654859989036,4,1,0,75,0,0
86436,-100.103507026265,4,1,0,75,0,0
86828,-117.647058823529,4,1,0,75,0,0
87024,-113.636363636364,4,1,0,75,0,0
87220,-109.89010989011,4,1,0,75,0,0
87612,-117.647058823529,4,1,0,75,0,0
87710,-113.636363636364,4,1,0,75,0,0
87808,-109.89010989011,4,1,0,75,0,0
88005,-100,4,1,0,75,0,0
88397,-111.111111111111,4,1,0,75,0,0
88593,-104.166666666667,4,1,0,75,0,0
88789,-101.010101010101,4,1,0,75,0,0
89377,-111.111111111111,4,1,0,75,0,0
89573,-107.555563203951,4,1,0,75,0,0
89769,-104.220513932198,4,1,0,75,0,0
89867,-102.629364313717,4,1,0,75,0,0
89965,-101.086068722353,4,1,0,75,0,0
90161,-98.1346564501947,4,1,0,75,0,0
90358,-95.3506998741371,4,1,0,75,0,0
90750,-102.040816326531,4,1,0,75,0,0
91142,-111.111111111111,4,1,0,75,0,0
91338,-108.605816275885,4,1,0,75,0,0
91436,-107.395005273095,4,1,0,75,0,0
91534,-106.211007283951,4,1,0,75,0,0
91730,-103.919425034605,4,1,0,75,0,0
91926,-101.724743017868,4,1,0,75,0,0
92122,-99.6208430712707,4,1,0,75,0,0
92318,-97.6022065906866,4,1,0,75,0,0
92514,-95.6636618710473,4,1,0,75,0,0
92612,-94.7230723617967,4,1,0,75,0,0
92710,-93.8007110093895,4,1,0,75,0,0
92907,-92.0089322271406,4,1,0,75,0,0
93103,-90.2843233912236,4,1,0,75,0,0
93299,-88.6230983698667,4,1,0,75,0,0
93495,-87.0219774003925,4,1,0,75,0,0
93887,-95.2380952380952,4,1,0,75,0,0
94279,-100,4,1,0,80,0,0
94475,-97.2382395211211,4,1,0,80,0,0
94573,-95.9136930224707,4,1,0,80,0,0
94671,-94.6248361807524,4,1,0,80,0,0
94769,-93.3701585238552,4,1,0,80,0,0
94867,-92.1483182471178,4,1,0,80,0,0
94965,-90.9580428739831,4,1,0,80,0,0
95063,-89.7981248355572,4,1,0,80,0,0
95259,-87.5647541356833,4,1,0,80,0,0
95358,-86.4892541426191,4,1,0,80,0,0
95456,-85.4398529067492,4,1,0,80,0,0
95554,-84.4156118232506,4,1,0,80,0,0
95652,-83.4155671799783,4,1,0,80,0,0
95848,-91.743119266055,4,1,0,80,0,0
96044,-100,4,1,0,80,0,0
96142,-98.3606234883202,4,1,0,80,0,0
96240,-96.774224765879,4,1,0,80,0,0
96338,-95.2380952380952,4,1,0,80,0,0
96436,-93.7499707031342,4,1,0,80,0,0
96534,-92.3077207100679,4,1,0,80,0,0
96632,-90.9090909090909,4,1,0,80,0,0
96828,-88.2353200692118,4,1,0,80,0,0
96926,-86.9565217391304,4,1,0,80,0,0
97024,-85.7142612244968,4,1,0,80,0,0
97122,-84.5070660583285,4,1,0,80,0,0
97220,-83.3333333333333,4,1,0,80,0,0
97416,-91.743119266055,4,1,0,80,0,0
97612,-100,4,1,0,80,0,0
97710,-98.3717507810717,4,1,0,80,0,0
97808,-96.7957696376837,4,1,0,80,0,0
97907,-95.2693980403085,4,1,0,80,0,0
98005,-93.7904178081742,4,1,0,80,0,0
98103,-92.3566555438468,4,1,0,80,0,0
98201,-90.9661514950287,4,1,0,80,0,0
98397,-88.3069266187101,4,1,0,80,0,0
98495,-87.0347773563361,4,1,0,80,0,0
98593,-85.7988343370367,4,1,0,80,0,0
98691,-84.5974304376479,4,1,0,80,0,0
98789,-83.429207397501,4,1,0,80,0,0
98985,-90.9090909090909,4,1,0,80,0,0
99083,-89.3854748603352,4,1,0,80,0,0
99181,-87.9120879120879,4,1,0,80,0,0
99279,-86.4864864864865,4,1,0,80,0,0
99377,-85.1063829787234,4,1,0,80,0,0
99475,-83.7696335078534,4,1,0,80,0,0
99573,-82.4742268041237,4,1,0,80,0,0
99671,-81.2182741116751,4,1,0,80,0,0
99769,-80,4,1,0,80,0,0
99965,-86.9565217391304,4,1,0,80,0,0
100063,-85.1311615806473,4,1,0,80,0,0
100161,-83.3809299475117,4,1,0,80,0,0
100259,-81.7011486364487,4,1,0,80,0,0
100358,-80.0877762027182,4,1,0,80,0,0
100456,-78.5368274891462,4,1,0,80,0,0
100554,-77.0448670783431,4,1,0,80,0,0
100750,-166.666666666667,4,1,0,55,0,0
125652,-142.857142857143,4,1,0,55,0,0
126044,-142.13206627334,4,1,0,55,0,0
126436,-123.456790123457,4,1,0,55,0,0
126828,-140.703574152191,4,1,0,55,0,0
127220,-139.999944000022,4,1,0,55,0,0
127612,-139.303510309156,4,1,0,55,0,0
128005,-121.739066918747,4,1,0,55,0,0
128397,-137.931034482759,4,1,0,55,0,0
128789,-137.254982699009,4,1,0,55,0,0
129181,-136.585339202861,4,1,0,55,0,0
129573,-119.658160566893,4,1,0,55,0,0
129965,-135.265648206513,4,1,0,55,0,0
130358,-134.615410502964,4,1,0,55,0,0
130750,-133.971214944757,4,1,0,55,0,0
131142,-117.647058823529,4,1,0,55,0,0
131534,-132.701497270994,4,1,0,55,0,0
131926,-132.075446778218,4,1,0,55,0,0
132318,-131.455448433971,4,1,0,55,0,0
132710,-117.647058823529,4,1,0,55,0,0
133103,-130.232582368853,4,1,0,55,0,0
133495,-129.629557613209,4,1,0,55,0,0
133887,-129.032258064516,4,1,0,55,0,0
134279,-114.942528735632,4,1,0,55,0,0
134671,-127.853857926236,4,1,0,55,0,0
135063,-127.272773553736,4,1,0,55,0,0
135456,-126.696786716095,4,1,0,55,0,0
135848,-116.279069767442,4,1,0,55,0,0
136240,-125.560470550419,4,1,0,55,0,0
136632,-125,4,1,0,55,0,0
137024,-124.44451081485,4,1,0,55,0,0
137416,-116.279069767442,4,1,0,55,0,0
137808,-123.348061091828,4,1,0,55,0,0
138201,-122.806974453693,4,1,0,60,0,0
138593,-122.270763715417,4,1,0,60,0,0
138789,-122.004336034103,4,1,0,60,0,0
138985,-121.739066918748,4,1,0,60,0,0
139083,-121.60701234676,4,1,0,60,0,0
139377,-121.212121212121,4,1,0,60,0,0
139769,-120.68971759813,4,1,0,60,0,0
140161,-120.171653189416,4,1,0,60,0,0
140259,-120.042831282201,4,1,0,60,0,0
140554,-119.658160566893,4,1,0,60,0,0
140946,-119.148895608887,4,1,0,60,0,0
141142,-118.896026613687,4,1,0,60,0,0
141338,-118.644087905778,4,1,0,65,0,0
141730,-118.143400096169,4,1,0,65,0,0
142122,-117.647058823529,4,1,0,65,0,0
142220,-117.523589922587,4,1,0,65,0,0
142514,-117.15487053801,4,1,0,65,0,0
142907,-116.666647222225,4,1,0,65,0,0
143233,-116.303277077438,4,1,0,65,0,0
143299,-116.18261118095,4,1,0,65,0,0
143691,-115.702441090102,4,1,0,65,0,0
144083,-115.226356415861,4,1,0,65,0,0
144279,-114.989714170067,4,1,0,65,0,0
144475,-114.754041924242,4,1,0,70,0,0
144867,-114.285714285714,4,1,0,70,0,0
145259,-113.821193733916,4,1,0,70,0,0
145456,-113.590282124184,4,1,0,70,0,0
145652,-113.360305528695,4,1,0,70,0,0
146044,-112.903262226859,4,1,0,70,0,0
146436,-112.449763068349,4,1,0,70,0,0
146828,-112.000017920003,4,1,0,70,0,0
147024,-111.776429257257,4,1,0,70,0,0
147220,-111.553731528096,4,1,0,70,0,0
147612,-111.111111111111,4,1,0,70,0,0
148005,-109.592884353205,4,1,0,70,0,0
148397,-108.115705427949,4,1,0,70,0,0
148789,-107.52688172043,4,1,0,75,0,0
148985,-104.505438463018,4,1,0,75,0,0
149083,-103.057510212999,4,1,0,75,0,0
149181,-101.649155905409,4,1,0,75,0,0
149377,-98.9448520972351,4,1,0,80,0,0
149475,-97.6459514035629,4,1,0,80,0,0
149573,-96.3807115209647,4,1,0,80,0,0
149671,-95.1478407149028,4,1,0,80,0,0
149769,-93.9461125098643,4,1,0,80,0,0
149965,-91.6314801782782,4,1,0,80,0,0
150063,-90.5164142465595,4,1,0,80,0,0
150161,-89.4281605700509,4,1,0,80,0,0
150259,-88.365763568563,4,1,0,80,0,0
150358,-87.3283125375512,4,1,0,80,0,0
150554,-83.3333333333333,4,1,0,80,0,0
150750,-80,4,1,0,80,0,0
151534,-100,4,1,0,80,0,0
151926,-95.2380952380952,4,1,0,80,0,0
152318,-90.9090909090909,4,1,0,80,0,0
152710,-86.9565217391304,4,1,0,80,0,0
152808,-87.9054418742847,4,1,0,80,0,0
153103,-90.8805874521173,4,1,0,80,0,0
153495,-95.1755513043809,4,1,0,80,0,0
153691,-97.4789981498486,4,1,0,80,0,0
153887,-99.8967068051635,4,1,0,80,0,0
154279,-103.092783505155,4,1,0,80,0,0
154671,-100,4,1,0,80,0,0
154769,-98.7738217764669,4,1,0,80,0,0
155063,-95.2693980403085,4,1,0,80,0,0
155259,-93.0680150360685,4,1,0,80,0,0
155456,-90.9661514950287,4,1,0,80,0,0
155782,-87.9854155375205,4,1,0,80,0,0
155848,-87.0347773563361,4,1,0,80,0,0
156044,-88.8888888888889,4,1,0,80,0,0
156240,-90.9090909090909,4,1,0,80,0,0
156632,-95.2380952380952,4,1,0,80,0,0
156828,-97.5609756097561,4,1,0,80,0,0
157024,-100,4,1,0,80,0,0
157416,-102.040816326531,4,1,0,80,0,0
157808,-96.1538461538461,4,1,0,80,0,0
158005,-93.4579439252336,4,1,0,80,0,0
158201,-90.0900900900901,4,1,0,80,0,0
158397,-87.719298245614,4,1,0,80,0,0
158593,-84.7457627118644,4,1,0,80,0,0
158985,-90.9090909090909,4,1,0,80,0,0
159377,-89.2857142857143,4,1,0,80,0,0
159573,-92.5925925925926,4,1,0,80,0,0
159769,-95.2380952380952,4,1,0,80,0,0
160161,-83.3333333333333,4,1,0,80,0,0
160554,-89.2857142857143,4,1,0,80,0,0
160946,-95.2380952380952,4,1,0,80,0,0
161338,-83.3333333333333,4,1,0,80,0,0
161534,-86.0215053763441,4,1,0,80,0,0
161730,-88.8888888888889,4,1,0,80,0,0
161926,-91.9540229885058,4,1,0,80,0,0
162122,-95.2380952380952,4,1,0,80,0,0
162514,-81.9672131147541,4,1,0,80,0,0
162907,-86.9565217391304,4,1,0,80,0,0
163005,-89.2857142857143,4,1,0,80,0,0
163103,-91.743119266055,4,1,0,80,0,0
163299,-86.9565217391304,4,1,0,90,0,1
163691,-83.3333333333333,4,1,0,90,0,1
163887,-80,4,1,0,90,0,1
164083,-74.0740740740741,4,1,0,90,0,1
164181,-75.7575757575758,4,1,0,90,0,1
164475,-79.9834274338357,4,1,0,90,0,1
164671,-81.6067387580597,4,1,0,90,0,1
164769,-82.4434252605006,4,1,0,90,0,1
164867,-83.2973766324203,4,1,0,90,0,1
165063,-85.0594735839299,4,1,0,90,0,1
165259,-86.8978090455405,4,1,0,90,0,1
165358,-87.8470617793247,4,1,0,90,0,1
165652,-90.8235516368221,4,1,0,90,0,1
166044,-92.5925925925926,4,1,0,90,0,1
166240,-94.3396226415094,4,1,0,90,0,1
166338,-96.1538461538461,4,1,0,90,0,1
166436,-98.0392156862745,4,1,0,90,0,1
166828,-90.9090909090909,4,1,0,90,0,1
167024,-88.2532302888616,4,1,0,90,0,1
167220,-85.7480704540446,4,1,0,90,0,1
167318,-84.5480778417243,4,1,0,90,0,1
167612,-81.1415644418191,4,1,0,90,0,1
167808,-79.0190886412431,4,1,0,90,0,1
167907,-77.9989220548972,4,1,0,90,0,1
168005,-77.0047612043853,4,1,0,90,0,1
168331,-74.6268656716418,4,1,0,90,0,1
168397,-75.7575757575758,4,1,0,90,0,1
168593,-79.3650793650794,4,1,0,90,0,1
168789,-83.3333333333333,4,1,0,90,0,1
169181,-81.9672131147541,4,1,0,90,0,1
169279,-84.7457627118644,4,1,0,90,0,1
169377,-87.719298245614,4,1,0,90,0,1
169573,-90.9090909090909,4,1,0,90,0,1
169769,-86.9565217391304,4,1,0,90,0,1
169867,-85.7310890077312,4,1,0,90,0,1
169965,-84.5396435977705,4,1,0,90,0,1
170063,-83.3809299475117,4,1,0,90,0,1
170161,-82.253549857578,4,1,0,90,0,1
170259,-81.1561834519296,4,1,0,90,0,1
170358,-80.0877762027182,4,1,0,90,0,1
170554,-86.9565217391304,4,1,0,90,0,1
170652,-85.7142612244968,4,1,0,90,0,1
170750,-84.5070660583285,4,1,0,90,0,1
170848,-83.3333333333333,4,1,0,90,0,1
170946,-82.1917583036279,4,1,0,90,0,1
171142,-80,4,1,0,90,0,1
171338,-86.9565217391304,4,1,0,90,0,1
171436,-85.7142612244968,4,1,0,90,0,1
171534,-84.5070660583285,4,1,0,90,0,1
171632,-83.3333333333333,4,1,0,90,0,1
171730,-82.1917583036279,4,1,0,90,0,1
171828,-81.0811029948927,4,1,0,90,0,1
171926,-80,4,1,0,90,0,1
172122,-86.9565217391304,4,1,0,90,0,1
172220,-85.7142612244968,4,1,0,90,0,1
172318,-84.5070660583285,4,1,0,90,0,1
172416,-83.3333333333333,4,1,0,90,0,1
172514,-82.1917583036279,4,1,0,90,0,1
172612,-81.0811029948927,4,1,0,90,0,1
172710,-80,4,1,0,90,0,1
172907,-86.9565217391304,4,1,0,90,0,1
173005,-85.7142612244968,4,1,0,90,0,1
173103,-84.5070660583285,4,1,0,90,0,1
173201,-83.3333333333333,4,1,0,90,0,1
173299,-82.1917583036279,4,1,0,90,0,1
173397,-81.0811029948927,4,1,0,90,0,1
173495,-80,4,1,0,90,0,1
173691,-86.9565217391304,4,1,0,90,0,1
173789,-85.7142612244968,4,1,0,90,0,1
173887,-84.5070660583285,4,1,0,90,0,1
173985,-83.3333333333333,4,1,0,90,0,1
174083,-82.1917583036279,4,1,0,90,0,1
174279,-80,4,1,0,90,0,1
174475,-86.9565217391304,4,1,0,90,0,1
174573,-85.7142612244968,4,1,0,90,0,1
174671,-84.5070660583285,4,1,0,90,0,1
174769,-83.3333333333333,4,1,0,90,0,1
174867,-82.1917583036279,4,1,0,90,0,1
174965,-81.0811029948927,4,1,0,90,0,1
175063,-80,4,1,0,90,0,1
175259,-74.0740740740741,4,1,0,90,0,1
175358,-75.923053503735,4,1,0,90,0,1
175456,-77.8666409187641,4,1,0,90,0,1
175554,-79.9124159920727,4,1,0,90,0,1
175652,-82.0685880017366,4,1,0,90,0,1
175750,-84.3443408321075,4,1,0,90,0,1
175848,-86.7498308378299,4,1,0,85,0,0
176632,-100,4,1,0,85,0,0
176730,-99.009900990099,4,1,0,85,0,0
177024,-95.2380952380952,4,1,0,85,0,0
177416,-90.9090909090909,4,1,0,85,0,0
177808,-86.9565217391304,4,1,0,85,0,0
177906,-87.9054418742847,4,1,0,85,0,0
178201,-90.8805874521173,4,1,0,85,0,0
178593,-95.1755513043809,4,1,0,85,0,0
178789,-97.4789981498486,4,1,0,85,0,0
178985,-99.8967068051635,4,1,0,85,0,0
179377,-103.092783505155,4,1,0,85,0,0
179769,-100,4,1,0,85,0,0
179867,-98.7738217764669,4,1,0,85,0,0
180161,-95.2693980403085,4,1,0,85,0,0
180357,-93.0680150360685,4,1,0,85,0,0
180456,-92.5925925925926,4,1,0,85,0,0
180554,-90.9661514950287,4,1,0,85,0,0
180880,-87.9854155375205,4,1,0,85,0,0
180946,-87.0347773563361,4,1,0,85,0,0
181338,-90.9090909090909,4,1,0,85,0,0
181730,-95.2380952380952,4,1,0,85,0,0
181926,-97.5609756097561,4,1,0,85,0,0
182122,-100,4,1,0,85,0,0
182514,-102.040816326531,4,1,0,85,0,0
182906,-96.1538461538461,4,1,0,85,0,0
183103,-93.4579439252336,4,1,0,85,0,0
183299,-90.0900900900901,4,1,0,85,0,0
183495,-87.719298245614,4,1,0,85,0,0
183593,-86.2068965517241,4,1,0,85,0,0
183691,-84.7457627118644,4,1,0,85,0,0
184083,-90.9090909090909,4,1,0,85,0,0
184475,-89.2857142857143,4,1,0,85,0,0
184671,-92.5925925925926,4,1,0,85,0,0
184867,-95.2380952380952,4,1,0,85,0,0
185259,-83.3333333333333,4,1,0,85,0,0
185652,-89.2857142857143,4,1,0,85,0,0
185848,-92.5925925925926,4,1,0,85,0,0
186044,-95.2380952380952,4,1,0,85,0,0
186436,-83.3333333333333,4,1,0,85,0,0
186632,-86.0215053763441,4,1,0,85,0,0
186828,-88.8888888888889,4,1,0,85,0,0
187024,-91.9540229885058,4,1,0,85,0,0
187220,-95.2380952380952,4,1,0,85,0,0
187612,-81.9672131147541,4,1,0,85,0,0
188005,-86.9565217391304,4,1,0,85,0,0
188103,-89.2857142857143,4,1,0,85,0,0
188201,-91.743119266055,4,1,0,85,0,0
188397,-86.9565217391304,4,1,0,100,0,1
188789,-83.3333333333333,4,1,0,100,0,1
188985,-80,4,1,0,100,0,1
189181,-74.0740740740741,4,1,0,100,0,1
189279,-75.7575757575758,4,1,0,100,0,1
189573,-79.9834274338357,4,1,0,100,0,1
189769,-81.6067387580597,4,1,0,100,0,1
189867,-82.4434252605006,4,1,0,100,0,1
189965,-83.2973766324203,4,1,0,100,0,1
190161,-85.0594735839299,4,1,0,100,0,1
190357,-86.8978090455405,4,1,0,100,0,1
190456,-87.8470617793247,4,1,0,100,0,1
190750,-90.8235516368221,4,1,0,100,0,1
191142,-92.5925925925926,4,1,0,100,0,1
191338,-94.3396226415094,4,1,0,100,0,1
191436,-96.1538461538461,4,1,0,100,0,1
191534,-98.0392156862745,4,1,0,100,0,1
191926,-90.9090909090909,4,1,0,100,0,1
192122,-88.2532302888616,4,1,0,100,0,1
192318,-85.7480704540446,4,1,0,100,0,1
192416,-84.5480778417243,4,1,0,100,0,1
192710,-81.1415644418191,4,1,0,100,0,1
192906,-79.0190886412431,4,1,0,100,0,1
193005,-77.9989220548972,4,1,0,100,0,1
193103,-77.0047612043853,4,1,0,100,0,1
193429,-74.6268656716418,4,1,0,100,0,1
193495,-75.7575757575758,4,1,0,100,0,1
193691,-79.3650793650794,4,1,0,100,0,1
193789,-81.3008130081301,4,1,0,100,0,1
193887,-83.3333333333333,4,1,0,100,0,1
194279,-81.9672131147541,4,1,0,100,0,1
194377,-84.7457627118644,4,1,0,100,0,1
194475,-87.719298245614,4,1,0,100,0,1
194671,-90.9090909090909,4,1,0,100,0,1
194867,-86.9565217391304,4,1,0,100,0,1
194965,-85.7310890077312,4,1,0,100,0,1
195063,-84.5396435977705,4,1,0,100,0,1
195161,-83.3809299475117,4,1,0,100,0,1
195259,-82.253549857578,4,1,0,100,0,1
195357,-81.1561834519296,4,1,0,100,0,1
195456,-80.0877762027182,4,1,0,100,0,1
195652,-86.9565217391304,4,1,0,100,0,1
195750,-85.7142612244968,4,1,0,100,0,1
195848,-84.5070660583285,4,1,0,100,0,1
195946,-83.3333333333333,4,1,0,100,0,1
196044,-82.1917583036279,4,1,0,100,0,1
196142,-81.3008130081301,4,1,0,100,0,1
196240,-80,4,1,0,100,0,1
196436,-86.9565217391304,4,1,0,100,0,1
196534,-85.7142612244968,4,1,0,100,0,1
196632,-84.5070660583285,4,1,0,100,0,1
196730,-83.3333333333333,4,1,0,100,0,1
196828,-82.1917583036279,4,1,0,100,0,1
196926,-81.0811029948927,4,1,0,100,0,1
197024,-80,4,1,0,100,0,1
197220,-86.9565217391304,4,1,0,100,0,1
197318,-85.7142612244968,4,1,0,100,0,1
197416,-84.5070660583285,4,1,0,100,0,1
197514,-83.3333333333333,4,1,0,100,0,1
197612,-82.1917583036279,4,1,0,100,0,1
197710,-81.0811029948927,4,1,0,100,0,1
197808,-80,4,1,0,100,0,1
198005,-86.9565217391304,4,1,0,100,0,1
198103,-85.7142612244968,4,1,0,100,0,1
198201,-84.5070660583285,4,1,0,100,0,1
198299,-83.3333333333333,4,1,0,100,0,1
198397,-82.1917583036279,4,1,0,100,0,1
198495,-81.0811029948927,4,1,0,100,0,1
198593,-80,4,1,0,100,0,1
198789,-86.9565217391304,4,1,0,100,0,1
198887,-85.7142612244968,4,1,0,100,0,1
198985,-84.5070660583285,4,1,0,100,0,1
199083,-83.3333333333333,4,1,0,100,0,1
199181,-82.1917583036279,4,1,0,100,0,1
199279,-81.3008130081301,4,1,0,100,0,1
199377,-80,4,1,0,100,0,1
199573,-86.9565217391304,4,1,0,100,0,1
199671,-85.5352969956582,4,1,0,100,0,1
199769,-84.1597115678365,4,1,0,100,0,1
199867,-82.8277390097944,4,1,0,100,0,1
199965,-81.5372710943035,4,1,0,100,0,1
200063,-80.286397637653,4,1,0,100,0,1
200161,-79.0732613766655,4,1,0,100,0,1
200259,-77.8963013278204,4,1,0,100,0,1
200357,-76.7538641732918,4,1,0,100,0,1
200456,-75.6443956958339,4,1,0,100,0,1
200554,-74.5666002775369,4,1,0,100,0,1
200652,-73.5190866576826,4,1,0,100,0,1
200750,-72.5005963174047,4,1,0,100,0,1
200848,-71.5098883873662,4,1,0,100,0,1
200946,392.156862745098,4,1,0,100,1,9
200984,392.156862745098,4,1,0,100,1,0
200984,-68.9655172413793,4,1,0,100,0,0
201082,-68.9655172413793,4,1,0,50,0,0
201768,-117.647058823529,4,1,0,50,0,0
202160,-125,4,1,0,50,0,0
202552,-133.333333333333,4,1,0,50,0,0

[HitObjects]
256,192,25270,5,12,0:0:0:0:
256,192,25662,1,0,0:0:0:0:
256,192,26054,1,8,0:0:0:0:
256,192,26838,1,0,0:0:0:0:
256,192,27230,1,0,0:0:0:0:
256,192,27622,1,8,0:0:0:0:
256,192,28407,1,8,0:0:0:0:
256,192,28603,1,8,0:0:0:0:
256,192,28799,1,0,0:0:0:0:
256,192,29191,1,8,0:0:0:0:
256,192,29975,1,0,0:0:0:0:
256,192,30171,1,8,0:0:0:0:
256,192,30368,1,0,0:0:0:0:
256,192,30760,1,8,0:0:0:0:
256,192,31544,1,0,0:0:0:0:
256,192,31936,1,0,0:0:0:0:
256,192,32328,1,8,0:0:0:0:
256,192,33113,1,0,0:0:0:0:
256,192,33505,1,0,0:0:0:0:
256,192,33897,1,8,0:0:0:0:
256,192,34681,1,8,0:0:0:0:
256,192,34877,1,8,0:0:0:0:
256,192,35073,1,0,0:0:0:0:
256,192,35466,1,8,0:0:0:0:
256,192,36250,1,0,0:0:0:0:
256,192,36446,1,8,0:0:0:0:
256,192,36642,1,0,0:0:0:0:
256,192,37034,1,8,0:0:0:0:
256,192,37426,1,0,0:0:0:0:
256,192,37819,1,0,0:0:0:0:
256,192,38015,1,8,0:0:0:0:
256,192,38211,1,8,0:0:0:0:
256,192,38407,1,0,0:0:0:0:
256,192,38603,1,8,0:0:0:0:
256,192,38995,1,0,0:0:0:0:
256,192,39387,1,0,0:0:0:0:
256,192,39583,1,8,0:0:0:0:
256,192,39779,1,0,0:0:0:0:
256,192,40172,1,8,0:0:0:0:
256,192,40564,1,0,0:0:0:0:
256,192,40956,1,8,0:0:0:0:
256,192,41152,1,8,0:0:0:0:
256,192,41348,1,0,0:0:0:0:
256,192,41544,1,0,0:0:0:0:
256,192,41740,1,8,0:0:0:0:
256,192,42132,1,0,0:0:0:0:
256,192,42524,1,0,0:0:0:0:
256,192,42721,1,8,0:0:0:0:
256,192,42917,1,8,0:0:0:0:
256,192,43113,1,0,0:0:0:0:
256,192,43309,1,8,0:0:0:0:
256,192,43701,1,0,0:0:0:0:
256,192,44093,1,0,0:0:0:0:
256,192,44289,1,8,0:0:0:0:
256,192,44485,1,0,0:0:0:0:
256,192,44877,1,8,0:0:0:0:
256,192,45270,1,0,0:0:0:0:
256,192,45662,1,0,0:0:0:0:
256,192,45858,1,8,0:0:0:0:
256,192,46054,1,0,0:0:0:0:
256,192,46250,1,0,0:0:0:0:
256,192,46446,1,8,0:0:0:0:
256,192,46838,1,0,0:0:0:0:
256,192,47034,1,0,0:0:0:0:
256,192,47230,1,8,0:0:0:0:
256,192,47622,1,0,0:0:0:0:
256,192,47819,1,0,0:0:0:0:
256,192,47917,1,0,0:0:0:0:
256,192,48015,1,8,0:0:0:0:
256,192,48211,1,0,0:0:0:0:
256,192,48407,1,8,0:0:0:0:
256,192,48505,1,8,0:0:0:0:
256,192,48603,1,0,0:0:0:0:
256,192,48799,1,8,0:0:0:0:
256,192,48897,1,8,0:0:0:0:
256,192,48995,1,0,0:0:0:0:
256,192,49093,1,8,0:0:0:0:
256,192,49191,1,0,0:0:0:0:
256,192,49289,1,0,0:0:0:0:
256,192,49387,1,8,0:0:0:0:
256,192,49583,1,8,0:0:0:0:
256,192,49681,1,8,0:0:0:0:
256,192,49779,1,0,0:0:0:0:
256,192,49877,1,8,0:0:0:0:
256,192,49975,1,0,0:0:0:0:
256,192,50172,1,8,0:0:0:0:
256,192,50359,5,4,0:0:0:0:
256,192,50554,1,0,0:0:0:0:
256,192,50750,1,8,0:0:0:0:
256,192,50946,1,8,0:0:0:0:
256,192,51142,1,0,0:0:0:0:
256,192,51926,1,0,0:0:0:0:
256,192,52024,1,0,0:0:0:0:
256,192,52122,1,8,0:0:0:0:
256,192,52220,1,0,0:0:0:0:
256,192,52318,1,8,0:0:0:0:
256,192,52416,1,8,0:0:0:0:
256,192,52514,1,0,0:0:0:0:
256,192,52612,1,0,0:0:0:0:
256,192,52710,1,8,0:0:0:0:
256,192,53103,1,8,0:0:0:0:
256,192,53495,1,0,0:0:0:0:
256,192,53593,1,8,0:0:0:0:
256,192,53691,1,8,0:0:0:0:
256,192,53789,1,0,0:0:0:0:
256,192,53887,1,8,0:0:0:0:
256,192,53985,1,8,0:0:0:0:
256,192,54083,1,0,0:0:0:0:
256,192,54181,1,0,0:0:0:0:
256,192,54279,1,8,0:0:0:0:
256,192,54377,1,8,0:0:0:0:
256,192,54475,1,8,0:0:0:0:
256,192,54573,1,0,0:0:0:0:
256,192,54671,1,8,0:0:0:0:
256,192,54769,1,8,0:0:0:0:
256,192,54867,1,0,0:0:0:0:
256,192,54965,1,8,0:0:0:0:
256,192,55063,1,0,0:0:0:0:
256,192,55161,1,0,0:0:0:0:
256,192,55259,1,8,0:0:0:0:
256,192,55358,1,8,0:0:0:0:
256,192,55456,1,0,0:0:0:0:
256,192,55554,1,0,0:0:0:0:
256,192,55652,1,8,0:0:0:0:
256,192,55750,1,0,0:0:0:0:
256,192,55848,1,8,0:0:0:0:
256,192,55946,1,8,0:0:0:0:
256,192,56044,1,0,0:0:0:0:
256,192,56142,1,0,0:0:0:0:
256,192,56240,1,8,0:0:0:0:
256,192,56338,1,0,0:0:0:0:
256,192,56436,1,8,0:0:0:0:
256,192,56534,1,8,0:0:0:0:
256,192,56632,1,0,0:0:0:0:
256,192,56730,1,8,0:0:0:0:
256,192,56828,1,8,0:0:0:0:
256,192,56926,1,8,0:0:0:0:
256,192,57024,1,0,0:0:0:0:
256,192,57122,1,0,0:0:0:0:
256,192,57220,1,8,0:0:0:0:
256,192,57318,1,0,0:0:0:0:
256,192,57416,1,8,0:0:0:0:
256,192,57514,1,8,0:0:0:0:
256,192,57612,1,0,0:0:0:0:
256,192,57710,1,0,0:0:0:0:
256,192,57808,1,8,0:0:0:0:
256,192,57907,1,8,0:0:0:0:
256,192,58005,1,0,0:0:0:0:
256,192,58103,1,8,0:0:0:0:
256,192,58201,1,0,0:0:0:0:
256,192,58299,1,8,0:0:0:0:
256,192,58397,1,8,0:0:0:0:
256,192,58495,1,8,0:0:0:0:
256,192,58593,1,0,0:0:0:0:
256,192,58691,1,0,0:0:0:0:
256,192,58789,1,8,0:0:0:0:
256,192,58887,1,0,0:0:0:0:
256,192,58985,1,8,0:0:0:0:
256,192,59083,1,8,0:0:0:0:
256,192,59181,1,0,0:0:0:0:
256,192,59279,1,8,0:0:0:0:
256,192,59377,1,0,0:0:0:0:
256,192,59475,1,0,0:0:0:0:
256,192,59573,1,8,0:0:0:0:
256,192,59671,1,8,0:0:0:0:
256,192,59769,1,0,0:0:0:0:
256,192,59867,1,8,0:0:0:0:
256,192,59965,1,8,0:0:0:0:
256,192,60063,1,8,0:0:0:0:
256,192,60161,1,0,0:0:0:0:
256,192,60259,1,0,0:0:0:0:
256,192,60358,1,8,0:0:0:0:
256,192,60456,1,0,0:0:0:0:
256,192,60554,1,8,0:0:0:0:
256,192,60652,1,8,0:0:0:0:
256,192,60750,1,0,0:0:0:0:
256,192,60848,1,0,0:0:0:0:
256,192,60946,1,8,0:0:0:0:
256,192,61044,1,8,0:0:0:0:
256,192,61142,1,0,0:0:0:0:
256,192,61240,1,8,0:0:0:0:
256,192,61338,1,0,0:0:0:0:
256,192,61436,1,0,0:0:0:0:
256,192,61534,1,8,0:0:0:0:
256,192,61632,1,8,0:0:0:0:
256,192,61730,1,0,0:0:0:0:
256,192,61828,1,8,0:0:0:0:
256,192,61926,1,8,0:0:0:0:
256,192,62024,1,0,0:0:0:0:
256,192,62122,1,8,0:0:0:0:
256,192,62514,1,8,0:0:0:0:
256,192,62612,1,8,0:0:0:0:
256,192,62711,1,8,0:0:0:0:
256,192,62907,1,4,0:0:0:0:
256,192,63103,1,0,0:0:0:0:
256,192,63299,1,8,0:0:0:0:
256,192,63495,1,0,0:0:0:0:
256,192,63691,1,8,0:0:0:0:
256,192,64279,1,0,0:0:0:0:
256,192,64475,1,0,0:0:0:0:
256,192,64573,1,8,0:0:0:0:
256,192,64671,1,8,0:0:0:0:
256,192,64769,1,0,0:0:0:0:
256,192,64867,1,8,0:0:0:0:
256,192,64965,1,0,0:0:0:0:
256,192,65063,1,0,0:0:0:0:
256,192,65161,1,8,0:0:0:0:
256,192,65259,1,8,0:0:0:0:
256,192,65652,1,8,0:0:0:0:
256,192,66044,1,0,0:0:0:0:
256,192,66142,1,8,0:0:0:0:
256,192,66240,1,8,0:0:0:0:
256,192,66338,1,0,0:0:0:0:
256,192,66436,1,8,0:0:0:0:
256,192,66534,1,8,0:0:0:0:
256,192,66632,1,0,0:0:0:0:
256,192,66730,1,0,0:0:0:0:
256,192,66828,1,8,0:0:0:0:
256,192,66926,1,8,0:0:0:0:
256,192,67024,1,8,0:0:0:0:
256,192,67122,1,0,0:0:0:0:
256,192,67220,1,0,0:0:0:0:
256,192,67318,1,8,0:0:0:0:
256,192,67416,1,0,0:0:0:0:
256,192,67514,1,8,0:0:0:0:
256,192,67612,1,0,0:0:0:0:
256,192,67711,1,0,0:0:0:0:
256,192,67809,1,8,0:0:0:0:
256,192,67907,1,8,0:0:0:0:
256,192,68005,1,0,0:0:0:0:
256,192,68103,1,0,0:0:0:0:
256,192,68201,1,8,0:0:0:0:
256,192,68299,1,0,0:0:0:0:
256,192,68397,1,8,0:0:0:0:
256,192,68789,1,8,0:0:0:0:
256,192,69181,1,0,0:0:0:0:
256,192,69279,1,0,0:0:0:0:
256,192,69377,1,8,0:0:0:0:
256,192,69475,1,8,0:0:0:0:
256,192,69573,1,0,0:0:0:0:
256,192,69671,1,8,0:0:0:0:
256,192,69769,1,0,0:0:0:0:
256,192,69867,1,0,0:0:0:0:
256,192,69965,1,8,0:0:0:0:
256,192,70063,1,8,0:0:0:0:
256,192,70161,1,8,0:0:0:0:
256,192,70259,1,0,0:0:0:0:
256,192,70358,1,8,0:0:0:0:
256,192,70456,1,8,0:0:0:0:
256,192,70554,1,0,0:0:0:0:
256,192,70652,1,8,0:0:0:0:
256,192,70750,1,0,0:0:0:0:
256,192,70848,1,0,0:0:0:0:
256,192,70946,1,8,0:0:0:0:
256,192,71044,1,8,0:0:0:0:
256,192,71142,1,0,0:0:0:0:
256,192,71240,1,0,0:0:0:0:
256,192,71338,1,8,0:0:0:0:
256,192,71436,1,0,0:0:0:0:
256,192,71534,1,8,0:0:0:0:
256,192,71632,1,8,0:0:0:0:
256,192,71730,1,8,0:0:0:0:
256,192,71828,1,0,0:0:0:0:
256,192,71926,1,8,0:0:0:0:
256,192,72024,1,8,0:0:0:0:
256,192,72122,1,0,0:0:0:0:
256,192,72220,1,8,0:0:0:0:
256,192,72318,1,0,0:0:0:0:
256,192,72416,1,8,0:0:0:0:
256,192,72514,1,8,0:0:0:0:
256,192,72612,1,0,0:0:0:0:
256,192,72710,1,8,0:0:0:0:
256,192,72808,1,8,0:0:0:0:
256,192,72907,1,0,0:0:0:0:
256,192,73005,1,0,0:0:0:0:
256,192,73103,1,8,0:0:0:0:
256,192,73201,1,8,0:0:0:0:
256,192,73299,1,8,0:0:0:0:
256,192,73397,1,0,0:0:0:0:
256,192,73495,1,0,0:0:0:0:
256,192,73593,1,8,0:0:0:0:
256,192,73691,1,0,0:0:0:0:
256,192,73789,1,8,0:0:0:0:
256,192,73887,1,0,0:0:0:0:
256,192,73985,1,0,0:0:0:0:
256,192,74083,1,8,0:0:0:0:
256,192,74181,1,8,0:0:0:0:
256,192,74279,1,0,0:0:0:0:
256,192,74377,1,8,0:0:0:0:
256,192,74475,1,8,0:0:0:0:
256,192,74573,1,0,0:0:0:0:
256,192,74671,1,8,0:0:0:0:
256,192,74769,1,8,0:0:0:0:
256,192,74867,1,0,0:0:0:0:
256,192,74965,1,0,0:0:0:0:
256,192,75063,1,8,0:0:0:0:
256,192,75456,5,4,0:0:0:0:
256,192,75848,1,8,0:0:0:0:
256,192,76240,1,0,0:0:0:0:
256,192,77024,1,0,0:0:0:0:
256,192,77220,1,0,0:0:0:0:
256,192,77416,1,8,0:0:0:0:
256,192,77612,1,0,0:0:0:0:
256,192,77808,1,8,0:0:0:0:
256,192,78593,1,0,0:0:0:0:
256,192,78789,1,0,0:0:0:0:
256,192,78985,1,8,0:0:0:0:
256,192,79181,1,8,0:0:0:0:
256,192,79377,1,8,0:0:0:0:
256,192,79573,1,0,0:0:0:0:
256,192,79769,1,8,0:0:0:0:
256,192,79965,1,0,0:0:0:0:
256,192,80161,1,0,0:0:0:0:
256,192,80554,1,0,0:0:0:0:
256,192,80750,1,0,0:0:0:0:
256,192,80946,1,8,0:0:0:0:
256,192,81142,1,0,0:0:0:0:
256,192,81338,1,8,0:0:0:0:
256,192,81534,1,8,0:0:0:0:
256,192,81730,1,0,0:0:0:0:
256,192,82122,1,8,0:0:0:0:
256,192,82318,1,8,0:0:0:0:
256,192,82514,1,8,0:0:0:0:
256,192,82710,1,0,0:0:0:0:
256,192,82907,1,8,0:0:0:0:
256,192,83103,1,0,0:0:0:0:
256,192,83299,1,0,0:0:0:0:
256,192,83691,1,8,0:0:0:0:
256,192,83887,1,0,0:0:0:0:
256,192,84083,1,8,0:0:0:0:
256,192,84279,1,8,0:0:0:0:
256,192,84475,1,0,0:0:0:0:
256,192,84671,1,8,0:0:0:0:
256,192,84867,1,0,0:0:0:0:
256,192,85259,1,0,0:0:0:0:
256,192,85456,1,8,0:0:0:0:
256,192,85652,1,8,0:0:0:0:
256,192,85848,1,0,0:0:0:0:
256,192,86044,1,8,0:0:0:0:
256,192,86240,1,0,0:0:0:0:
256,192,86436,1,0,0:0:0:0:
256,192,86828,1,0,0:0:0:0:
256,192,87024,1,0,0:0:0:0:
256,192,87220,1,8,0:0:0:0:
256,192,87612,1,8,0:0:0:0:
256,192,87710,1,8,0:0:0:0:
256,192,87808,1,8,0:0:0:0:
256,192,88005,1,4,0:0:0:0:
256,192,88397,1,0,0:0:0:0:
256,192,88593,1,0,0:0:0:0:
256,192,88789,1,8,0:0:0:0:
256,192,89377,1,0,0:0:0:0:
256,192,89573,1,0,0:0:0:0:
256,192,89769,1,0,0:0:0:0:
256,192,89867,1,8,0:0:0:0:
256,192,89965,1,8,0:0:0:0:
256,192,90161,1,8,0:0:0:0:
256,192,90358,1,0,0:0:0:0:
256,192,90750,1,0,0:0:0:0:
256,192,91142,1,0,0:0:0:0:
256,192,91338,1,0,0:0:0:0:
256,192,91436,1,0,0:0:0:0:
256,192,91534,1,8,0:0:0:0:
256,192,91730,1,8,0:0:0:0:
256,192,91926,1,0,0:0:0:0:
256,192,92122,1,0,0:0:0:0:
256,192,92318,1,8,0:0:0:0:
256,192,92514,1,8,0:0:0:0:
256,192,92612,1,8,0:0:0:0:
256,192,92710,1,0,0:0:0:0:
256,192,92907,1,0,0:0:0:0:
256,192,93103,1,8,0:0:0:0:
256,192,93299,1,8,0:0:0:0:
256,192,93495,1,0,0:0:0:0:
256,192,93887,1,8,0:0:0:0:
256,192,94279,1,0,0:0:0:0:
256,192,94475,1,0,0:0:0:0:
256,192,94573,1,0,0:0:0:0:
256,192,94671,1,8,0:0:0:0:
256,192,94769,1,8,0:0:0:0:
256,192,94867,1,0,0:0:0:0:
256,192,94965,1,8,0:0:0:0:
256,192,95063,1,0,0:0:0:0:
256,192,95259,1,0,0:0:0:0:
256,192,95358,1,0,0:0:0:0:
256,192,95456,1,8,0:0:0:0:
256,192,95554,1,0,0:0:0:0:
256,192,95652,1,8,0:0:0:0:
256,192,95848,1,0,0:0:0:0:
256,192,96044,1,8,0:0:0:0:
256,192,96142,1,0,0:0:0:0:
256,192,96240,1,8,0:0:0:0:
256,192,96338,1,8,0:0:0:0:
256,192,96436,1,0,0:0:0:0:
256,192,96534,1,0,0:0:0:0:
256,192,96632,1,8,0:0:0:0:
256,192,96828,1,0,0:0:0:0:
256,192,96926,1,8,0:0:0:0:
256,192,97024,1,8,0:0:0:0:
256,192,97122,1,0,0:0:0:0:
256,192,97220,1,8,0:0:0:0:
256,192,97416,1,0,0:0:0:0:
256,192,97612,1,0,0:0:0:0:
256,192,97710,1,8,0:0:0:0:
256,192,97808,1,0,0:0:0:0:
256,192,97907,1,0,0:0:0:0:
256,192,98005,1,8,0:0:0:0:
256,192,98103,1,8,0:0:0:0:
256,192,98201,1,0,0:0:0:0:
256,192,98397,1,0,0:0:0:0:
256,192,98495,1,8,0:0:0:0:
256,192,98593,1,0,0:0:0:0:
256,192,98691,1,0,0:0:0:0:
256,192,98789,1,8,0:0:0:0:
256,192,98985,1,8,0:0:0:0:
256,192,99083,1,0,0:0:0:0:
256,192,99181,1,8,0:0:0:0:
256,192,99279,1,8,0:0:0:0:
256,192,99377,1,0,0:0:0:0:
256,192,99475,1,8,0:0:0:0:
256,192,99573,1,0,0:0:0:0:
256,192,99671,1,0,0:0:0:0:
256,192,99769,1,8,0:0:0:0:
256,192,99965,1,0,0:0:0:0:
256,192,100063,1,0,0:0:0:0:
256,192,100161,1,8,0:0:0:0:
256,192,100259,1,8,0:0:0:0:
256,192,100358,1,8,0:0:0:0:
256,192,100456,1,8,0:0:0:0:
256,192,100554,5,0,0:0:0:0:
256,192,102122,1,8,0:0:0:0:
256,192,103299,1,0,0:0:0:0:
256,192,103364,1,8,0:0:0:0:
256,192,103691,1,8,0:0:0:0:
256,192,104279,1,8,0:0:0:0:
256,192,104867,1,0,0:0:0:0:
256,192,105259,1,0,0:0:0:0:
256,192,106436,1,0,0:0:0:0:
256,192,106828,1,8,0:0:0:0:
256,192,108005,1,8,0:0:0:0:
256,192,108397,1,8,0:0:0:0:
256,192,109573,1,0,0:0:0:0:
256,192,109965,1,8,0:0:0:0:
256,192,111142,1,8,0:0:0:0:
256,192,112318,1,8,0:0:0:0:
256,192,113103,1,0,0:0:0:0:
256,192,114671,1,8,0:0:0:0:
256,192,115848,1,0,0:0:0:0:
256,192,115913,1,8,0:0:0:0:
256,192,116240,1,8,0:0:0:0:
256,192,116828,1,8,0:0:0:0:
256,192,117416,1,0,0:0:0:0:
256,192,117808,1,0,0:0:0:0:
256,192,118985,1,0,0:0:0:0:
256,192,119377,1,8,0:0:0:0:
256,192,120554,1,8,0:0:0:0:
256,192,120946,1,8,0:0:0:0:
256,192,122122,1,0,0:0:0:0:
256,192,122514,1,8,0:0:0:0:
256,192,123691,1,8,0:0:0:0:
256,192,124867,1,8,0:0:0:0:
256,192,125652,1,0,0:0:0:0:
256,192,126044,1,0,0:0:0:0:
256,192,126436,1,8,0:0:0:0:
256,192,126828,1,0,0:0:0:0:
256,192,127220,1,0,0:0:0:0:
256,192,127612,1,0,0:0:0:0:
256,192,128005,1,8,0:0:0:0:
256,192,128397,1,0,0:0:0:0:
256,192,128789,1,0,0:0:0:0:
256,192,129181,1,0,0:0:0:0:
256,192,129573,1,8,0:0:0:0:
256,192,129965,1,0,0:0:0:0:
256,192,130358,1,0,0:0:0:0:
256,192,130750,1,0,0:0:0:0:
256,192,131142,1,8,0:0:0:0:
256,192,131534,1,0,0:0:0:0:
256,192,131926,1,0,0:0:0:0:
256,192,132318,1,0,0:0:0:0:
256,192,132710,1,8,0:0:0:0:
256,192,133103,1,0,0:0:0:0:
256,192,133495,1,0,0:0:0:0:
256,192,133887,1,0,0:0:0:0:
256,192,134279,1,8,0:0:0:0:
256,192,134671,1,0,0:0:0:0:
256,192,135063,1,0,0:0:0:0:
256,192,135456,1,0,0:0:0:0:
256,192,135848,1,8,0:0:0:0:
256,192,136240,1,0,0:0:0:0:
256,192,136632,1,0,0:0:0:0:
256,192,137024,1,0,0:0:0:0:
256,192,137416,1,8,0:0:0:0:
256,192,137808,1,0,0:0:0:0:
256,192,138201,1,0,0:0:0:0:
256,192,138593,1,0,0:0:0:0:
256,192,138789,1,0,0:0:0:0:
256,192,138985,1,8,0:0:0:0:
256,192,139083,1,0,0:0:0:0:
256,192,139377,1,8,0:0:0:0:
256,192,139769,1,0,0:0:0:0:
256,192,140161,1,8,0:0:0:0:
256,192,140259,1,0,0:0:0:0:
256,192,140554,1,0,0:0:0:0:
256,192,140946,1,8,0:0:0:0:
256,192,141142,1,8,0:0:0:0:
256,192,141338,1,0,0:0:0:0:
256,192,141730,1,0,0:0:0:0:
256,192,142122,1,8,0:0:0:0:
256,192,142220,1,0,0:0:0:0:
256,192,142514,1,8,0:0:0:0:
256,192,142907,1,8,0:0:0:0:
256,192,143233,1,0,0:0:0:0:
256,192,143299,1,8,0:0:0:0:
256,192,143691,1,0,0:0:0:0:
256,192,144083,1,8,0:0:0:0:
256,192,144279,1,0,0:0:0:0:
256,192,144475,1,0,0:0:0:0:
256,192,144867,1,0,0:0:0:0:
256,192,145259,1,8,0:0:0:0:
256,192,145456,1,8,0:0:0:0:
256,192,145652,1,0,0:0:0:0:
256,192,146044,1,0,0:0:0:0:
256,192,146436,1,8,0:0:0:0:
256,192,146828,1,8,0:0:0:0:
256,192,147024,1,8,0:0:0:0:
256,192,147220,1,0,0:0:0:0:
256,192,147612,1,8,0:0:0:0:
256,192,148005,1,0,0:0:0:0:
256,192,148397,1,0,0:0:0:0:
256,192,148789,1,8,0:0:0:0:
256,192,148985,1,0,0:0:0:0:
256,192,149083,1,8,0:0:0:0:
256,192,149181,1,0,0:0:0:0:
256,192,149377,1,0,0:0:0:0:
256,192,149475,1,0,0:0:0:0:
256,192,149573,1,8,0:0:0:0:
256,192,149671,1,8,0:0:0:0:
256,192,149769,1,0,0:0:0:0:
256,192,149965,1,0,0:0:0:0:
256,192,150063,1,8,0:0:0:0:
256,192,150161,1,0,0:0:0:0:
256,192,150259,1,0,0:0:0:0:
256,192,150358,1,8,0:0:0:0:
256,192,150554,1,0,0:0:0:0:
256,192,150750,5,4,0:0:0:0:
256,192,151534,1,0,0:0:0:0:
256,192,151926,1,8,0:0:0:0:
256,192,152318,1,0,0:0:0:0:
256,192,152710,1,8,0:0:0:0:
256,192,152808,1,0,0:0:0:0:
256,192,153103,1,8,0:0:0:0:
256,192,153495,1,8,0:0:0:0:
256,192,153691,1,0,0:0:0:0:
256,192,153887,1,0,0:0:0:0:
256,192,154279,1,0,0:0:0:0:
256,192,154671,1,8,0:0:0:0:
256,192,154769,1,0,0:0:0:0:
256,192,155063,1,0,0:0:0:0:
256,192,155259,1,0,0:0:0:0:
256,192,155456,1,8,0:0:0:0:
256,192,155782,1,0,0:0:0:0:
256,192,155848,1,8,0:0:0:0:
256,192,156044,1,0,0:0:0:0:
256,192,156240,1,8,0:0:0:0:
256,192,156632,1,0,0:0:0:0:
256,192,156828,1,8,0:0:0:0:
256,192,157024,1,0,0:0:0:0:
256,192,157416,1,0,0:0:0:0:
256,192,157808,1,8,0:0:0:0:
256,192,158005,1,8,0:0:0:0:
256,192,158201,1,0,0:0:0:0:
256,192,158397,1,0,0:0:0:0:
256,192,158593,1,8,0:0:0:0:
256,192,158985,1,0,0:0:0:0:
256,192,159377,1,8,0:0:0:0:
256,192,159573,1,8,0:0:0:0:
256,192,159769,1,0,0:0:0:0:
256,192,160161,1,0,0:0:0:0:
256,192,160554,1,0,0:0:0:0:
256,192,160946,1,8,0:0:0:0:
256,192,161338,1,8,0:0:0:0:
256,192,161534,1,8,0:0:0:0:
256,192,161730,1,0,0:0:0:0:
256,192,161926,1,8,0:0:0:0:
256,192,162122,1,0,0:0:0:0:
256,192,162514,1,8,0:0:0:0:
256,192,162907,1,8,0:0:0:0:
256,192,163005,1,8,0:0:0:0:
256,192,163103,1,8,0:0:0:0:
256,192,163299,5,4,0:0:0:0:
256,192,163691,1,0,0:0:0:0:
256,192,163887,1,0,0:0:0:0:
256,192,164083,1,8,0:0:0:0:
256,192,164181,1,0,0:0:0:0:
256,192,164475,1,8,0:0:0:0:
256,192,164671,1,8,0:0:0:0:
256,192,164769,1,8,0:0:0:0:
256,192,164867,1,0,0:0:0:0:
256,192,165063,1,0,0:0:0:0:
256,192,165259,1,8,0:0:0:0:
256,192,165358,1,0,0:0:0:0:
256,192,165652,1,8,0:0:0:0:
256,192,166044,1,8,0:0:0:0:
256,192,166240,1,0,0:0:0:0:
256,192,166338,1,8,0:0:0:0:
256,192,166436,1,0,0:0:0:0:
256,192,166828,1,0,0:0:0:0:
256,192,167024,1,0,0:0:0:0:
256,192,167220,1,8,0:0:0:0:
256,192,167318,1,0,0:0:0:0:
256,192,167612,1,8,0:0:0:0:
256,192,167808,1,0,0:0:0:0:
256,192,167907,1,0,0:0:0:0:
256,192,168005,1,8,0:0:0:0:
256,192,168331,1,0,0:0:0:0:
256,192,168397,1,8,0:0:0:0:
256,192,168593,1,0,0:0:0:0:
256,192,168789,1,8,0:0:0:0:
256,192,169181,1,8,0:0:0:0:
256,192,169279,1,8,0:0:0:0:
256,192,169377,1,0,0:0:0:0:
256,192,169573,1,0,0:0:0:0:
256,192,169769,1,0,0:0:0:0:
256,192,169867,1,0,0:0:0:0:
256,192,169965,1,8,0:0:0:0:
256,192,170063,1,0,0:0:0:0:
256,192,170161,1,0,0:0:0:0:
256,192,170259,1,0,0:0:0:0:
256,192,170358,1,8,0:0:0:0:
256,192,170554,1,8,0:0:0:0:
256,192,170652,1,8,0:0:0:0:
256,192,170750,1,0,0:0:0:0:
256,192,170848,1,8,0:0:0:0:
256,192,170946,1,0,0:0:0:0:
256,192,171142,1,0,0:0:0:0:
256,192,171338,1,0,0:0:0:0:
256,192,171436,1,0,0:0:0:0:
256,192,171534,1,8,0:0:0:0:
256,192,171632,1,8,0:0:0:0:
256,192,171730,1,0,0:0:0:0:
256,192,171828,1,0,0:0:0:0:
256,192,171926,1,8,0:0:0:0:
256,192,172122,1,8,0:0:0:0:
256,192,172220,1,0,0:0:0:0:
256,192,172318,1,8,0:0:0:0:
256,192,172416,1,8,0:0:0:0:
256,192,172514,1,0,0:0:0:0:
256,192,172612,1,8,0:0:0:0:
256,192,172710,1,0,0:0:0:0:
256,192,172907,1,0,0:0:0:0:
256,192,173005,1,0,0:0:0:0:
256,192,173103,1,8,0:0:0:0:
256,192,173201,1,8,0:0:0:0:
256,192,173299,1,0,0:0:0:0:
256,192,173397,1,0,0:0:0:0:
256,192,173495,1,8,0:0:0:0:
256,192,173691,1,0,0:0:0:0:
256,192,173789,1,0,0:0:0:0:
256,192,173887,1,8,0:0:0:0:
256,192,173985,1,8,0:0:0:0:
256,192,174083,1,0,0:0:0:0:
256,192,174279,1,0,0:0:0:0:
256,192,174475,1,8,0:0:0:0:
256,192,174573,1,8,0:0:0:0:
256,192,174671,1,0,0:0:0:0:
256,192,174769,1,0,0:0:0:0:
256,192,174867,1,8,0:0:0:0:
256,192,174965,1,0,0:0:0:0:
256,192,175063,1,8,0:0:0:0:
256,192,175259,1,8,0:0:0:0:
256,192,175358,1,0,0:0:0:0:
256,192,175456,1,8,0:0:0:0:
256,192,175554,1,8,0:0:0:0:
256,192,175652,1,8,0:0:0:0:
256,192,175750,1,8,0:0:0:0:
256,192,175848,5,4,0:0:0:0:
256,192,176632,1,8,0:0:0:0:
256,192,176730,1,0,0:0:0:0:
256,192,177024,1,0,0:0:0:0:
256,192,177416,1,8,0:0:0:0:
256,192,177808,1,8,0:0:0:0:
256,192,177907,1,0,0:0:0:0:
256,192,178201,1,8,0:0:0:0:
256,192,178593,1,8,0:0:0:0:
256,192,178789,1,0,0:0:0:0:
256,192,178985,1,0,0:0:0:0:
256,192,179377,1,0,0:0:0:0:
256,192,179769,1,8,0:0:0:0:
256,192,179867,1,0,0:0:0:0:
256,192,180161,1,8,0:0:0:0:
256,192,180358,1,0,0:0:0:0:
256,192,180456,1,0,0:0:0:0:
256,192,180554,1,8,0:0:0:0:
256,192,180880,1,0,0:0:0:0:
256,192,180946,1,8,0:0:0:0:
256,192,181338,1,8,0:0:0:0:
256,192,181730,1,8,0:0:0:0:
256,192,181926,1,0,0:0:0:0:
256,192,182122,1,0,0:0:0:0:
256,192,182514,1,0,0:0:0:0:
256,192,182907,1,8,0:0:0:0:
256,192,183103,1,8,0:0:0:0:
256,192,183299,1,0,0:0:0:0:
256,192,183495,1,0,0:0:0:0:
256,192,183593,1,0,0:0:0:0:
256,192,183691,1,8,0:0:0:0:
256,192,184083,1,8,0:0:0:0:
256,192,184475,1,8,0:0:0:0:
256,192,184671,1,8,0:0:0:0:
256,192,184867,1,0,0:0:0:0:
256,192,185259,1,0,0:0:0:0:
256,192,185652,1,0,0:0:0:0:
256,192,185848,1,0,0:0:0:0:
256,192,186044,1,8,0:0:0:0:
256,192,186436,1,8,0:0:0:0:
256,192,186632,1,8,0:0:0:0:
256,192,186828,1,0,0:0:0:0:
256,192,187024,1,8,0:0:0:0:
256,192,187220,1,0,0:0:0:0:
256,192,187612,1,8,0:0:0:0:
256,192,188005,1,8,0:0:0:0:
256,192,188103,1,8,0:0:0:0:
256,192,188201,1,8,0:0:0:0:
256,192,188397,5,4,0:0:0:0:
256,192,188789,1,0,0:0:0:0:
256,192,188985,1,0,0:0:0:0:
256,192,189181,1,8,0:0:0:0:
256,192,189279,1,0,0:0:0:0:
256,192,189573,1,8,0:0:0:0:
256,192,189769,1,8,0:0:0:0:
256,192,189867,1,8,0:0:0:0:
256,192,189965,1,0,0:0:0:0:
256,192,190161,1,0,0:0:0:0:
256,192,190357,1,8,0:0:0:0:
256,192,190456,1,0,0:0:0:0:
256,192,190750,1,8,0:0:0:0:
256,192,191142,1,8,0:0:0:0:
256,192,191338,1,8,0:0:0:0:
256,192,191436,1,0,0:0:0:0:
256,192,191534,1,0,0:0:0:0:
256,192,191926,1,0,0:0:0:0:
256,192,192122,1,0,0:0:0:0:
256,192,192318,1,8,0:0:0:0:
256,192,192416,1,0,0:0:0:0:
256,192,192710,1,8,0:0:0:0:
256,192,192907,1,0,0:0:0:0:
256,192,193005,1,8,0:0:0:0:
256,192,193103,1,0,0:0:0:0:
256,192,193429,1,0,0:0:0:0:
256,192,193495,1,8,0:0:0:0:
256,192,193691,1,0,0:0:0:0:
256,192,193789,1,0,0:0:0:0:
256,192,193887,1,8,0:0:0:0:
256,192,194279,1,8,0:0:0:0:
256,192,194377,1,8,0:0:0:0:
256,192,194475,1,0,0:0:0:0:
256,192,194671,1,0,0:0:0:0:
256,192,194867,1,0,0:0:0:0:
256,192,194965,1,0,0:0:0:0:
256,192,195063,1,8,0:0:0:0:
256,192,195161,1,0,0:0:0:0:
256,192,195259,1,0,0:0:0:0:
256,192,195358,1,0,0:0:0:0:
256,192,195456,1,8,0:0:0:0:
256,192,195652,1,8,0:0:0:0:
256,192,195750,1,0,0:0:0:0:
256,192,195848,1,8,0:0:0:0:
256,192,195946,1,8,0:0:0:0:
256,192,196044,1,0,0:0:0:0:
256,192,196142,1,8,0:0:0:0:
256,192,196240,1,0,0:0:0:0:
256,192,196436,1,0,0:0:0:0:
256,192,196534,1,0,0:0:0:0:
256,192,196632,1,8,0:0:0:0:
256,192,196730,1,8,0:0:0:0:
256,192,196828,1,0,0:0:0:0:
256,192,196926,1,0,0:0:0:0:
256,192,197024,1,8,0:0:0:0:
256,192,197220,1,8,0:0:0:0:
256,192,197318,1,0,0:0:0:0:
256,192,197416,1,8,0:0:0:0:
256,192,197514,1,8,0:0:0:0:
256,192,197612,1,0,0:0:0:0:
256,192,197710,1,0,0:0:0:0:
256,192,197808,1,8,0:0:0:0:
256,192,198005,1,0,0:0:0:0:
256,192,198103,1,0,0:0:0:0:
256,192,198201,1,8,0:0:0:0:
256,192,198299,1,0,0:0:0:0:
256,192,198397,1,0,0:0:0:0:
256,192,198495,1,0,0:0:0:0:
256,192,198593,1,8,0:0:0:0:
256,192,198789,1,8,0:0:0:0:
256,192,198887,1,0,0:0:0:0:
256,192,198985,1,8,0:0:0:0:
256,192,199083,1,8,0:0:0:0:
256,192,199181,1,0,0:0:0:0:
256,192,199279,1,8,0:0:0:0:
256,192,199377,1,0,0:0:0:0:
256,192,199573,1,0,0:0:0:0:
256,192,199671,1,0,0:0:0:0:
256,192,199769,1,8,0:0:0:0:
256,192,199867,1,0,0:0:0:0:
256,192,199965,1,0,0:0:0:0:
256,192,200063,1,8,0:0:0:0:
256,192,200161,1,0,0:0:0:0:
256,192,200259,1,8,0:0:0:0:
256,192,200357,5,8,0:0:0:0:
256,192,200456,1,0,0:0:0:0:
256,192,200554,1,8,0:0:0:0:
256,192,200652,1,8,0:0:0:0:
256,192,200750,1,8,0:0:0:0:
256,192,200848,1,8,0:0:0:0:
256,192,200984,5,0,0:0:0:0:
256,192,201768,1,0,0:0:0:0:
256,192,202160,1,0,0:0:0:0:
256,192,202552,1,8,0:0:0:0:
256,192,202944,1,8,0:0:0:0:
256,192,203042,1,0,0:0:0:0:
256,192,203336,1,8,0:0:0:0:
256,192,203729,1,8,0:0:0:0:
256,192,203925,1,8,0:0:0:0:
256,192,204121,1,0,0:0:0:0:
256,192,204905,1,8,0:0:0:0:
256,192,205003,1,0,0:0:0:0:
256,192,205297,1,0,0:0:0:0:
256,192,205689,1,8,0:0:0:0:
256,192,205984,1,0,0:0:0:0:
256,192,206082,1,8,0:0:0:0:
256,192,206474,1,8,0:0:0:0:
256,192,206866,1,8,0:0:0:0:
256,192,207062,1,0,0:0:0:0:
256,192,207258,1,0,0:0:0:0:
256,192,208042,1,8,0:0:0:0:
256,192,208238,1,8,0:0:0:0:
256,192,208434,1,0,0:0:0:0:
256,192,208827,1,8,0:0:0:0:
256,192,209219,1,8,0:0:0:0:
256,192,209611,1,8,0:0:0:0:
256,192,210003,1,0,0:0:0:0:
256,192,210395,1,8,0:0:0:0:
256,192,211572,1,8,0:0:0:0:
256,192,212748,1,8,0:0:0:0:
256,192,213533,1,0,0:0:0:0:
256,192,214121,1,0,0:0:0:0:
256,192,214317,1,8,0:0:0:0:
256,192,214415,1,0,0:0:0:0:
256,192,214709,1,0,0:0:0:0:
256,192,215101,1,8,0:0:0:0:
256,192,215493,1,8,0:0:0:0:
256,192,215591,1,0,0:0:0:0:
256,192,215885,1,8,0:0:0:0:
256,192,216278,1,8,0:0:0:0:
256,192,216474,1,8,0:0:0:0:
256,192,216670,1,0,0:0:0:0:
256,192,217454,1,8,0:0:0:0:
256,192,217552,1,0,0:0:0:0:
256,192,217846,1,0,0:0:0:0:
256,192,218238,1,8,0:0:0:0:
256,192,218533,1,0,0:0:0:0:
256,192,218631,1,8,0:0:0:0:
256,192,219023,1,8,0:0:0:0:
256,192,219415,1,8,0:0:0:0:
256,192,219611,1,0,0:0:0:0:
256,192,219807,1,0,0:0:0:0:
256,192,220591,1,8,0:0:0:0:
256,192,220787,1,8,0:0:0:0:
256,192,220984,1,0,0:0:0:0:
256,192,221376,1,0,0:0:0:0:
256,192,221768,1,8,0:0:0:0:
256,192,222160,1,8,0:0:0:0:
256,192,222356,1,0,0:0:0:0:
256,192,222552,1,0,0:0:0:0:
256,192,222944,1,0,0:0:0:0:
256,192,224121,1,8,0:0:0:0:
256,192,225297,1,8,0:0:0:0:
