osu file format v14

[General]
AudioFilename: audio.mp3
AudioLeadIn: 0
PreviewTime: 49975
Countdown: 0
SampleSet: Normal
StackLeniency: 0.7
Mode: 1
LetterboxInBreaks: 0
WidescreenStoryboard: 1

[Editor]
Bookmarks: 25270,50358
DistanceSpacing: 3.3
BeatDivisor: 4
GridSize: 32
TimelineZoom: 0.7999998

[Metadata]
Title:Fruits
TitleUnicode:Fruits
Artist:Panda Eyes
ArtistUnicode:Panda Eyes
Creator:Cychloryn
Version:Futsuu
Source:osu!
Tags:featured artist fa mappers guild yoshi stingy capu future bass mg sv instrumental electronic
BeatmapID:2243911
BeatmapSetID:1066593

[Difficulty]
HPDrainRate:7
CircleSize:2
OverallDifficulty:4
ApproachRate:10
SliderMultiplier:1.4
SliderTickRate:1

[Events]
//Background and Video events
0,0,"fruits.jpg",0,0
//Break Periods
//Storyboard Layer 0 (Background)
//Storyboard Layer 1 (Fail)
//Storyboard Layer 2 (Pass)
//Storyboard Layer 3 (Foreground)
//Storyboard Layer 4 (Overlay)
//Storyboard Sound Samples

[TimingPoints]
172,392.156862745098,4,1,0,55,1,0
172,-133.333333333333,4,1,0,55,0,0
44093,-129.87012987013,4,1,0,65,0,0
45662,-125,4,1,0,65,0,0
47230,-120.481927710843,4,1,0,80,0,0
47622,-117.647058823529,4,1,0,80,0,0
48015,-114.942528735632,4,1,0,80,0,0
48407,-112.359550561798,4,1,0,80,0,0
48799,-111.111111111111,4,1,0,85,0,0
49975,-107.52688172043,4,1,0,80,0,0
50358,392.156862745098,4,1,0,100,1,0
50358,-100,4,1,0,100,0,1
62122,-100,4,1,0,100,0,0
62907,-100,4,1,0,100,0,1
75063,-100,4,1,0,75,0,0
94279,-100,4,1,0,80,0,0
100456,-114.942528735632,4,1,0,55,0,0
102122,-133.333333333333,4,1,0,55,0,0
125652,-125,4,1,0,55,0,0
138201,-117.647058823529,4,1,0,60,0,0
142122,-117.647058823529,4,1,0,65,0,0
147612,-111.111111111111,4,1,0,70,0,0
148397,-107.52688172043,4,1,0,80,0,0
150750,-100,4,1,0,80,0,0
163299,-90.9090909090909,4,1,0,90,0,1
175063,-92.5925925925926,4,1,0,90,0,1
175259,-94.3396226415094,4,1,0,90,0,1
175456,-96.1538461538461,4,1,0,90,0,1
175652,-98.0392156862745,4,1,0,90,0,1
175848,-100,4,1,0,85,0,0
188397,-90.9090909090909,4,1,0,100,0,1
200161,-93.4579439252336,4,1,0,100,0,1
200358,-96.1538461538461,4,1,0,100,0,1
200554,-99.009900990099,4,1,0,100,0,1
200946,392.156862745098,4,1,0,100,1,9
200984,392.156862745098,4,1,0,50,1,0
200984,-105.263157894737,4,1,0,50,0,0
202552,-133.333333333333,4,1,0,50,0,0

[HitObjects]
256,192,25270,5,12,0:0:0:0:
256,192,25662,1,0,0:0:0:0:
256,192,26054,1,8,0:0:0:0:
256,192,26838,1,0,0:0:0:0:
256,192,27230,1,0,0:0:0:0:
256,192,27622,1,8,0:0:0:0:
256,192,28407,1,8,0:0:0:0:
256,192,28799,1,0,0:0:0:0:
256,192,29191,1,8,0:0:0:0:
256,192,29975,1,0,0:0:0:0:
256,192,30368,1,8,0:0:0:0:
256,192,30760,1,8,0:0:0:0:
256,192,31544,1,0,0:0:0:0:
256,192,31936,1,0,0:0:0:0:
256,192,32328,1,8,0:0:0:0:
256,192,33113,1,0,0:0:0:0:
256,192,33505,1,0,0:0:0:0:
256,192,33897,1,8,0:0:0:0:
256,192,34681,1,8,0:0:0:0:
256,192,35073,1,0,0:0:0:0:
256,192,35466,1,8,0:0:0:0:
256,192,36250,1,0,0:0:0:0:
256,192,36642,1,8,0:0:0:0:
256,192,37034,1,8,0:0:0:0:
256,192,37819,1,8,0:0:0:0:
256,192,38211,1,0,0:0:0:0:
256,192,38603,1,8,0:0:0:0:
256,192,39387,1,0,0:0:0:0:
256,192,39779,1,0,0:0:0:0:
256,192,40172,1,8,0:0:0:0:
256,192,40956,1,8,0:0:0:0:
256,192,41348,1,0,0:0:0:0:
256,192,41740,1,8,0:0:0:0:
256,192,42524,1,0,0:0:0:0:
256,192,42917,1,8,0:0:0:0:
256,192,43309,1,8,0:0:0:0:
256,192,44093,1,0,0:0:0:0:
256,192,44485,1,0,0:0:0:0:
256,192,44877,1,8,0:0:0:0:
256,192,45662,1,0,0:0:0:0:
256,192,46054,1,0,0:0:0:0:
256,192,46446,1,8,0:0:0:0:
256,192,47230,1,8,0:0:0:0:
256,192,47622,1,0,0:0:0:0:
256,192,48015,1,8,0:0:0:0:
256,192,48407,1,0,0:0:0:0:
256,192,48799,1,8,0:0:0:0:
256,192,49191,1,0,0:0:0:0:
256,192,49387,1,0,0:0:0:0:
256,192,49583,1,8,0:0:0:0:
256,192,49975,1,8,0:0:0:0:
256,192,50358,1,4,0:0:0:0:
256,192,50750,1,8,0:0:0:0:
256,192,50946,1,8,0:0:0:0:
256,192,51142,1,0,0:0:0:0:
256,192,51926,1,0,0:0:0:0:
256,192,52318,1,8,0:0:0:0:
256,192,52514,1,0,0:0:0:0:
256,192,52710,1,8,0:0:0:0:
256,192,53103,1,8,0:0:0:0:
256,192,53495,1,0,0:0:0:0:
256,192,53691,1,8,0:0:0:0:
256,192,53887,1,8,0:0:0:0:
256,192,54083,1,0,0:0:0:0:
256,192,54279,1,8,0:0:0:0:
256,192,54671,1,0,0:0:0:0:
256,192,54867,1,8,0:0:0:0:
256,192,55063,1,0,0:0:0:0:
256,192,55456,1,0,0:0:0:0:
256,192,55848,1,8,0:0:0:0:
256,192,56632,1,0,0:0:0:0:
256,192,56828,1,8,0:0:0:0:
256,192,57024,1,0,0:0:0:0:
256,192,57220,1,0,0:0:0:0:
256,192,57416,1,8,0:0:0:0:
256,192,57808,1,8,0:0:0:0:
256,192,58005,1,0,0:0:0:0:
256,192,58201,1,0,0:0:0:0:
256,192,58593,1,0,0:0:0:0:
256,192,58985,1,8,0:0:0:0:
256,192,59769,1,0,0:0:0:0:
256,192,59965,1,8,0:0:0:0:
256,192,60161,1,8,0:0:0:0:
256,192,60358,1,0,0:0:0:0:
256,192,60554,1,8,0:0:0:0:
256,192,60946,1,0,0:0:0:0:
256,192,61142,1,8,0:0:0:0:
256,192,61338,1,0,0:0:0:0:
256,192,61730,1,0,0:0:0:0:
256,192,62122,1,8,0:0:0:0:
256,192,62907,1,4,0:0:0:0:
256,192,63299,1,0,0:0:0:0:
256,192,63495,1,8,0:0:0:0:
256,192,63691,1,8,0:0:0:0:
256,192,64279,1,0,0:0:0:0:
256,192,64475,1,0,0:0:0:0:
256,192,64867,1,8,0:0:0:0:
256,192,65063,1,0,0:0:0:0:
256,192,65259,1,8,0:0:0:0:
256,192,65652,1,8,0:0:0:0:
256,192,66044,1,0,0:0:0:0:
256,192,66240,1,8,0:0:0:0:
256,192,66436,1,8,0:0:0:0:
256,192,66632,1,0,0:0:0:0:
256,192,66828,1,8,0:0:0:0:
256,192,67220,1,0,0:0:0:0:
256,192,67416,1,8,0:0:0:0:
256,192,67612,1,0,0:0:0:0:
256,192,68005,1,0,0:0:0:0:
256,192,68397,1,8,0:0:0:0:
256,192,69181,1,0,0:0:0:0:
256,192,69377,1,0,0:0:0:0:
256,192,69573,1,8,0:0:0:0:
256,192,69769,1,0,0:0:0:0:
256,192,69965,1,8,0:0:0:0:
256,192,70358,1,0,0:0:0:0:
256,192,70554,1,8,0:0:0:0:
256,192,70750,1,0,0:0:0:0:
256,192,71142,1,0,0:0:0:0:
256,192,71534,1,8,0:0:0:0:
256,192,72318,1,0,0:0:0:0:
256,192,72514,1,8,0:0:0:0:
256,192,72710,1,0,0:0:0:0:
256,192,72907,1,0,0:0:0:0:
256,192,73103,1,8,0:0:0:0:
256,192,73495,1,8,0:0:0:0:
256,192,73691,1,0,0:0:0:0:
256,192,73887,1,0,0:0:0:0:
256,192,74279,1,0,0:0:0:0:
256,192,74671,1,8,0:0:0:0:
256,192,75456,5,4,0:0:0:0:
256,192,76240,1,0,0:0:0:0:
256,192,77024,1,0,0:0:0:0:
256,192,77416,1,8,0:0:0:0:
256,192,77808,1,0,0:0:0:0:
256,192,78593,1,0,0:0:0:0:
256,192,78985,1,8,0:0:0:0:
256,192,79377,1,8,0:0:0:0:
256,192,79769,1,8,0:0:0:0:
256,192,79965,1,0,0:0:0:0:
256,192,80161,1,0,0:0:0:0:
256,192,80554,1,0,0:0:0:0:
256,192,80946,1,8,0:0:0:0:
256,192,81730,1,0,0:0:0:0:
256,192,82122,1,8,0:0:0:0:
256,192,82514,1,0,0:0:0:0:
256,192,82907,1,8,0:0:0:0:
256,192,83103,1,0,0:0:0:0:
256,192,83299,1,0,0:0:0:0:
256,192,83691,1,0,0:0:0:0:
256,192,84083,1,8,0:0:0:0:
256,192,84867,1,0,0:0:0:0:
256,192,85259,1,8,0:0:0:0:
256,192,85652,1,0,0:0:0:0:
256,192,86044,1,0,0:0:0:0:
256,192,86240,1,8,0:0:0:0:
256,192,86436,1,0,0:0:0:0:
256,192,86828,1,0,0:0:0:0:
256,192,87220,1,8,0:0:0:0:
256,192,88005,1,4,0:0:0:0:
256,192,88789,1,8,0:0:0:0:
256,192,89377,1,0,0:0:0:0:
256,192,89573,1,0,0:0:0:0:
256,192,89965,1,8,0:0:0:0:
256,192,90161,1,0,0:0:0:0:
256,192,90358,1,8,0:0:0:0:
256,192,91142,1,0,0:0:0:0:
256,192,91534,1,8,0:0:0:0:
256,192,91926,1,0,0:0:0:0:
256,192,92318,1,8,0:0:0:0:
256,192,92514,1,8,0:0:0:0:
256,192,92710,1,0,0:0:0:0:
256,192,93103,1,0,0:0:0:0:
256,192,93495,1,8,0:0:0:0:
256,192,94279,1,0,0:0:0:0:
256,192,94475,1,0,0:0:0:0:
256,192,94671,1,8,0:0:0:0:
256,192,95063,1,8,0:0:0:0:
256,192,95456,1,8,0:0:0:0:
256,192,95652,1,8,0:0:0:0:
256,192,95848,1,0,0:0:0:0:
256,192,96240,1,0,0:0:0:0:
256,192,96632,1,8,0:0:0:0:
256,192,97024,1,8,0:0:0:0:
256,192,97220,1,8,0:0:0:0:
256,192,97416,1,0,0:0:0:0:
256,192,97808,1,0,0:0:0:0:
256,192,98201,1,8,0:0:0:0:
256,192,98593,1,0,0:0:0:0:
256,192,98789,1,8,0:0:0:0:
256,192,98985,1,0,0:0:0:0:
256,192,99377,1,0,0:0:0:0:
256,192,99769,1,8,0:0:0:0:
256,192,100554,1,0,0:0:0:0:
256,192,102122,1,8,0:0:0:0:
256,192,103299,1,0,0:0:0:0:
256,192,103691,1,8,0:0:0:0:
256,192,104279,1,8,0:0:0:0:
256,192,104867,1,0,0:0:0:0:
256,192,105259,1,0,0:0:0:0:
256,192,106436,1,0,0:0:0:0:
256,192,106828,1,8,0:0:0:0:
256,192,108005,1,0,0:0:0:0:
256,192,108397,1,8,0:0:0:0:
256,192,109573,1,8,0:0:0:0:
256,192,109965,1,8,0:0:0:0:
256,192,111142,1,8,0:0:0:0:
256,192,112318,1,8,0:0:0:0:
256,192,113103,1,0,0:0:0:0:
256,192,114671,1,8,0:0:0:0:
256,192,115848,1,0,0:0:0:0:
256,192,116240,1,8,0:0:0:0:
256,192,116828,1,8,0:0:0:0:
256,192,117416,1,0,0:0:0:0:
256,192,117808,1,0,0:0:0:0:
256,192,118985,1,0,0:0:0:0:
256,192,119377,1,8,0:0:0:0:
256,192,120554,1,0,0:0:0:0:
256,192,120946,1,8,0:0:0:0:
256,192,122122,1,8,0:0:0:0:
256,192,122514,1,8,0:0:0:0:
256,192,123691,1,8,0:0:0:0:
256,192,124867,1,8,0:0:0:0:
256,192,125652,1,0,0:0:0:0:
256,192,126044,1,0,0:0:0:0:
256,192,126436,1,8,0:0:0:0:
256,192,127220,1,0,0:0:0:0:
256,192,127612,1,0,0:0:0:0:
256,192,128005,1,8,0:0:0:0:
256,192,128789,1,0,0:0:0:0:
256,192,129181,1,0,0:0:0:0:
256,192,129573,1,8,0:0:0:0:
256,192,130358,1,0,0:0:0:0:
256,192,130750,1,0,0:0:0:0:
256,192,131142,1,8,0:0:0:0:
256,192,131926,1,0,0:0:0:0:
256,192,132318,1,0,0:0:0:0:
256,192,132710,1,8,0:0:0:0:
256,192,133495,1,0,0:0:0:0:
256,192,133887,1,0,0:0:0:0:
256,192,134279,1,8,0:0:0:0:
256,192,135063,1,0,0:0:0:0:
256,192,135456,1,0,0:0:0:0:
256,192,135848,1,8,0:0:0:0:
256,192,136632,1,0,0:0:0:0:
256,192,137024,1,0,0:0:0:0:
256,192,137416,1,8,0:0:0:0:
256,192,138201,1,0,0:0:0:0:
256,192,138593,1,0,0:0:0:0:
256,192,138789,1,0,0:0:0:0:
256,192,138985,1,8,0:0:0:0:
256,192,139377,1,8,0:0:0:0:
256,192,139769,1,0,0:0:0:0:
256,192,140161,1,0,0:0:0:0:
256,192,140554,1,8,0:0:0:0:
256,192,140946,1,0,0:0:0:0:
256,192,141142,1,8,0:0:0:0:
256,192,141338,1,0,0:0:0:0:
256,192,142122,1,0,0:0:0:0:
256,192,142514,1,0,0:0:0:0:
256,192,142907,1,8,0:0:0:0:
256,192,143299,1,8,0:0:0:0:
256,192,143691,1,0,0:0:0:0:
256,192,144083,1,8,0:0:0:0:
256,192,144279,1,0,0:0:0:0:
256,192,144475,1,0,0:0:0:0:
256,192,145259,1,8,0:0:0:0:
256,192,145652,1,0,0:0:0:0:
256,192,146044,1,0,0:0:0:0:
256,192,146436,1,8,0:0:0:0:
256,192,146828,1,8,0:0:0:0:
256,192,147024,1,8,0:0:0:0:
256,192,147220,1,0,0:0:0:0:
256,192,147612,1,0,0:0:0:0:
256,192,148397,1,0,0:0:0:0:
256,192,148789,1,8,0:0:0:0:
256,192,149181,1,0,0:0:0:0:
256,192,149573,1,0,0:0:0:0:
256,192,149769,1,8,0:0:0:0:
256,192,149965,1,0,0:0:0:0:
256,192,150358,1,8,0:0:0:0:
256,192,150750,5,4,0:0:0:0:
256,192,151534,1,0,0:0:0:0:
256,192,151926,1,0,0:0:0:0:
256,192,152318,1,8,0:0:0:0:
256,192,152710,1,8,0:0:0:0:
256,192,152907,1,8,0:0:0:0:
256,192,153103,1,0,0:0:0:0:
256,192,153495,1,8,0:0:0:0:
256,192,153887,1,0,0:0:0:0:
256,192,154671,1,0,0:0:0:0:
256,192,155063,1,0,0:0:0:0:
256,192,155456,1,8,0:0:0:0:
256,192,155848,1,8,0:0:0:0:
256,192,156240,1,0,0:0:0:0:
256,192,156632,1,0,0:0:0:0:
256,192,156828,1,8,0:0:0:0:
256,192,157024,1,0,0:0:0:0:
256,192,157808,1,8,0:0:0:0:
256,192,158005,1,8,0:0:0:0:
256,192,158201,1,0,0:0:0:0:
256,192,158593,1,0,0:0:0:0:
256,192,158985,1,8,0:0:0:0:
256,192,159377,1,8,0:0:0:0:
256,192,159769,1,0,0:0:0:0:
256,192,160161,1,8,0:0:0:0:
256,192,160946,1,0,0:0:0:0:
256,192,161338,1,8,0:0:0:0:
256,192,161534,1,0,0:0:0:0:
256,192,161730,1,0,0:0:0:0:
256,192,162122,1,0,0:0:0:0:
256,192,162514,1,8,0:0:0:0:
256,192,163299,1,4,0:0:0:0:
256,192,163887,1,0,0:0:0:0:
256,192,164083,1,8,0:0:0:0:
256,192,164475,1,8,0:0:0:0:
256,192,164671,1,0,0:0:0:0:
256,192,164867,1,0,0:0:0:0:
256,192,165259,1,8,0:0:0:0:
256,192,165652,1,0,0:0:0:0:
256,192,166044,1,0,0:0:0:0:
256,192,166240,1,8,0:0:0:0:
256,192,166436,1,0,0:0:0:0:
256,192,167220,1,0,0:0:0:0:
256,192,167612,1,0,0:0:0:0:
256,192,167808,1,0,0:0:0:0:
256,192,168005,1,8,0:0:0:0:
256,192,168397,1,8,0:0:0:0:
256,192,168789,1,0,0:0:0:0:
256,192,169573,1,0,0:0:0:0:
256,192,169965,1,0,0:0:0:0:
256,192,170358,1,8,0:0:0:0:
256,192,170554,1,8,0:0:0:0:
256,192,170750,1,0,0:0:0:0:
256,192,171142,1,8,0:0:0:0:
256,192,171534,1,0,0:0:0:0:
256,192,171926,1,8,0:0:0:0:
256,192,172122,1,0,0:0:0:0:
256,192,172318,1,8,0:0:0:0:
256,192,172710,1,0,0:0:0:0:
256,192,173103,1,0,0:0:0:0:
256,192,173495,1,8,0:0:0:0:
256,192,173887,1,8,0:0:0:0:
256,192,174083,1,8,0:0:0:0:
256,192,174279,1,0,0:0:0:0:
256,192,174671,1,0,0:0:0:0:
256,192,175063,1,8,0:0:0:0:
256,192,175259,1,8,0:0:0:0:
256,192,175456,1,8,0:0:0:0:
256,192,175848,5,4,0:0:0:0:
256,192,176632,1,0,0:0:0:0:
256,192,177024,1,0,0:0:0:0:
256,192,177416,1,8,0:0:0:0:
256,192,177808,1,8,0:0:0:0:
256,192,178005,1,8,0:0:0:0:
256,192,178201,1,0,0:0:0:0:
256,192,178593,1,8,0:0:0:0:
256,192,178985,1,0,0:0:0:0:
256,192,179769,1,0,0:0:0:0:
256,192,180161,1,8,0:0:0:0:
256,192,180554,1,0,0:0:0:0:
256,192,180946,1,0,0:0:0:0:
256,192,181338,1,8,0:0:0:0:
256,192,181730,1,8,0:0:0:0:
256,192,181926,1,0,0:0:0:0:
256,192,182122,1,0,0:0:0:0:
256,192,182907,1,8,0:0:0:0:
256,192,183103,1,8,0:0:0:0:
256,192,183299,1,0,0:0:0:0:
256,192,183691,1,8,0:0:0:0:
256,192,184083,1,0,0:0:0:0:
256,192,184475,1,8,0:0:0:0:
256,192,184671,1,0,0:0:0:0:
256,192,184867,1,8,0:0:0:0:
256,192,185259,1,0,0:0:0:0:
256,192,186044,1,0,0:0:0:0:
256,192,186436,1,8,0:0:0:0:
256,192,186632,1,0,0:0:0:0:
256,192,186828,1,0,0:0:0:0:
256,192,187220,1,0,0:0:0:0:
256,192,187612,1,8,0:0:0:0:
256,192,188397,1,4,0:0:0:0:
256,192,188985,1,0,0:0:0:0:
256,192,189181,1,8,0:0:0:0:
256,192,189573,1,8,0:0:0:0:
256,192,189769,1,0,0:0:0:0:
256,192,189965,1,0,0:0:0:0:
256,192,190358,1,8,0:0:0:0:
256,192,190750,1,0,0:0:0:0:
256,192,191142,1,0,0:0:0:0:
256,192,191338,1,8,0:0:0:0:
256,192,191534,1,0,0:0:0:0:
256,192,192318,1,0,0:0:0:0:
256,192,192710,1,0,0:0:0:0:
256,192,192907,1,0,0:0:0:0:
256,192,193103,1,8,0:0:0:0:
256,192,193495,1,8,0:0:0:0:
256,192,193887,1,0,0:0:0:0:
256,192,194671,1,0,0:0:0:0:
256,192,195063,1,8,0:0:0:0:
256,192,195456,1,8,0:0:0:0:
256,192,195652,1,8,0:0:0:0:
256,192,195848,1,0,0:0:0:0:
256,192,196240,1,0,0:0:0:0:
256,192,196632,1,8,0:0:0:0:
256,192,197024,1,8,0:0:0:0:
256,192,197220,1,0,0:0:0:0:
256,192,197416,1,0,0:0:0:0:
256,192,197808,1,8,0:0:0:0:
256,192,198201,1,0,0:0:0:0:
256,192,198593,1,0,0:0:0:0:
256,192,198985,1,8,0:0:0:0:
256,192,199181,1,8,0:0:0:0:
256,192,199377,1,0,0:0:0:0:
256,192,199769,1,0,0:0:0:0:
256,192,200161,1,8,0:0:0:0:
256,192,200358,1,8,0:0:0:0:
256,192,200554,1,8,0:0:0:0:
256,192,200984,1,0,0:0:0:0:
256,192,202552,1,8,0:0:0:0:
256,192,204121,1,8,0:0:0:0:
256,192,205689,1,0,0:0:0:0:
256,192,207258,1,0,0:0:0:0:
256,192,208827,1,8,0:0:0:0:
256,192,210395,1,8,0:0:0:0:
256,192,211572,1,8,0:0:0:0:
256,192,212748,1,8,0:0:0:0:
256,192,213533,1,0,0:0:0:0:
256,192,215101,1,8,0:0:0:0:
256,192,216670,1,8,0:0:0:0:
256,192,218238,1,0,0:0:0:0:
256,192,219807,1,0,0:0:0:0:
256,192,221376,1,8,0:0:0:0:
256,192,222944,1,8,0:0:0:0:
256,192,224121,1,8,0:0:0:0:
256,192,225297,1,8,0:0:0:0:
