osu file format v14

[General]
AudioFilename: audio.mp3
AudioLeadIn: 0
PreviewTime: 94933
Countdown: 0
SampleSet: Normal
StackLeniency: 0.7
Mode: 1
LetterboxInBreaks: 0
WidescreenStoryboard: 0

[Editor]
Bookmarks: 7661,24024,29479,40388,51297,62206,73115,84024,94933,116751,138570,160388,182206,193115,204024,225842,236751,247661,269479,280388,291297,313115,324024,329479,330842,332206,332888,333570,333911,334251,334592,334933,344479
DistanceSpacing: 0.8
BeatDivisor: 4
GridSize: 32
TimelineZoom: 1.4

[Metadata]
Title:Fake Princess
TitleUnicode:Fake Princess
Artist:Panda Eyes
ArtistUnicode:Panda Eyes
Creator:xtrem3x
Version:OniHime
Source:osu!
Tags:Featured Artist FA Super Mario 64 Princess Toadstool Peach's Letter DSG DubstepGutter Continue LP Electronic Instrumental
BeatmapID:2234356
BeatmapSetID:1067216

[Difficulty]
HPDrainRate:5
CircleSize:5
OverallDifficulty:5.5
ApproachRate:5
SliderMultiplier:1.4
SliderTickRate:1

[Events]
//Background and Video events
0,0,"watercolour-1336856_1920.jpg",0,0
//Break Periods
//Storyboard Layer 0 (Background)
//Storyboard Layer 1 (Fail)
//Storyboard Layer 2 (Pass)
//Storyboard Layer 3 (Foreground)
//Storyboard Layer 4 (Overlay)
//Storyboard Sound Samples

[TimingPoints]
-3241,340.909090909091,4,1,0,30,1,0
-3241,-400,4,1,0,30,0,0
29486,-285.714285714286,4,1,0,50,0,0
40395,-222.222222222222,4,1,0,60,0,0
51304,-181.818181818182,4,1,0,70,0,0
62213,-153.846153846154,4,1,0,80,0,0
73122,-133.333333333333,4,1,0,80,0,0
84031,-117.647058823529,4,1,0,80,0,0
94258,-113.636363636364,4,1,0,80,0,0
94429,-109.89010989011,4,1,0,80,0,0
94599,-106.382978723404,4,1,0,80,0,0
94770,-103.092783505155,4,1,0,80,0,0
94940,-100,4,1,0,80,0,0
159713,-128.205128205128,4,1,0,80,0,0
159883,-123.456790123457,4,1,0,80,0,0
160054,-119.047619047619,4,1,0,80,0,0
160224,-114.942528735632,4,1,0,80,0,0
160395,-111.111111111111,4,1,0,80,0,0
181190,-107.52688172043,4,1,0,80,0,0
181361,-114.942528735632,4,1,0,80,0,0
181531,-123.456790123457,4,1,0,80,0,0
181702,-133.333333333333,4,1,0,80,0,0
181872,-144.927536231884,4,1,0,80,0,0
182043,-158.730158730159,4,1,0,80,0,0
182213,-175.438596491228,4,1,0,50,0,0
183236,-175.438596491228,4,1,0,50,0,0
204031,-133.333333333333,4,1,0,60,0,0
225168,-131.578947368421,4,1,0,80,0,0
225338,-129.87012987013,4,1,0,80,0,0
225508,-128.205128205128,4,1,0,80,0,0
225679,-126.582278481013,4,1,0,80,0,0
225849,-125,4,1,0,70,0,0
246815,-133.333333333333,4,1,0,80,0,0
246986,-128.205128205128,4,1,0,80,0,0
247156,-123.456790123457,4,1,0,80,0,0
247327,-119.047619047619,4,1,0,80,0,0
247497,-114.942528735632,4,1,0,80,0,0
247667,-111.111111111111,4,1,0,80,0,0
291304,-111.111111111111,4,1,0,80,0,1
301531,-108.695652173913,4,1,0,80,0,1
301702,-106.382978723404,4,1,0,80,0,1
301872,-104.166666666667,4,1,0,80,0,1
302043,-102.040816326531,4,1,0,80,0,1
302213,-100,4,1,0,80,0,1
310395,-99.009900990099,4,1,0,80,0,1
310565,-98.0392156862745,4,1,0,80,0,1
310736,-97.0873786407767,4,1,0,80,0,1
310906,-96.1538461538461,4,1,0,80,0,1
311077,-95.2380952380952,4,1,0,80,0,1
311247,-94.3396226415094,4,1,0,80,0,1
311418,-93.4579439252336,4,1,0,80,0,1
311503,-92.5925925925926,4,1,0,80,0,1
311588,-91.743119266055,4,1,0,80,0,1
311758,-90.9090909090909,4,1,0,80,0,1
311929,-90.0900900900901,4,1,0,80,0,1
312099,-89.2857142857143,4,1,0,80,0,1
312270,-88.4955752212389,4,1,0,80,0,1
312440,-87.719298245614,4,1,0,80,0,1
312611,-86.9565217391304,4,1,0,80,0,1
312781,-86.2068965517241,4,1,0,80,0,1
312952,-85.4700854700855,4,1,0,80,0,1
313122,-84.7457627118644,4,1,0,80,0,1
313463,-111.111111111111,4,1,0,60,0,0
324031,-112.359550561798,4,1,0,60,0,0
324372,-113.636363636364,4,1,0,60,0,0
324713,-114.942528735632,4,1,0,60,0,0
325054,-116.279069767442,4,1,0,60,0,0
325395,-117.647058823529,4,1,0,60,0,0
325736,-119.047619047619,4,1,0,60,0,0
326077,-120.481927710843,4,1,0,60,0,0
326247,-121.951219512195,4,1,0,60,0,0
326418,-123.456790123457,4,1,0,60,0,0
326758,-125,4,1,0,60,0,0
327099,-126.582278481013,4,1,0,60,0,0
327440,-128.205128205128,4,1,0,60,0,0
327781,-129.87012987013,4,1,0,60,0,0
328122,-131.578947368421,4,1,0,60,0,0
328463,-133.333333333333,4,1,0,60,0,0
328804,-135.135135135135,4,1,0,60,0,0
328974,-136.986301369863,4,1,0,60,0,0
329145,-138.888888888889,4,1,0,60,0,0
329486,-140.845070422535,4,1,0,60,0,0
329827,-142.857142857143,4,1,0,60,0,0
330168,-144.927536231884,4,1,0,60,0,0
330508,-147.058823529412,4,1,0,60,0,0
330849,-149.253731343284,4,1,0,60,0,0
331190,-151.515151515152,4,1,0,60,0,0
331531,-153.846153846154,4,1,0,60,0,0
331702,-156.25,4,1,0,60,0,0
331872,-158.730158730159,4,1,0,60,0,0
332213,-161.290322580645,4,1,0,60,0,0
332554,-163.934426229508,4,1,0,60,0,0
332895,-166.666666666667,4,1,0,60,0,0
333236,-161.290322580645,4,1,0,60,0,0
333406,-156.25,4,1,0,60,0,0
333577,-151.515151515152,4,1,0,60,0,0
333918,-149.253731343284,4,1,0,60,0,0
334258,-147.058823529412,4,1,0,60,0,0
334599,-138.888888888889,4,1,0,60,0,0
334770,-131.578947368421,4,1,0,60,0,0
334940,-125,4,1,0,50,0,0
335622,-133.333333333333,4,1,0,45,0,0
336986,-142.857142857143,4,1,0,40,0,0
338349,-153.846153846154,4,1,0,35,0,0
339713,-166.666666666667,4,1,0,33,0,0
341077,-181.818181818182,4,1,0,32,0,0
342440,-200,4,1,0,31,0,0
343804,-222.222222222222,4,1,0,30,0,0

[HitObjects]
256,192,7668,5,2,0:0:0:0:
256,192,8690,1,2,0:0:0:0:
256,192,9031,1,2,0:0:0:0:
256,192,10395,1,0,0:0:0:0:
256,192,11418,1,2,0:0:0:0:
256,192,11759,1,2,0:0:0:0:
256,192,13122,1,0,0:0:0:0:
256,192,14145,1,2,0:0:0:0:
256,192,14486,1,2,0:0:0:0:
256,192,15849,1,0,0:0:0:0:
256,192,16872,1,2,0:0:0:0:
256,192,17213,1,2,0:0:0:0:
256,192,17895,1,0,0:0:0:0:
256,192,18577,1,2,0:0:0:0:
256,192,19599,1,2,0:0:0:0:
256,192,19940,1,2,0:0:0:0:
256,192,20622,1,0,0:0:0:0:
256,192,21304,1,0,0:0:0:0:
256,192,22327,1,2,0:0:0:0:
256,192,22668,1,2,0:0:0:0:
256,192,23349,1,0,0:0:0:0:
256,192,24031,1,0,0:0:0:0:
256,192,25054,1,2,0:0:0:0:
256,192,25395,1,2,0:0:0:0:
256,192,26077,1,0,0:0:0:0:
256,192,26759,1,0,0:0:0:0:
256,192,27781,1,2,0:0:0:0:
256,192,28122,1,2,0:0:0:0:
256,192,28804,1,0,0:0:0:0:
256,192,29486,1,4,0:0:0:0:
256,192,30509,1,2,0:0:0:0:
256,192,30849,1,2,0:0:0:0:
256,192,31531,1,0,0:0:0:0:
256,192,31872,1,0,0:0:0:0:
256,192,32213,1,0,0:0:0:0:
256,192,33236,1,2,0:0:0:0:
256,192,33577,1,2,0:0:0:0:
256,192,34259,1,0,0:0:0:0:
256,192,34599,1,0,0:0:0:0:
256,192,34940,1,0,0:0:0:0:
256,192,35963,1,2,0:0:0:0:
256,192,36304,1,2,0:0:0:0:
256,192,36986,1,0,0:0:0:0:
256,192,37327,1,0,0:0:0:0:
256,192,37668,1,0,0:0:0:0:
256,192,38349,1,0,0:0:0:0:
256,192,38690,1,2,0:0:0:0:
256,192,39031,1,2,0:0:0:0:
256,192,39713,1,0,0:0:0:0:
256,192,40395,1,2,0:0:0:0:
256,192,41418,1,2,0:0:0:0:
256,192,41759,1,2,0:0:0:0:
256,192,42440,1,0,0:0:0:0:
256,192,42781,1,0,0:0:0:0:
256,192,43122,1,0,0:0:0:0:
256,192,44145,1,2,0:0:0:0:
256,192,44486,1,2,0:0:0:0:
256,192,45168,1,0,0:0:0:0:
256,192,45509,1,0,0:0:0:0:
256,192,45849,1,0,0:0:0:0:
256,192,46872,1,2,0:0:0:0:
256,192,47213,1,2,0:0:0:0:
256,192,47895,1,0,0:0:0:0:
256,192,48236,1,0,0:0:0:0:
256,192,48577,1,0,0:0:0:0:
256,192,49599,1,2,0:0:0:0:
256,192,49940,1,2,0:0:0:0:
256,192,50622,1,2,0:0:0:0:
256,192,51304,1,4,0:0:0:0:
256,192,51815,1,0,0:0:0:0:
256,192,52327,1,2,0:0:0:0:
256,192,52668,1,2,0:0:0:0:
256,192,53179,1,0,0:0:0:0:
256,192,53690,1,0,0:0:0:0:
256,192,54031,1,0,0:0:0:0:
256,192,54543,1,0,0:0:0:0:
256,192,55054,1,2,0:0:0:0:
256,192,55395,1,2,0:0:0:0:
256,192,55906,1,0,0:0:0:0:
256,192,56418,1,0,0:0:0:0:
256,192,56759,1,0,0:0:0:0:
256,192,57270,1,0,0:0:0:0:
256,192,57781,1,2,0:0:0:0:
256,192,58122,1,2,0:0:0:0:
256,192,58634,1,0,0:0:0:0:
256,192,59145,1,0,0:0:0:0:
254,193,59486,1,0,0:0:0:0:
256,192,59997,1,0,0:0:0:0:
256,192,60509,1,2,0:0:0:0:
256,192,60849,1,2,0:0:0:0:
256,192,61531,1,0,0:0:0:0:
256,192,62213,1,2,0:0:0:0:
256,192,62724,1,0,0:0:0:0:
256,192,63236,1,2,0:0:0:0:
256,192,63577,1,2,0:0:0:0:
256,192,63918,1,0,0:0:0:0:
256,192,64088,1,0,0:0:0:0:
256,192,64259,1,2,0:0:0:0:
256,192,64429,1,0,0:0:0:0:
256,192,64599,1,2,0:0:0:0:
256,192,64940,1,0,0:0:0:0:
256,192,65452,1,0,0:0:0:0:
256,192,65963,1,2,0:0:0:0:
256,192,66304,1,2,0:0:0:0:
256,192,66645,1,0,0:0:0:0:
256,192,66815,1,0,0:0:0:0:
256,192,66986,1,2,0:0:0:0:
256,192,67156,1,0,0:0:0:0:
256,192,67327,1,2,0:0:0:0:
256,192,67668,1,0,0:0:0:0:
256,192,68179,1,0,0:0:0:0:
256,192,68690,1,2,0:0:0:0:
256,192,68861,1,0,0:0:0:0:
256,192,69031,1,2,0:0:0:0:
256,192,69372,1,0,0:0:0:0:
256,192,69543,1,0,0:0:0:0:
256,192,69713,1,2,0:0:0:0:
256,192,69884,1,0,0:0:0:0:
256,192,70054,1,2,0:0:0:0:
256,192,70395,1,0,0:0:0:0:
256,192,70906,1,0,0:0:0:0:
256,192,71418,1,2,0:0:0:0:
256,192,71588,1,2,0:0:0:0:
256,192,71759,1,2,0:0:0:0:
256,192,72099,1,0,0:0:0:0:
256,192,72270,1,0,0:0:0:0:
256,192,72611,1,2,0:0:0:0:
256,192,72781,1,2,0:0:0:0:
256,192,72952,1,2,0:0:0:0:
256,192,73122,1,4,0:0:0:0:
256,192,73463,1,0,0:0:0:0:
256,192,73634,1,0,0:0:0:0:
256,192,73974,1,0,0:0:0:0:
256,192,74145,1,2,0:0:0:0:
256,192,74486,1,2,0:0:0:0:
256,192,74656,1,0,0:0:0:0:
256,192,74827,1,2,0:0:0:0:
256,192,74997,1,2,0:0:0:0:
256,192,75168,1,0,0:0:0:0:
256,192,75509,1,0,0:0:0:0:
256,192,75849,1,0,0:0:0:0:
256,192,76190,1,0,0:0:0:0:
256,192,76361,1,0,0:0:0:0:
256,192,76702,1,0,0:0:0:0:
256,192,76872,1,2,0:0:0:0:
256,192,77213,1,2,0:0:0:0:
256,192,77384,1,0,0:0:0:0:
256,192,77554,1,2,0:0:0:0:
256,192,77724,1,2,0:0:0:0:
256,192,77895,1,0,0:0:0:0:
256,192,78236,1,0,0:0:0:0:
256,192,78577,1,0,0:0:0:0:
256,192,78918,1,0,0:0:0:0:
256,192,79088,1,0,0:0:0:0:
256,192,79429,1,0,0:0:0:0:
256,192,79599,1,2,0:0:0:0:
256,192,79940,1,2,0:0:0:0:
256,192,80111,1,0,0:0:0:0:
256,192,80281,1,2,0:0:0:0:
256,192,80452,1,2,0:0:0:0:
256,192,80622,1,0,0:0:0:0:
256,192,80963,1,0,0:0:0:0:
256,192,81304,1,0,0:0:0:0:
256,192,81645,1,0,0:0:0:0:
256,192,81815,1,0,0:0:0:0:
256,192,82156,1,0,0:0:0:0:
256,192,82327,1,2,0:0:0:0:
256,192,82668,1,2,0:0:0:0:
256,192,82838,1,0,0:0:0:0:
256,192,83009,1,0,0:0:0:0:
256,192,83179,1,0,0:0:0:0:
256,192,83349,1,2,0:0:0:0:
256,192,83690,1,0,0:0:0:0:
256,192,84031,1,2,0:0:0:0:
256,192,84543,1,0,0:0:0:0:
256,192,85054,1,2,0:0:0:0:
256,192,85224,1,0,0:0:0:0:
256,192,85395,1,2,0:0:0:0:
256,192,85736,1,2,0:0:0:0:
256,192,86077,1,0,0:0:0:0:
256,192,86247,1,2,0:0:0:0:
256,192,86418,1,0,0:0:0:0:
256,192,86759,1,0,0:0:0:0:
256,192,87270,1,0,0:0:0:0:
256,192,87781,1,2,0:0:0:0:
256,192,87952,1,0,0:0:0:0:
256,192,88122,1,2,0:0:0:0:
256,192,88463,1,2,0:0:0:0:
256,192,88804,1,0,0:0:0:0:
256,192,88974,1,2,0:0:0:0:
256,192,89145,1,0,0:0:0:0:
256,192,89486,1,0,0:0:0:0:
256,192,89997,1,0,0:0:0:0:
256,192,90509,1,2,0:0:0:0:
256,192,90679,1,0,0:0:0:0:
256,192,90849,1,2,0:0:0:0:
256,192,91190,1,2,0:0:0:0:
256,192,91531,1,0,0:0:0:0:
256,192,91702,1,2,0:0:0:0:
256,192,91872,1,0,0:0:0:0:
256,192,93236,1,2,0:0:0:0:
256,192,93577,1,2,0:0:0:0:
256,192,94088,1,0,0:0:0:0:
256,192,94259,1,2,0:0:0:0:
256,192,94429,1,2,0:0:0:0:
256,192,94599,1,2,0:0:0:0:
256,192,94770,1,2,0:0:0:0:
256,192,94940,1,4,0:0:0:0:
256,192,95622,1,0,0:0:0:0:
256,192,95963,1,8,0:0:0:0:
256,192,96134,1,0,0:0:0:0:
256,192,96304,1,8,0:0:0:0:
256,192,96645,1,0,0:0:0:0:
256,192,96986,1,8,0:0:0:0:
256,192,97071,1,0,0:0:0:0:
256,192,97156,1,0,0:0:0:0:
256,192,97327,1,8,0:0:0:0:
256,192,97668,1,0,0:0:0:0:
256,192,98349,1,8,0:0:0:0:
256,192,98690,1,8,0:0:0:0:
256,192,98861,1,0,0:0:0:0:
256,192,99031,1,8,0:0:0:0:
256,192,99372,1,8,0:0:0:0:
256,192,99543,1,0,0:0:0:0:
256,192,99713,1,8,0:0:0:0:
256,192,99798,1,0,0:0:0:0:
256,192,99884,1,0,0:0:0:0:
256,192,100054,1,8,0:0:0:0:
256,192,100395,1,0,0:0:0:0:
256,192,101077,1,8,0:0:0:0:
256,192,101418,1,8,0:0:0:0:
256,192,101588,1,0,0:0:0:0:
256,192,101759,1,8,0:0:0:0:
256,192,102099,1,0,0:0:0:0:
256,192,102270,1,0,0:0:0:0:
256,192,102440,1,8,0:0:0:0:
256,192,102526,1,0,0:0:0:0:
256,192,102611,1,0,0:0:0:0:
256,192,102781,1,8,0:0:0:0:
256,192,103122,1,0,0:0:0:0:
256,192,103463,1,0,0:0:0:0:
256,192,103804,1,8,0:0:0:0:
256,192,104145,1,8,0:0:0:0:
256,192,104230,1,8,0:0:0:0:
256,192,104315,1,0,0:0:0:0:
256,192,104486,1,8,0:0:0:0:
256,192,104827,1,0,0:0:0:0:
256,192,105168,1,8,0:0:0:0:
256,192,105849,1,0,0:0:0:0:
256,192,106531,1,8,0:0:0:0:
256,192,106872,1,8,0:0:0:0:
256,192,107043,1,0,0:0:0:0:
256,192,107213,1,8,0:0:0:0:
256,192,107554,1,0,0:0:0:0:
256,192,107895,1,8,0:0:0:0:
256,192,107980,1,0,0:0:0:0:
256,192,108065,1,0,0:0:0:0:
256,192,108236,1,8,0:0:0:0:
256,192,108577,1,0,0:0:0:0:
256,192,109259,1,8,0:0:0:0:
256,192,109599,1,8,0:0:0:0:
256,192,109770,1,0,0:0:0:0:
256,192,109940,1,8,0:0:0:0:
256,192,110281,1,0,0:0:0:0:
256,192,110622,1,8,0:0:0:0:
256,192,110707,1,0,0:0:0:0:
256,192,110793,1,0,0:0:0:0:
256,192,110963,1,8,0:0:0:0:
256,192,111304,1,0,0:0:0:0:
256,192,111986,1,8,0:0:0:0:
256,192,112327,1,8,0:0:0:0:
256,192,112497,1,0,0:0:0:0:
256,192,112668,1,8,0:0:0:0:
256,192,113009,1,0,0:0:0:0:
256,192,113349,1,8,0:0:0:0:
256,192,113435,1,0,0:0:0:0:
256,192,113520,1,0,0:0:0:0:
256,192,113690,1,8,0:0:0:0:
256,192,114031,1,0,0:0:0:0:
256,192,114372,1,0,0:0:0:0:
256,192,114713,1,8,0:0:0:0:
256,192,115054,1,8,0:0:0:0:
256,192,115224,1,8,0:0:0:0:
256,192,115395,1,8,0:0:0:0:
256,192,115736,1,0,0:0:0:0:
256,192,116077,1,8,0:0:0:0:
256,192,116418,1,8,0:0:0:0:
256,192,116588,1,8,0:0:0:0:
256,192,116759,1,4,0:0:0:0:
256,192,117099,1,0,0:0:0:0:
256,192,117270,1,0,0:0:0:0:
256,192,117440,1,8,0:0:0:0:
256,192,117781,1,8,0:0:0:0:
256,192,118122,1,8,0:0:0:0:
256,192,118293,1,0,0:0:0:0:
256,192,118463,1,0,0:0:0:0:
256,192,118804,1,8,0:0:0:0:
256,192,118889,1,0,0:0:0:0:
256,192,118974,1,0,0:0:0:0:
256,192,119145,1,8,0:0:0:0:
256,192,119486,1,0,0:0:0:0:
256,192,119827,1,0,0:0:0:0:
256,192,119997,1,0,0:0:0:0:
256,192,120168,1,8,0:0:0:0:
256,192,120509,1,8,0:0:0:0:
256,192,120849,1,8,0:0:0:0:
256,192,121020,1,0,0:0:0:0:
256,192,121190,1,0,0:0:0:0:
256,192,121531,1,8,0:0:0:0:
256,192,121616,1,0,0:0:0:0:
256,192,121702,1,0,0:0:0:0:
256,192,121872,1,8,0:0:0:0:
256,192,122213,1,0,0:0:0:0:
256,192,122554,1,0,0:0:0:0:
256,192,122724,1,0,0:0:0:0:
256,192,122895,1,8,0:0:0:0:
256,192,123236,1,8,0:0:0:0:
256,192,123577,1,8,0:0:0:0:
256,192,123747,1,0,0:0:0:0:
256,192,123918,1,0,0:0:0:0:
256,192,124259,1,8,0:0:0:0:
256,192,124344,1,0,0:0:0:0:
256,192,124429,1,0,0:0:0:0:
256,192,124599,1,8,0:0:0:0:
256,192,124940,1,0,0:0:0:0:
256,192,125281,1,8,0:0:0:0:
256,192,125452,1,0,0:0:0:0:
256,192,125622,1,8,0:0:0:0:
256,192,125963,1,8,0:0:0:0:
256,192,126048,1,8,0:0:0:0:
256,192,126134,1,8,0:0:0:0:
256,192,126304,1,8,0:0:0:0:
256,192,126645,1,0,0:0:0:0:
256,192,126986,1,8,0:0:0:0:
256,192,127327,1,8,0:0:0:0:
256,192,127497,1,8,0:0:0:0:
256,192,127668,1,0,0:0:0:0:
256,192,128009,1,0,0:0:0:0:
256,192,128179,1,0,0:0:0:0:
256,192,128349,1,8,0:0:0:0:
256,192,128690,1,8,0:0:0:0:
256,192,128861,1,0,0:0:0:0:
256,192,129031,1,8,0:0:0:0:
256,192,129372,1,0,0:0:0:0:
256,192,129713,1,8,0:0:0:0:
256,192,129798,1,0,0:0:0:0:
256,192,129884,1,0,0:0:0:0:
256,192,130054,1,8,0:0:0:0:
256,192,130395,1,0,0:0:0:0:
256,192,130736,1,0,0:0:0:0:
256,192,130906,1,0,0:0:0:0:
256,192,131077,1,8,0:0:0:0:
256,192,131418,1,8,0:0:0:0:
256,192,131588,1,0,0:0:0:0:
256,192,131759,1,8,0:0:0:0:
256,192,132099,1,0,0:0:0:0:
256,192,132440,1,8,0:0:0:0:
256,192,132526,1,0,0:0:0:0:
256,192,132611,1,0,0:0:0:0:
256,192,132781,1,8,0:0:0:0:
256,192,133122,1,0,0:0:0:0:
256,192,133463,1,0,0:0:0:0:
256,192,133634,1,0,0:0:0:0:
256,192,133804,1,8,0:0:0:0:
256,192,134145,1,8,0:0:0:0:
256,192,134315,1,0,0:0:0:0:
256,192,134486,1,8,0:0:0:0:
256,192,134827,1,0,0:0:0:0:
256,192,135168,1,8,0:0:0:0:
256,192,135253,1,0,0:0:0:0:
256,192,135338,1,0,0:0:0:0:
256,192,135509,1,8,0:0:0:0:
256,192,135849,1,0,0:0:0:0:
256,192,136531,1,8,0:0:0:0:
256,192,136872,1,8,0:0:0:0:
256,192,136957,1,8,0:0:0:0:
256,192,137043,1,8,0:0:0:0:
256,192,137213,1,8,0:0:0:0:
256,192,137554,1,0,0:0:0:0:
256,192,137895,1,8,0:0:0:0:
256,192,138236,1,8,0:0:0:0:
256,192,138406,1,8,0:0:0:0:
256,192,138577,1,4,0:0:0:0:
256,192,139259,1,8,0:0:0:0:
256,192,139599,1,2,0:0:0:0:
256,192,139940,1,2,0:0:0:0:
256,192,140281,1,0,0:0:0:0:
256,192,140622,1,2,0:0:0:0:
256,192,140963,1,2,0:0:0:0:
256,192,141304,1,0,0:0:0:0:
256,192,141645,1,0,0:0:0:0:
256,192,141815,1,0,0:0:0:0:
256,192,141986,1,8,0:0:0:0:
256,192,142327,1,2,0:0:0:0:
256,192,142668,1,2,0:0:0:0:
256,192,143009,1,0,0:0:0:0:
256,192,143349,1,2,0:0:0:0:
256,192,143690,1,2,0:0:0:0:
256,192,144031,1,0,0:0:0:0:
256,192,144372,1,0,0:0:0:0:
256,192,144543,1,0,0:0:0:0:
256,192,144713,1,8,0:0:0:0:
256,192,145054,1,2,0:0:0:0:
256,192,145395,1,2,0:0:0:0:
256,192,145736,1,0,0:0:0:0:
256,192,146077,1,2,0:0:0:0:
256,192,146418,1,2,0:0:0:0:
256,192,146759,1,0,0:0:0:0:
256,192,147099,1,0,0:0:0:0:
256,192,147270,1,0,0:0:0:0:
256,192,147440,1,8,0:0:0:0:
256,192,147781,1,2,0:0:0:0:
256,192,148122,1,2,0:0:0:0:
256,192,148463,1,0,0:0:0:0:
256,192,148804,1,2,0:0:0:0:
256,192,148974,1,2,0:0:0:0:
256,192,149145,1,2,0:0:0:0:
256,192,149486,1,0,0:0:0:0:
256,192,149827,1,0,0:0:0:0:
256,192,149997,1,0,0:0:0:0:
256,192,150168,1,8,0:0:0:0:
256,192,150509,1,2,0:0:0:0:
256,192,150679,1,0,0:0:0:0:
256,192,150849,1,2,0:0:0:0:
256,192,151190,1,0,0:0:0:0:
256,192,151531,1,2,0:0:0:0:
256,192,151702,1,2,0:0:0:0:
256,192,151872,1,2,0:0:0:0:
256,192,152213,1,0,0:0:0:0:
256,192,152554,1,0,0:0:0:0:
256,192,152724,1,0,0:0:0:0:
256,192,152895,1,8,0:0:0:0:
256,192,153236,1,8,0:0:0:0:
256,192,153406,1,0,0:0:0:0:
256,192,153577,1,8,0:0:0:0:
256,192,153918,1,0,0:0:0:0:
256,192,154259,1,8,0:0:0:0:
256,192,154429,1,2,0:0:0:0:
256,192,154599,1,8,0:0:0:0:
256,192,154940,1,0,0:0:0:0:
256,192,155281,1,0,0:0:0:0:
256,192,155452,1,0,0:0:0:0:
256,192,155622,1,8,0:0:0:0:
256,192,155963,1,8,0:0:0:0:
256,192,156134,1,0,0:0:0:0:
256,192,156304,1,8,0:0:0:0:
256,192,156645,1,0,0:0:0:0:
256,192,156986,1,8,0:0:0:0:
256,192,157156,1,2,0:0:0:0:
256,192,157327,1,8,0:0:0:0:
256,192,157668,1,0,0:0:0:0:
256,192,158690,1,2,0:0:0:0:
256,192,159031,1,2,0:0:0:0:
256,192,159713,1,2,0:0:0:0:
256,192,159884,1,2,0:0:0:0:
256,192,160054,1,2,0:0:0:0:
256,192,160224,1,2,0:0:0:0:
256,192,160395,1,4,0:0:0:0:
256,192,160736,1,0,0:0:0:0:
256,192,160906,1,0,0:0:0:0:
256,192,161077,1,8,0:0:0:0:
256,192,161418,1,8,0:0:0:0:
256,192,161588,1,0,0:0:0:0:
256,192,161759,1,8,0:0:0:0:
256,192,162099,1,0,0:0:0:0:
256,192,162440,1,10,0:0:0:0:
256,192,162611,1,0,0:0:0:0:
256,192,162781,1,10,0:0:0:0:
256,192,162952,1,2,0:0:0:0:
256,192,163122,1,0,0:0:0:0:
256,192,163463,1,0,0:0:0:0:
256,192,163634,1,0,0:0:0:0:
256,192,163804,1,8,0:0:0:0:
256,192,164145,1,8,0:0:0:0:
256,192,164315,1,0,0:0:0:0:
256,192,164486,1,8,0:0:0:0:
256,192,164827,1,0,0:0:0:0:
256,192,165168,1,0,0:0:0:0:
256,192,165338,1,8,0:0:0:0:
256,192,165509,1,8,0:0:0:0:
256,192,165679,1,8,0:0:0:0:
256,192,165849,1,0,0:0:0:0:
256,192,166190,1,0,0:0:0:0:
256,192,166361,1,0,0:0:0:0:
256,192,166531,1,8,0:0:0:0:
256,192,166872,1,8,0:0:0:0:
256,192,167043,1,0,0:0:0:0:
256,192,167213,1,8,0:0:0:0:
256,192,167554,1,0,0:0:0:0:
256,192,167895,1,8,0:0:0:0:
256,192,168065,1,0,0:0:0:0:
256,192,168236,1,8,0:0:0:0:
256,192,168406,1,8,0:0:0:0:
256,192,168577,1,0,0:0:0:0:
256,192,168918,1,0,0:0:0:0:
256,192,169088,1,0,0:0:0:0:
256,192,169259,1,8,0:0:0:0:
256,192,169599,1,8,0:0:0:0:
256,192,169770,1,0,0:0:0:0:
256,192,169940,1,8,0:0:0:0:
256,192,170281,1,0,0:0:0:0:
256,192,170622,1,0,0:0:0:0:
256,192,170793,1,8,0:0:0:0:
256,192,170963,1,8,0:0:0:0:
256,192,171134,1,8,0:0:0:0:
256,192,171304,1,0,0:0:0:0:
256,192,171645,1,0,0:0:0:0:
256,192,171815,1,0,0:0:0:0:
256,192,171986,1,8,0:0:0:0:
256,192,172327,1,8,0:0:0:0:
256,192,172497,1,0,0:0:0:0:
256,192,172668,1,8,0:0:0:0:
256,192,173009,1,0,0:0:0:0:
256,192,173179,1,8,0:0:0:0:
256,192,173349,1,8,0:0:0:0:
256,192,173520,1,8,0:0:0:0:
256,192,173690,1,0,0:0:0:0:
256,192,173861,1,8,0:0:0:0:
256,192,174031,1,0,0:0:0:0:
256,192,174372,1,0,0:0:0:0:
256,192,174543,1,0,0:0:0:0:
256,192,174713,1,8,0:0:0:0:
256,192,175054,1,8,0:0:0:0:
256,192,175224,1,0,0:0:0:0:
256,192,175395,1,8,0:0:0:0:
256,192,175736,1,0,0:0:0:0:
256,192,175906,1,0,0:0:0:0:
256,192,176077,1,8,0:0:0:0:
256,192,176247,1,8,0:0:0:0:
256,192,176418,1,0,0:0:0:0:
256,192,176588,1,8,0:0:0:0:
256,192,176759,1,0,0:0:0:0:
256,192,177099,1,0,0:0:0:0:
256,192,177270,1,0,0:0:0:0:
256,192,177440,1,8,0:0:0:0:
256,192,177781,1,8,0:0:0:0:
256,192,177952,1,0,0:0:0:0:
256,192,178122,1,8,0:0:0:0:
256,192,178463,1,0,0:0:0:0:
256,192,178634,1,8,0:0:0:0:
256,192,178804,1,8,0:0:0:0:
256,192,178974,1,8,0:0:0:0:
256,192,179145,1,0,0:0:0:0:
256,192,179315,1,8,0:0:0:0:
256,192,179486,1,0,0:0:0:0:
256,192,179827,1,0,0:0:0:0:
256,192,179997,1,0,0:0:0:0:
256,192,180168,1,8,0:0:0:0:
256,192,180509,1,8,0:0:0:0:
256,192,180679,1,0,0:0:0:0:
256,192,180849,1,8,0:0:0:0:
256,192,181190,1,0,0:0:0:0:
256,192,181361,1,0,0:0:0:0:
256,192,181531,1,8,0:0:0:0:
256,192,181702,1,8,0:0:0:0:
256,192,181872,1,0,0:0:0:0:
256,192,182043,1,8,0:0:0:0:
256,192,182213,1,4,0:0:0:0:
256,192,183236,1,0,0:0:0:0:
256,192,183577,1,0,0:0:0:0:
256,192,183918,1,2,0:0:0:0:
256,192,184599,1,0,0:0:0:0:
256,192,184940,1,2,0:0:0:0:
256,192,185963,1,0,0:0:0:0:
256,192,186304,1,0,0:0:0:0:
256,192,186645,1,2,0:0:0:0:
256,192,187327,1,0,0:0:0:0:
256,192,187668,1,2,0:0:0:0:
256,192,188690,1,0,0:0:0:0:
256,192,189031,1,0,0:0:0:0:
256,192,189372,1,2,0:0:0:0:
256,192,190054,1,0,0:0:0:0:
256,192,190395,1,2,0:0:0:0:
256,192,191418,1,2,0:0:0:0:
256,192,191759,1,0,0:0:0:0:
256,192,192099,1,2,0:0:0:0:
256,192,192440,1,0,0:0:0:0:
256,192,193122,1,2,0:0:0:0:
256,192,194145,1,0,0:0:0:0:
256,192,194486,1,0,0:0:0:0:
256,192,194827,1,2,0:0:0:0:
256,192,195509,1,0,0:0:0:0:
256,192,195849,1,2,0:0:0:0:
256,192,196872,1,0,0:0:0:0:
256,192,197213,1,0,0:0:0:0:
256,192,197554,1,2,0:0:0:0:
256,192,198236,1,0,0:0:0:0:
256,192,198577,1,2,0:0:0:0:
256,192,199599,1,0,0:0:0:0:
256,192,199940,1,0,0:0:0:0:
256,192,200281,1,2,0:0:0:0:
256,192,200963,1,0,0:0:0:0:
256,192,201304,1,2,0:0:0:0:
256,192,202327,1,2,0:0:0:0:
256,192,202668,1,0,0:0:0:0:
256,192,203009,1,2,0:0:0:0:
256,192,203349,1,2,0:0:0:0:
256,192,204031,1,4,0:0:0:0:
256,192,204543,1,0,0:0:0:0:
256,192,205054,1,2,0:0:0:0:
256,192,205224,1,0,0:0:0:0:
256,192,205395,1,2,0:0:0:0:
256,160,205736,1,2,0:0:0:0:
256,192,206077,1,2,0:0:0:0:
256,192,206162,1,0,0:0:0:0:
256,192,206247,1,0,0:0:0:0:
256,192,206418,1,2,0:0:0:0:
256,192,206759,1,0,0:0:0:0:
256,192,207270,1,0,0:0:0:0:
256,192,207781,1,2,0:0:0:0:
256,192,207952,1,0,0:0:0:0:
256,192,208122,1,2,0:0:0:0:
256,192,208463,1,2,0:0:0:0:
256,192,208804,1,2,0:0:0:0:
255,198,208889,1,0,0:0:0:0:
255,198,208974,1,0,0:0:0:0:
256,192,209145,1,2,0:0:0:0:
256,192,209486,1,0,0:0:0:0:
256,192,209997,1,0,0:0:0:0:
256,192,210509,1,2,0:0:0:0:
256,192,210679,1,2,0:0:0:0:
256,192,210849,1,2,0:0:0:0:
256,192,211190,1,2,0:0:0:0:
256,192,211531,1,2,0:0:0:0:
259,187,211616,1,0,0:0:0:0:
256,192,211702,1,0,0:0:0:0:
256,192,211872,1,2,0:0:0:0:
256,192,212213,1,0,0:0:0:0:
256,192,212554,1,2,0:0:0:0:
256,192,212724,1,0,0:0:0:0:
256,192,213236,1,2,0:0:0:0:
260,186,213321,1,2,0:0:0:0:
256,192,213406,1,0,0:0:0:0:
256,192,213577,1,2,0:0:0:0:
256,192,213918,1,2,0:0:0:0:
256,192,214259,1,2,0:0:0:0:
256,192,214429,1,0,0:0:0:0:
256,192,214599,1,2,0:0:0:0:
256,192,214940,1,0,0:0:0:0:
250,194,215281,1,2,0:0:0:0:
256,192,215452,1,0,0:0:0:0:
256,192,215963,1,2,0:0:0:0:
256,192,216134,1,0,0:0:0:0:
256,192,216304,1,2,0:0:0:0:
256,192,216645,1,2,0:0:0:0:
256,192,216986,1,2,0:0:0:0:
256,192,217071,1,0,0:0:0:0:
256,192,217156,1,0,0:0:0:0:
256,192,217327,1,2,0:0:0:0:
259,200,217497,1,2,0:0:0:0:
256,192,217668,1,0,0:0:0:0:
259,200,218009,1,2,0:0:0:0:
256,192,218179,1,0,0:0:0:0:
256,192,218690,1,2,0:0:0:0:
256,192,218861,1,0,0:0:0:0:
256,192,219031,1,2,0:0:0:0:
256,192,219372,1,2,0:0:0:0:
256,192,219713,1,2,0:0:0:0:
256,192,219798,1,0,0:0:0:0:
256,192,219884,1,0,0:0:0:0:
256,192,220054,1,2,0:0:0:0:
262,189,220224,1,2,0:0:0:0:
256,192,220395,1,0,0:0:0:0:
262,189,220736,1,2,0:0:0:0:
256,192,220906,1,0,0:0:0:0:
256,192,221418,1,2,0:0:0:0:
256,192,221588,1,2,0:0:0:0:
256,192,221759,1,2,0:0:0:0:
256,192,222099,1,2,0:0:0:0:
256,192,222440,1,2,0:0:0:0:
256,192,222526,1,0,0:0:0:0:
256,192,222611,1,0,0:0:0:0:
256,192,222781,1,2,0:0:0:0:
262,189,222952,1,2,0:0:0:0:
256,192,223122,1,0,0:0:0:0:
262,192,223463,1,2,0:0:0:0:
256,192,223634,1,0,0:0:0:0:
261,194,223974,1,0,0:0:0:0:
256,192,224145,1,2,0:0:0:0:
262,192,224230,1,2,0:0:0:0:
256,192,224315,1,0,0:0:0:0:
256,192,224486,1,2,0:0:0:0:
256,192,224827,1,2,0:0:0:0:
256,192,225168,1,2,0:0:0:0:
256,192,225338,1,0,0:0:0:0:
256,192,225509,1,2,0:0:0:0:
256,192,225679,1,2,0:0:0:0:
256,192,225849,1,4,0:0:0:0:
261,194,226190,1,8,0:0:0:0:
256,192,226361,1,0,0:0:0:0:
256,192,226872,1,8,0:0:0:0:
260,202,227043,1,8,0:0:0:0:
256,192,227213,1,0,0:0:0:0:
256,192,227554,1,8,0:0:0:0:
256,192,227895,1,8,0:0:0:0:
256,192,227980,1,0,0:0:0:0:
256,192,228065,1,0,0:0:0:0:
256,192,228236,1,8,0:0:0:0:
251,192,228406,1,8,0:0:0:0:
256,192,228577,1,0,0:0:0:0:
254,186,228747,1,8,0:0:0:0:
256,192,228918,1,8,0:0:0:0:
256,192,229088,1,0,0:0:0:0:
256,193,229429,1,0,0:0:0:0:
256,192,229599,1,8,0:0:0:0:
256,192,229770,1,8,0:0:0:0:
256,192,229940,1,0,0:0:0:0:
256,192,230281,1,8,0:0:0:0:
256,192,230622,1,8,0:0:0:0:
256,192,230707,1,0,0:0:0:0:
256,192,230793,1,0,0:0:0:0:
256,192,230963,1,8,0:0:0:0:
256,192,231134,1,8,0:0:0:0:
256,192,231304,1,0,0:0:0:0:
256,192,231474,1,8,0:0:0:0:
256,192,231645,1,8,0:0:0:0:
256,192,231815,1,0,0:0:0:0:
256,192,232156,1,8,0:0:0:0:
256,192,232327,1,8,0:0:0:0:
256,192,232668,1,0,0:0:0:0:
256,192,233009,1,8,0:0:0:0:
256,192,233349,1,8,0:0:0:0:
256,192,233435,1,0,0:0:0:0:
256,192,233520,1,0,0:0:0:0:
256,192,233690,1,8,0:0:0:0:
256,192,233861,1,8,0:0:0:0:
256,192,234031,1,0,0:0:0:0:
264,194,234202,1,8,0:0:0:0:
260,194,234372,1,8,0:0:0:0:
256,192,234543,1,0,0:0:0:0:
256,192,234884,1,0,0:0:0:0:
256,192,235054,1,8,0:0:0:0:
256,192,235139,1,8,0:0:0:0:
256,192,235224,1,8,0:0:0:0:
256,192,235395,1,8,0:0:0:0:
256,192,235736,1,0,0:0:0:0:
256,192,236077,1,8,0:0:0:0:
256,192,236247,1,0,0:0:0:0:
256,192,236418,1,0,0:0:0:0:
256,192,236759,1,0,0:0:0:0:
256,192,236929,1,0,0:0:0:0:
256,192,237099,1,0,0:0:0:0:
256,192,237270,1,8,0:0:0:0:
256,192,237611,1,0,0:0:0:0:
256,192,237781,1,8,0:0:0:0:
256,192,237952,1,0,0:0:0:0:
256,192,238122,1,8,0:0:0:0:
256,192,238463,1,8,0:0:0:0:
256,192,238804,1,8,0:0:0:0:
256,192,238889,1,0,0:0:0:0:
256,192,238974,1,0,0:0:0:0:
256,192,239145,1,8,0:0:0:0:
256,192,239315,1,8,0:0:0:0:
256,192,239486,1,0,0:0:0:0:
256,192,239656,1,0,0:0:0:0:
256,192,239827,1,0,0:0:0:0:
256,192,239997,1,8,0:0:0:0:
256,192,240338,1,0,0:0:0:0:
256,192,240509,1,8,0:0:0:0:
256,192,240679,1,0,0:0:0:0:
256,192,240849,1,8,0:0:0:0:
256,192,241190,1,0,0:0:0:0:
256,192,241531,1,8,0:0:0:0:
256,192,241616,1,0,0:0:0:0:
256,192,241702,1,0,0:0:0:0:
256,192,241872,1,8,0:0:0:0:
256,192,242043,1,8,0:0:0:0:
256,192,242213,1,0,0:0:0:0:
256,192,242384,1,0,0:0:0:0:
256,192,242554,1,0,0:0:0:0:
256,192,242724,1,8,0:0:0:0:
256,192,243065,1,0,0:0:0:0:
256,192,243236,1,8,0:0:0:0:
256,192,243406,1,0,0:0:0:0:
256,192,243577,1,8,0:0:0:0:
256,192,243918,1,0,0:0:0:0:
256,192,244259,1,8,0:0:0:0:
256,192,244344,1,0,0:0:0:0:
256,192,244429,1,0,0:0:0:0:
256,192,244599,1,8,0:0:0:0:
256,192,244770,1,8,0:0:0:0:
256,192,244940,1,0,0:0:0:0:
256,192,245963,1,2,0:0:0:0:
256,192,246304,1,2,0:0:0:0:
256,192,246815,1,0,0:0:0:0:
256,192,246986,1,8,0:0:0:0:
256,192,247156,1,8,0:0:0:0:
256,192,247327,1,8,0:0:0:0:
256,192,247497,1,8,0:0:0:0:
256,192,247668,1,4,0:0:0:0:
256,192,248009,1,0,0:0:0:0:
256,192,248179,1,0,0:0:0:0:
256,192,248349,1,8,0:0:0:0:
256,192,248690,1,8,0:0:0:0:
256,192,249031,1,8,0:0:0:0:
256,192,249372,1,0,0:0:0:0:
256,192,249713,1,8,0:0:0:0:
256,192,249798,1,0,0:0:0:0:
256,192,249884,1,0,0:0:0:0:
256,192,250054,1,8,0:0:0:0:
256,192,250395,1,0,0:0:0:0:
256,192,250736,1,0,0:0:0:0:
256,192,250906,1,0,0:0:0:0:
256,192,251077,1,8,0:0:0:0:
256,192,251418,1,8,0:0:0:0:
256,192,251759,1,8,0:0:0:0:
256,192,252099,1,0,0:0:0:0:
256,192,252440,1,8,0:0:0:0:
256,192,252526,1,0,0:0:0:0:
256,192,252611,1,0,0:0:0:0:
256,192,252781,1,8,0:0:0:0:
256,192,253122,1,0,0:0:0:0:
256,192,253463,1,0,0:0:0:0:
256,192,253634,1,0,0:0:0:0:
256,192,253804,1,8,0:0:0:0:
256,192,254145,1,8,0:0:0:0:
256,192,254486,1,8,0:0:0:0:
256,192,254827,1,0,0:0:0:0:
256,192,255168,1,8,0:0:0:0:
256,192,255253,1,0,0:0:0:0:
256,192,255338,1,0,0:0:0:0:
256,192,255509,1,8,0:0:0:0:
256,192,255849,1,0,0:0:0:0:
256,192,256190,1,0,0:0:0:0:
256,192,256361,1,0,0:0:0:0:
256,192,256531,1,8,0:0:0:0:
256,192,256872,1,8,0:0:0:0:
256,192,256957,1,8,0:0:0:0:
256,192,257043,1,8,0:0:0:0:
256,192,257213,1,0,0:0:0:0:
256,192,257384,1,8,0:0:0:0:
256,192,257554,1,0,0:0:0:0:
256,192,257895,1,8,0:0:0:0:
256,192,258236,1,8,0:0:0:0:
256,192,258577,1,0,0:0:0:0:
256,192,258918,1,0,0:0:0:0:
256,192,259088,1,0,0:0:0:0:
256,192,259259,1,8,0:0:0:0:
256,192,259599,1,0,0:0:0:0:
256,192,259770,1,8,0:0:0:0:
256,192,259940,1,8,0:0:0:0:
256,192,260111,1,8,0:0:0:0:
256,192,260281,1,0,0:0:0:0:
256,192,260622,1,8,0:0:0:0:
256,192,260707,1,8,0:0:0:0:
256,192,260793,1,0,0:0:0:0:
256,192,260963,1,8,0:0:0:0:
256,192,261304,1,0,0:0:0:0:
256,192,261645,1,0,0:0:0:0:
256,192,261815,1,0,0:0:0:0:
256,192,261986,1,8,0:0:0:0:
256,192,262327,1,0,0:0:0:0:
256,192,262497,1,8,0:0:0:0:
256,192,262668,1,8,0:0:0:0:
256,192,262838,1,8,0:0:0:0:
256,192,263009,1,0,0:0:0:0:
256,192,263349,1,8,0:0:0:0:
256,192,263435,1,8,0:0:0:0:
256,192,263520,1,0,0:0:0:0:
256,192,263690,1,8,0:0:0:0:
256,192,264031,1,8,0:0:0:0:
256,192,264372,1,0,0:0:0:0:
256,192,264543,1,0,0:0:0:0:
256,192,264713,1,8,0:0:0:0:
256,192,265054,1,0,0:0:0:0:
256,192,265224,1,8,0:0:0:0:
256,192,265395,1,8,0:0:0:0:
256,192,265565,1,8,0:0:0:0:
256,192,265736,1,0,0:0:0:0:
256,192,266077,1,8,0:0:0:0:
256,192,266162,1,8,0:0:0:0:
256,192,266247,1,0,0:0:0:0:
256,192,266418,1,8,0:0:0:0:
256,192,266759,1,0,0:0:0:0:
256,192,267099,1,8,0:0:0:0:
256,192,267270,1,0,0:0:0:0:
256,192,267440,1,8,0:0:0:0:
256,192,267781,1,8,0:0:0:0:
256,192,267866,1,8,0:0:0:0:
256,192,267952,1,8,0:0:0:0:
256,192,268122,1,0,0:0:0:0:
256,192,268293,1,8,0:0:0:0:
256,192,268463,1,0,0:0:0:0:
256,192,268804,1,8,0:0:0:0:
256,192,268974,1,8,0:0:0:0:
256,192,269145,1,8,0:0:0:0:
256,192,269315,1,8,0:0:0:0:
256,192,269486,1,4,0:0:0:0:
256,192,269827,1,0,0:0:0:0:
256,192,269997,1,0,0:0:0:0:
256,192,270168,1,8,0:0:0:0:
256,192,270509,1,8,0:0:0:0:
256,192,270849,1,8,0:0:0:0:
256,192,271020,1,8,0:0:0:0:
256,192,271190,1,0,0:0:0:0:
256,192,271531,1,8,0:0:0:0:
256,192,271872,1,8,0:0:0:0:
256,192,272213,1,0,0:0:0:0:
256,192,272554,1,0,0:0:0:0:
256,192,272724,1,0,0:0:0:0:
256,192,272895,1,8,0:0:0:0:
256,192,273236,1,8,0:0:0:0:
256,192,273577,1,8,0:0:0:0:
256,192,273747,1,8,0:0:0:0:
256,192,273918,1,0,0:0:0:0:
256,192,274259,1,8,0:0:0:0:
256,192,274599,1,8,0:0:0:0:
256,192,274940,1,0,0:0:0:0:
256,192,275281,1,0,0:0:0:0:
256,192,275452,1,0,0:0:0:0:
256,192,275622,1,8,0:0:0:0:
256,192,275963,1,8,0:0:0:0:
256,192,276304,1,8,0:0:0:0:
256,192,276474,1,8,0:0:0:0:
256,192,276645,1,0,0:0:0:0:
256,192,276986,1,8,0:0:0:0:
256,192,277327,1,8,0:0:0:0:
256,192,277668,1,0,0:0:0:0:
256,192,278009,1,8,0:0:0:0:
256,192,278349,1,8,0:0:0:0:
256,192,278690,1,8,0:0:0:0:
256,192,278861,1,0,0:0:0:0:
256,192,279031,1,8,0:0:0:0:
256,192,279202,1,8,0:0:0:0:
256,192,279372,1,0,0:0:0:0:
256,192,279713,1,8,0:0:0:0:
256,192,280054,1,8,0:0:0:0:
256,192,280224,1,8,0:0:0:0:
256,192,280395,1,0,0:0:0:0:
256,192,280736,1,0,0:0:0:0:
256,192,280906,1,0,0:0:0:0:
256,192,281077,1,8,0:0:0:0:
256,192,281418,1,8,0:0:0:0:
256,192,281588,1,0,0:0:0:0:
256,192,281759,1,8,0:0:0:0:
256,192,281929,1,8,0:0:0:0:
256,192,282099,1,0,0:0:0:0:
256,192,282440,1,8,0:0:0:0:
256,192,282781,1,8,0:0:0:0:
256,192,282952,1,8,0:0:0:0:
256,192,283122,1,0,0:0:0:0:
256,192,283463,1,0,0:0:0:0:
256,192,283634,1,0,0:0:0:0:
256,192,283804,1,8,0:0:0:0:
256,192,284145,1,8,0:0:0:0:
256,192,284315,1,0,0:0:0:0:
256,192,284486,1,8,0:0:0:0:
256,192,284656,1,8,0:0:0:0:
256,192,284827,1,0,0:0:0:0:
256,192,285168,1,8,0:0:0:0:
256,192,285509,1,8,0:0:0:0:
256,192,285679,1,8,0:0:0:0:
256,192,285849,1,0,0:0:0:0:
256,192,286190,1,0,0:0:0:0:
256,192,286361,1,0,0:0:0:0:
256,192,286531,1,8,0:0:0:0:
256,192,286872,1,8,0:0:0:0:
256,192,287043,1,0,0:0:0:0:
256,192,287213,1,8,0:0:0:0:
256,192,287384,1,8,0:0:0:0:
256,192,287554,1,0,0:0:0:0:
256,192,287895,1,8,0:0:0:0:
256,192,288236,1,8,0:0:0:0:
256,192,288406,1,8,0:0:0:0:
256,192,288577,1,0,0:0:0:0:
256,192,288918,1,0,0:0:0:0:
256,192,289088,1,0,0:0:0:0:
256,192,289259,1,8,0:0:0:0:
256,192,289429,1,0,0:0:0:0:
256,192,289770,1,0,0:0:0:0:
256,192,289940,1,0,0:0:0:0:
256,192,290281,1,0,0:0:0:0:
256,192,290622,1,8,0:0:0:0:
256,192,290963,1,8,0:0:0:0:
256,192,291134,1,8,0:0:0:0:
256,192,291304,1,4,0:0:0:0:
256,192,291645,1,0,0:0:0:0:
256,192,291986,1,8,0:0:0:0:
256,192,292327,1,8,0:0:0:0:
256,192,292497,1,0,0:0:0:0:
256,192,292668,1,8,0:0:0:0:
256,192,293009,1,0,0:0:0:0:
256,192,293349,1,8,0:0:0:0:
256,192,293435,1,0,0:0:0:0:
256,192,293520,1,0,0:0:0:0:
256,192,293690,1,8,0:0:0:0:
256,192,293861,1,8,0:0:0:0:
256,192,294031,1,0,0:0:0:0:
256,192,294372,1,0,0:0:0:0:
256,192,294713,1,8,0:0:0:0:
256,192,295054,1,8,0:0:0:0:
256,192,295224,1,0,0:0:0:0:
256,192,295395,1,8,0:0:0:0:
256,192,295736,1,0,0:0:0:0:
256,192,296077,1,8,0:0:0:0:
256,192,296162,1,0,0:0:0:0:
256,192,296247,1,0,0:0:0:0:
256,192,296418,1,8,0:0:0:0:
256,192,296588,1,8,0:0:0:0:
256,192,296759,1,0,0:0:0:0:
256,192,297099,1,0,0:0:0:0:
256,192,297440,1,8,0:0:0:0:
256,192,297781,1,8,0:0:0:0:
256,192,297952,1,0,0:0:0:0:
256,192,298122,1,8,0:0:0:0:
256,192,298463,1,0,0:0:0:0:
256,192,298804,1,8,0:0:0:0:
256,192,298889,1,0,0:0:0:0:
256,192,298974,1,0,0:0:0:0:
256,192,299145,1,8,0:0:0:0:
256,192,299315,1,8,0:0:0:0:
256,192,299486,1,0,0:0:0:0:
256,192,299827,1,0,0:0:0:0:
256,192,300168,1,8,0:0:0:0:
256,192,300509,1,8,0:0:0:0:
256,192,300594,1,8,0:0:0:0:
256,192,300679,1,8,0:0:0:0:
256,192,300849,1,8,0:0:0:0:
256,192,301020,1,8,0:0:0:0:
256,192,301190,1,0,0:0:0:0:
256,192,301531,1,8,0:0:0:0:
256,192,301702,1,0,0:0:0:0:
256,192,301872,1,8,0:0:0:0:
256,192,302043,1,8,0:0:0:0:
256,192,302213,1,4,0:0:0:0:
256,192,302554,1,0,0:0:0:0:
256,192,302724,1,0,0:0:0:0:
256,192,302895,1,8,0:0:0:0:
256,192,303236,1,8,0:0:0:0:
256,192,303406,1,0,0:0:0:0:
256,192,303577,1,8,0:0:0:0:
256,192,303747,1,8,0:0:0:0:
256,192,303918,1,0,0:0:0:0:
256,192,304259,1,8,0:0:0:0:
256,192,304344,1,8,0:0:0:0:
256,192,304429,1,0,0:0:0:0:
256,192,304599,1,8,0:0:0:0:
256,192,304770,1,8,0:0:0:0:
256,192,304940,1,0,0:0:0:0:
256,192,305281,1,0,0:0:0:0:
256,192,305452,1,0,0:0:0:0:
256,192,305622,1,8,0:0:0:0:
256,192,305963,1,8,0:0:0:0:
256,192,306134,1,0,0:0:0:0:
256,192,306304,1,8,0:0:0:0:
256,192,306474,1,8,0:0:0:0:
256,192,306645,1,0,0:0:0:0:
256,192,306986,1,8,0:0:0:0:
256,192,307071,1,8,0:0:0:0:
256,192,307156,1,0,0:0:0:0:
256,192,307327,1,0,0:0:0:0:
256,192,307497,1,8,0:0:0:0:
256,192,307668,1,0,0:0:0:0:
256,192,308009,1,0,0:0:0:0:
256,192,308179,1,0,0:0:0:0:
256,192,308349,1,8,0:0:0:0:
256,192,308690,1,8,0:0:0:0:
256,192,308861,1,0,0:0:0:0:
256,192,309031,1,8,0:0:0:0:
256,192,309202,1,8,0:0:0:0:
256,192,309372,1,0,0:0:0:0:
256,192,309713,1,8,0:0:0:0:
256,192,309798,1,8,0:0:0:0:
256,192,309884,1,0,0:0:0:0:
256,192,310054,1,0,0:0:0:0:
256,192,310224,1,0,0:0:0:0:
256,192,310395,1,8,0:0:0:0:
256,192,310565,1,0,0:0:0:0:
256,192,310736,1,8,0:0:0:0:
256,192,310906,1,0,0:0:0:0:
256,192,311077,1,8,0:0:0:0:
256,192,311247,1,0,0:0:0:0:
256,192,311418,1,8,0:0:0:0:
256,192,311503,1,8,0:0:0:0:
256,192,311588,1,8,0:0:0:0:
256,192,311759,1,8,0:0:0:0:
256,192,311929,1,8,0:0:0:0:
256,192,312099,1,8,0:0:0:0:
256,192,312270,1,0,0:0:0:0:
256,192,312440,1,8,0:0:0:0:
256,192,312611,1,0,0:0:0:0:
256,192,312781,1,8,0:0:0:0:
256,192,312952,1,8,0:0:0:0:
256,192,313122,1,0,0:0:0:0:
256,192,313463,1,0,0:0:0:0:
256,192,313634,1,0,0:0:0:0:
256,192,313804,1,2,0:0:0:0:
256,192,314145,1,2,0:0:0:0:
256,192,314486,1,2,0:0:0:0:
256,192,314827,1,0,0:0:0:0:
256,192,315168,1,2,0:0:0:0:
256,192,315338,1,0,0:0:0:0:
256,192,315509,1,0,0:0:0:0:
256,192,315849,1,2,0:0:0:0:
256,192,316190,1,0,0:0:0:0:
256,192,316361,1,0,0:0:0:0:
256,192,316531,1,2,0:0:0:0:
256,192,316872,1,2,0:0:0:0:
256,192,317213,1,2,0:0:0:0:
256,192,317554,1,0,0:0:0:0:
256,192,317895,1,2,0:0:0:0:
256,192,318065,1,0,0:0:0:0:
256,192,318236,1,0,0:0:0:0:
256,192,318577,1,2,0:0:0:0:
256,192,318918,1,0,0:0:0:0:
256,192,319088,1,0,0:0:0:0:
256,192,319259,1,2,0:0:0:0:
256,192,319599,1,2,0:0:0:0:
256,192,319940,1,2,0:0:0:0:
256,192,320281,1,0,0:0:0:0:
256,192,320622,1,2,0:0:0:0:
256,192,320793,1,0,0:0:0:0:
256,192,320963,1,0,0:0:0:0:
256,192,321304,1,2,0:0:0:0:
256,192,321645,1,0,0:0:0:0:
256,192,321815,1,0,0:0:0:0:
256,192,321986,1,2,0:0:0:0:
256,192,322327,1,2,0:0:0:0:
256,192,322497,1,2,0:0:0:0:
256,192,322668,1,2,0:0:0:0:
256,192,323009,1,0,0:0:0:0:
256,192,323349,1,2,0:0:0:0:
256,192,323690,1,2,0:0:0:0:
256,192,324031,1,0,0:0:0:0:
256,192,324372,1,0,0:0:0:0:
256,192,324713,1,2,0:0:0:0:
256,192,325054,1,2,0:0:0:0:
256,192,325395,1,2,0:0:0:0:
256,192,325736,1,0,0:0:0:0:
256,192,326077,1,2,0:0:0:0:
256,192,326247,1,0,0:0:0:0:
256,192,326418,1,0,0:0:0:0:
256,192,326759,1,2,0:0:0:0:
256,192,327099,1,0,0:0:0:0:
256,192,327440,1,2,0:0:0:0:
256,192,327781,1,2,0:0:0:0:
256,192,328122,1,2,0:0:0:0:
256,192,328463,1,0,0:0:0:0:
256,192,328804,1,2,0:0:0:0:
256,192,328974,1,0,0:0:0:0:
256,192,329145,1,0,0:0:0:0:
256,192,329486,1,2,0:0:0:0:
256,192,329827,1,0,0:0:0:0:
256,192,330168,1,2,0:0:0:0:
256,192,330509,1,2,0:0:0:0:
256,192,330849,1,2,0:0:0:0:
256,192,331190,1,0,0:0:0:0:
256,192,331531,1,2,0:0:0:0:
256,192,331702,1,0,0:0:0:0:
256,192,331872,1,0,0:0:0:0:
256,192,332213,1,2,0:0:0:0:
256,192,332554,1,0,0:0:0:0:
256,192,332895,1,2,0:0:0:0:
256,192,333236,1,2,0:0:0:0:
256,192,333406,1,2,0:0:0:0:
256,192,333577,1,2,0:0:0:0:
256,192,333918,1,0,0:0:0:0:
256,192,334259,1,2,0:0:0:0:
256,192,334599,1,2,0:0:0:0:
256,192,334770,1,2,0:0:0:0:
256,192,334940,1,0,0:0:0:0:
256,192,335622,5,2,0:0:0:0:
256,192,335963,12,0,336304,0:0:0:0:
256,192,336986,5,2,0:0:0:0:
256,192,337327,12,0,337668,0:0:0:0:
256,192,338349,5,2,0:0:0:0:
256,192,338690,12,0,339031,0:0:0:0:
256,192,339713,5,2,0:0:0:0:
256,192,340054,12,0,340395,0:0:0:0:
256,192,341077,5,2,0:0:0:0:
256,192,341418,12,0,341759,0:0:0:0:
256,192,342440,5,2,0:0:0:0:
256,192,342781,12,0,343122,0:0:0:0:
256,192,343804,5,2,0:0:0:0:
256,192,344145,12,0,344486,0:0:0:0:
